osu file format v12

[General]
AudioFilename: Lost one no Goukoku.mp3
AudioLeadIn: 0
PreviewTime: 167123
Countdown: 0
SampleSet: Soft
StackLeniency: 0.7
Mode: 0
LetterboxInBreaks: 0

[Editor]
Bookmarks: 16382,26753,40086,51938,63790,75642,87493,99345,111197,123049,134901,146753,158605,170456,182308,195642,207493
DistanceSpacing: 1.3
BeatDivisor: 4
GridSize: 8

[Metadata]
Title:Lost One no Goukoku
TitleUnicode:ロストワンの号哭
Artist:Neru
ArtistUnicode:Neru
Creator:goodbye
Version:Kotone
Source:
Tags:vocaloid kagamine rin oshiirep eveless Kotone Azure Disoy karenying
BeatmapID:231475
BeatmapSetID:83547

[Difficulty]
HPDrainRate:5
CircleSize:4
OverallDifficulty:6
ApproachRate:8
SliderMultiplier:1.6
SliderTickRate:1

[Events]
//Background and Video events
0,0,"34023503.jpg",0,0
Video,0,"lost one no goukoku.flv"
//Break Periods
2,16582,26003
2,100101,110447
//Storyboard Layer 0 (Background)
//Storyboard Layer 1 (Fail)
//Storyboard Layer 2 (Pass)
//Storyboard Layer 3 (Foreground)
//Storyboard Sound Samples
//Background Colour Transformations
3,100,163,162,255

[TimingPoints]
1568,370.37037037037,4,1,1,60,1,0
4530,-100,4,2,1,80,0,0
51197,-166.666666666667,4,2,1,19,0,0
51660,-166.666666666667,4,2,1,80,0,0
52123,-100,4,2,1,80,0,0
75642,-83.3333333333333,4,2,1,80,0,1
99345,-100,4,2,1,80,0,0
99716,-50,4,2,1,60,0,0
99901,-100,4,2,1,20,0,0
109716,-153.846153846154,4,2,1,60,0,0
122493,-133.333333333333,4,2,1,60,0,0
122679,-100,4,2,1,60,0,0
134901,-83.3333333333333,4,2,1,80,0,1
158605,-83.3333333333333,4,2,1,70,0,0
164530,-100,4,2,1,70,0,0
168975,-83.3333333333333,4,2,1,44,0,0
169715,-83.3333333333333,4,2,1,60,0,0
170456,-83.3333333333333,4,2,1,80,0,1
182308,-83.3333333333333,4,2,1,80,0,0
183419,-200,4,1,1,60,0,0
183697,-200,4,2,1,30,0,0
183790,-100,4,2,1,80,0,0
206012,-100,4,2,1,60,0,0
206753,-100,4,2,1,70,0,0
207493,-66.6666666666667,4,1,1,70,0,0
209716,-166.666666666667,4,1,1,70,0,0
210086,-66.6666666666667,4,1,1,70,0,0

[Colours]
Combo1 : 207,10,10
Combo2 : 137,194,183
Combo3 : 140,140,140
Combo4 : 196,165,123
Combo5 : 154,71,82
Combo6 : 41,48,88

[HitObjects]
322,120,1568,5,0,0:0:0:0:
322,120,1753,1,0,0:0:0:0:
179,192,1938,2,0,L|135:202,3,40
94,262,2308,5,0,0:0:0:0:
94,262,2493,1,0,0:0:0:0:
250,316,2678,2,0,L|294:326,3,40
360,343,3049,5,0,0:0:0:0:
360,343,3234,1,0,0:0:0:0:
491,243,3419,2,0,L|491:198,1,40
448,166,3605,2,0,L|448:121,1,40
496,95,3790,2,0,P|450:40|364:53,1,160,0|0,0:0|0:0,0:0:0:0:
238,175,4530,6,0,L|149:180,1,80,4|0,0:0|0:0,0:0:0:0:
78,125,4901,1,8,0:0:0:0:
78,125,4993,1,0,0:0:0:0:
78,125,5086,1,0,0:0:0:0:
209,268,5271,2,0,L|120:273,1,80
49,218,5642,1,8,0:0:0:0:
49,218,5734,1,0,0:0:0:0:
49,218,5827,1,0,0:0:0:0:
170,360,6012,6,0,L|81:365,1,80
10,310,6383,1,8,0:0:0:0:
10,310,6475,1,0,0:0:0:0:
10,310,6568,1,0,0:0:0:0:
209,268,6753,2,0,L|298:263,1,80
393,314,7123,2,0,L|418:357,2,40,8|0|0,0:0|0:0|0:0,0:0:0:0:
376,219,7493,6,0,P|373:166|383:112,1,80
468,38,7864,1,8,0:0:0:0:
468,38,7956,2,0,L|460:97,1,40
455,219,8234,2,0,P|416:222|376:219,1,80
250,161,8605,1,8,0:0:0:0:
250,161,8697,2,0,L|190:155,1,40
48,98,8975,5,0,0:0:0:0:
48,98,9160,2,0,P|82:56|187:62,2,160,2|2|2,0:0|0:0|0:0,0:0:0:0:
78,229,10086,2,0,L|98:309,1,80,0|2,0:0|0:0,0:0:0:0:
218,349,10456,6,0,P|268:349|322:322,1,80,4|0,0:0|0:0,0:0:0:0:
244,219,10827,1,8,0:0:0:0:
244,219,10919,2,0,L|176:239,1,40
331,219,11197,2,0,P|314:171|271:129,1,80,0|0,0:0|0:0,0:0:0:0:
182,105,11568,1,8,0:0:0:0:
182,105,11660,2,0,L|223:162,1,40
97,60,11938,6,0,P|91:107|111:167,1,80
30,207,12308,1,8,0:0:0:0:
30,207,12401,1,0,0:0:0:0:
30,207,12493,2,0,L|47:286,1,80
191,380,12864,1,0,0:0:0:0:
234,294,13049,1,8,0:0:0:0:
234,294,13142,1,0,0:0:0:0:
234,294,13234,2,0,L|217:215,1,80
120,215,13605,5,0,0:0:0:0:
262,123,13790,1,8,0:0:0:0:
262,123,13882,1,0,0:0:0:0:
262,123,13975,2,0,L|359:112,1,80
409,181,14345,1,0,0:0:0:0:
244,33,14530,1,8,0:0:0:0:
244,33,14622,1,0,0:0:0:0:
244,33,14715,2,0,L|147:44,1,80
72,69,15086,5,0,0:0:0:0:
141,203,15271,1,8,0:0:0:0:
141,203,15364,1,0,0:0:0:0:
141,203,15456,1,0,0:0:0:0:
55,247,15642,1,0,1:0:0:0:
69,341,15827,1,0,1:0:0:0:
163,359,16012,1,0,1:0:0:0:
209,273,16197,1,0,1:0:0:0:
49,130,16382,5,4,0:0:0:0:
60,67,26753,5,0,1:0:0:0:
60,67,26845,1,0,1:0:0:0:
60,67,26938,1,0,1:0:0:0:
60,67,27030,1,0,1:0:0:0:
60,67,27123,1,0,1:0:0:0:
126,135,27308,1,0,1:0:0:0:
244,77,27493,2,0,L|333:65,1,80,0|0,1:0|1:0,0:0:0:0:
457,45,27864,2,0,L|469:102,1,40,0|0,1:0|1:0,0:0:0:0:
444,127,28049,2,0,L|456:184,1,40,0|0,1:0|1:0,0:0:0:0:
489,196,28234,6,0,P|474:247|389:269,1,120,4|0,0:0|0:0,0:0:0:0:
369,264,28605,1,8,0:0:0:0:
486,335,28790,1,0,0:0:0:0:
486,335,29160,1,0,0:0:0:0:
369,264,29345,1,8,0:0:0:0:
280,300,29530,1,0,0:0:0:0:
191,337,29716,6,0,P|160:282|171:217,1,120
184,182,30086,1,8,0:0:0:0:
56,266,30271,1,0,0:0:0:0:
56,266,30642,1,0,0:0:0:0:
184,182,30827,1,8,0:0:0:0:
105,70,31012,1,0,0:0:0:0:
105,70,31105,1,0,0:0:0:0:
105,70,31197,6,0,P|144:51|184:49,1,80
229,78,31475,2,0,L|300:86,1,40,0|8,0:0|0:0,0:0:0:0:
447,145,31753,2,0,P|397:173|335:162,1,120
319,147,32123,1,0,0:0:0:0:
366,5,32308,2,0,L|382:84,1,80,8|0,0:0|0:0,0:0:0:0:
452,241,32679,6,0,P|394:260|309:247,1,120
309,241,33049,1,8,0:0:0:0:
196,292,33234,2,0,L|28:310,1,160
82,149,33790,1,8,0:0:0:0:
174,173,33975,2,0,L|216:200,1,40
258,234,34160,6,0,P|280:266|251:361,1,120,4|0,0:0|0:0,0:0:0:0:
253,369,34530,1,8,0:0:0:0:
367,298,34716,2,0,P|408:281|495:297,1,120
503,307,35086,1,0,0:0:0:0:
468,191,35271,2,0,L|457:105,1,80,8|0,0:0|0:0,0:0:0:0:
410,27,35642,5,0,0:0:0:0:
279,103,35827,1,0,0:0:0:0:
279,103,35919,1,0,0:0:0:0:
279,103,36012,1,8,0:0:0:0:
188,70,36197,2,0,P|245:18|328:25,1,160
460,114,36753,2,0,L|379:136,1,80,8|0,0:0|0:0,0:0:0:0:
235,235,37123,6,0,P|208:186|205:154,1,80
208,143,37401,1,8,0:0:0:0:
326,256,37586,1,0,0:0:0:0:
326,256,37679,2,0,P|302:304|199:322,1,160
97,217,38234,1,8,0:0:0:0:
235,234,38419,1,0,0:0:0:0:
100,307,38605,6,0,L|8:304,1,80,0|0,1:0|1:0,0:0:0:0:
5,303,38882,1,0,1:0:0:0:
172,158,39067,1,0,1:0:0:0:
172,158,39160,2,0,L|264:161,1,80,0|0,0:0|3:0,1:0:0:0:
345,181,39530,1,0,1:0:0:0:
359,276,39716,1,0,1:0:0:0:
273,319,39901,1,0,0:0:0:0:
207,248,40086,5,4,0:0:0:0:
296,113,40271,1,0,0:0:0:0:
372,55,40456,2,0,L|425:47,2,40,8|0|0,0:0|0:0|0:0,0:0:0:0:
287,233,40827,5,0,0:0:0:0:
444,199,41012,1,0,0:0:0:0:
472,107,41197,2,0,L|524:116,2,40,8|0|0,0:0|0:0|0:0,0:0:0:0:
359,276,41567,5,0,0:0:0:0:
506,340,41752,1,0,0:0:0:0:
478,219,41938,2,0,L|523:246,2,40,8|0|0,0:0|0:0|0:0,0:0:0:0:
359,356,42308,5,0,0:0:0:0:
368,176,42493,1,0,0:0:0:0:
279,115,42679,2,0,L|263:59,2,40,8|0|0,0:0|0:0|0:0,0:0:0:0:
228,208,43049,6,0,P|259:235|296:245,1,80
118,195,43420,1,8,0:0:0:0:
118,195,43512,1,0,0:0:0:0:
118,195,43605,1,0,0:0:0:0:
325,335,43790,6,0,P|360:312|381:281,1,80
149,288,44160,1,8,0:0:0:0:
149,288,44252,1,0,0:0:0:0:
149,288,44345,1,0,0:0:0:0:
370,195,44530,6,0,L|390:103,1,80
232,348,44901,1,8,0:0:0:0:
232,348,44993,1,0,0:0:0:0:
232,348,45086,1,0,0:0:0:0:
274,150,45271,6,0,P|231:148|188:165,1,80
155,185,45549,1,8,0:0:0:0:
281,253,45734,1,0,0:0:0:0:
281,253,45827,1,8,0:0:0:0:
370,195,46012,6,0,L|470:183,1,80,4|0,0:0|0:0,0:0:0:0:
477,104,46382,1,8,0:0:0:0:
477,104,46475,1,0,0:0:0:0:
477,104,46567,1,0,0:0:0:0:
504,267,46753,2,0,L|404:279,1,80
370,195,47123,1,8,0:0:0:0:
370,195,47216,1,0,0:0:0:0:
370,195,47308,1,0,0:0:0:0:
390,366,47493,6,0,L|490:354,1,80
504,267,47863,1,8,0:0:0:0:
504,267,47956,1,0,0:0:0:0:
504,267,48048,1,0,0:0:0:0:
311,290,48234,2,0,L|211:302,1,80
102,340,48605,2,0,L|47:354,2,40,8|0|0,0:0|0:0|0:0,0:0:0:0:
132,173,48975,6,0,P|146:214|147:251,1,80
20,131,49345,2,0,L|3:87,2,40,8|0|0,0:0|0:0|0:0,0:0:0:0:
152,187,49716,6,0,P|156:230|148:266,1,80
31,110,50086,2,0,L|24:63,2,40,8|0|0,0:0|0:0|0:0,0:0:0:0:
174,204,50456,6,0,P|168:246|152:280,1,80
46,94,50826,2,0,L|50:47,2,40,8|0|0,0:0|0:0|0:0,0:0:0:0:
65,221,51197,5,2,0:0:0:0:
5,317,51382,1,2,0:0:0:0:
84,344,51567,2,0,B|128:352|128:352|138:330|159:310,1,95.9999970703126,2|12,0:0|0:0,0:0:0:0:
260,247,52123,5,0,0:0:0:0:
260,247,52216,2,0,P|318:247|363:192,1,120,8|0,0:0|0:0,0:0:0:0:
364,188,52864,1,0,0:0:0:0:
429,118,53049,2,0,L|522:110,1,80,8|0,0:0|0:0,0:0:0:0:
465,323,53419,6,0,P|442:272|457:207,1,120
474,189,53790,1,8,0:0:0:0:
355,263,53975,2,0,P|298:291|202:243,1,160
144,144,54530,1,8,0:0:0:0:
156,302,54716,2,0,L|108:329,1,40
95,334,54901,6,0,P|53:301|40:239,1,120
46,219,55271,1,8,0:0:0:0:
144,144,55456,2,0,P|168:199|108:259,2,120,0|0|8,0:0|0:0|0:0,0:0:0:0:
25,94,56197,1,0,0:0:0:0:
112,56,56382,6,0,L|237:43,1,120
250,49,56753,1,8,0:0:0:0:
400,123,56938,1,0,0:0:0:0:
482,73,57123,2,0,L|497:153,1,80
440,298,57493,2,0,L|425:218,1,80,8|0,0:0|0:0,0:0:0:0:
393,201,57771,1,0,0:0:0:0:
359,188,57864,6,0,P|302:176|244:200,1,120,4|0,0:0|0:0,0:0:0:0:
222,219,58234,1,8,0:0:0:0:
226,360,58419,2,0,P|308:332|309:269,1,160
142,253,58975,2,0,L|45:266,1,80,8|0,0:0|0:0,0:0:0:0:
18,178,59345,5,0,0:0:0:0:
113,125,59530,1,0,0:0:0:0:
113,125,59623,1,0,0:0:0:0:
113,125,59716,1,8,0:0:0:0:
258,189,59901,2,0,P|221:253|142:253,1,160
113,125,60456,1,8,0:0:0:0:
211,77,60642,2,0,L|269:63,1,40
305,57,60827,6,0,P|348:52|388:52,1,80
384,51,61105,1,0,0:0:0:0:
384,51,61197,1,8,0:0:0:0:
386,237,61382,2,0,P|305:244|255:162,1,160
443,148,61938,1,8,0:0:0:0:
386,238,62123,1,0,0:0:0:0:
443,148,62308,6,0,L|524:137,1,80
327,335,62679,2,0,L|246:346,1,80,8|0,0:0|0:0,0:0:0:0:
132,288,63049,1,0,0:0:0:0:
41,320,63234,1,8,0:0:0:0:
26,146,63419,1,8,0:0:0:0:
26,146,63512,1,8,0:0:0:0:
26,146,63605,1,8,0:0:0:0:
129,176,63790,5,4,0:0:0:0:
228,219,63975,2,0,P|303:209|337:134,1,160,2|2,0:0|0:0,0:0:0:0:
129,176,64530,1,0,0:0:0:0:
285,0,64716,2,0,P|233:54|253:134,1,160,2|2,0:0|0:0,0:0:0:0:
345,266,65271,5,0,0:0:0:0:
457,148,65456,2,0,P|409:83|335:78,1,160,2|2,0:0|0:0,0:0:0:0:
315,83,65919,1,0,0:0:0:0:
295,89,66012,2,0,L|202:96,1,80,0|2,0:0|0:0,0:0:0:0:
195,98,66290,2,0,P|212:142|168:193,1,120,0|2,0:0|0:0,0:0:0:0:
101,258,66753,5,0,0:0:0:0:
168,192,66938,2,0,P|239:178|309:231,1,160,2|2,0:0|0:0,0:0:0:0:
212,333,67493,1,0,0:0:0:0:
402,224,67679,2,0,P|387:290|307:324,1,160,2|2,0:0|0:0,0:0:0:0:
168,192,68234,5,0,0:0:0:0:
60,134,68419,2,0,P|108:90|201:127,1,160,2|2,0:0|0:0,0:0:0:0:
168,192,68882,1,0,0:0:0:0:
169,193,68975,2,0,L|112:258,1,80,0|2,0:0|0:0,0:0:0:0:
103,268,69253,2,0,P|166:245|223:281,1,120,0|2,0:0|0:0,0:0:0:0:
289,371,69716,5,4,0:0:0:0:
139,336,69901,2,0,P|34:309|31:245,1,160,2|2,0:0|0:0,0:0:0:0:
34,126,70456,1,0,0:0:0:0:
151,205,70642,2,0,P|184:262|139:336,1,160,2|2,0:0|0:0,0:0:0:0:
34,126,71197,5,0,0:0:0:0:
157,56,71382,2,0,P|230:35|311:62,1,160,2|2,0:0|0:0,0:0:0:0:
326,66,71845,1,0,0:0:0:0:
345,71,71938,2,0,L|440:59,1,80,0|2,0:0|0:0,0:0:0:0:
444,58,72216,2,0,P|481:108|453:185,1,120,0|2,0:0|0:0,0:0:0:0:
412,203,72586,2,0,L|343:219,1,40,0|0,0:0|0:0,0:0:0:0:
289,269,72864,5,0,1:0:0:0:
138,240,73049,1,8,1:0:0:0:
126,103,73234,2,0,P|217:130|238:183,1,120
230,166,73605,1,8,1:0:0:0:
188,352,73790,1,0,1:0:0:0:
64,324,73975,2,0,L|20:331,2,40,0|0|4,0:0|0:0|0:0,0:0:0:0:
43,199,74345,5,0,1:0:0:0:
82,192,74438,1,0,1:0:0:0:
120,202,74530,1,0,1:0:0:0:
151,226,74623,1,0,1:0:0:0:
179,254,74716,1,0,1:0:0:0:
213,273,74808,1,0,1:0:0:0:
251,283,74901,1,0,1:0:0:0:
289,272,74993,1,0,1:0:0:0:
324,252,75086,1,0,1:0:0:0:
345,217,75179,1,0,1:0:0:0:
339,177,75271,1,0,1:0:0:0:
325,139,75364,1,0,1:0:0:0:
337,101,75456,1,0,1:0:0:0:
369,77,75549,1,0,1:0:0:0:
409,77,75642,6,0,L|503:98,1,95.9999970703126,4|2,0:0|0:0,0:0:0:0:
512,172,75919,2,0,P|496:216|454:253,1,95.9999970703126,8|0,0:0|0:0,0:0:0:0:
390,281,76197,2,0,P|323:288|265:242,1,143.999995605469,2|0,0:0|0:0,0:0:0:0:
250,197,76567,1,2,0:0:0:0:
278,357,76753,1,8,0:0:0:0:
250,197,76938,1,0,0:0:0:0:
154,295,77123,6,0,L|53:301,1,95.9999970703126,2|0,0:0|0:0,0:0:0:0:
8,241,77401,2,0,P|-15:174|29:119,1,143.999995605469,10|0,0:0|0:0,0:0:0:0:
162,67,77864,1,2,0:0:0:0:
26,120,78049,1,2,0:0:0:0:
45,118,78142,1,0,0:0:0:0:
63,115,78234,1,8,0:0:0:0:
190,176,78419,1,2,0:0:0:0:
171,173,78512,1,0,0:0:0:0:
152,170,78605,6,0,L|184:264,1,95.9999970703126,2|2,0:0|0:0,0:0:0:0:
226,323,78882,2,0,P|259:350|323:346,1,95.9999970703126,8|0,0:0|0:0,0:0:0:0:
377,313,79160,2,0,P|391:239|311:168,1,191.999994140625,2|2,0:0|0:0,0:0:0:0:
226,323,79716,1,8,0:0:0:0:
377,212,79901,1,2,0:0:0:0:
210,144,80086,6,0,L|108:154,1,95.9999970703126,2|0,0:0|0:0,0:0:0:0:
46,189,80364,2,0,P|28:241|62:321,1,143.999995605469,10|0,0:0|0:0,0:0:0:0:
176,226,80827,1,2,0:0:0:0:
132,63,81012,2,0,L|36:72,1,95.9999970703126,0|8,0:0|0:0,0:0:0:0:
91,279,81382,1,2,0:0:0:0:
91,279,81475,1,0,0:0:0:0:
91,279,81567,6,0,P|122:310|173:320,1,95.9999970703126,4|2,0:0|0:0,0:0:0:0:
252,176,81845,2,0,P|209:187|175:226,1,95.9999970703126,8|0,0:0|0:0,0:0:0:0:
264,362,82123,2,0,P|275:319|258:270,1,95.9999970703126,2|0,0:0|0:0,0:0:0:0:
144,124,82493,1,2,0:0:0:0:
144,124,82586,1,0,0:0:0:0:
144,124,82679,2,0,L|48:130,1,95.9999970703126,8|2,0:0|0:0,0:0:0:0:
127,13,83049,6,0,P|177:8|235:35,1,95.9999970703126,2|0,0:0|0:0,0:0:0:0:
275,75,83327,2,0,P|331:117|413:78,1,143.999995605469,10|2,0:0|0:0,0:0:0:0:
207,177,83790,1,0,0:0:0:0:
377,158,83975,2,0,L|439:148,1,47.9999985351563,2|8,0:0|0:0,0:0:0:0:
485,247,84253,2,0,L|423:257,1,47.9999985351563,0|2,0:0|0:0,0:0:0:0:
303,329,84530,5,2,0:0:0:0:
176,291,84716,1,0,0:0:0:0:
176,291,84808,2,0,P|114:278|28:305,1,143.999995605469,10|2,0:0|0:0,0:0:0:0:
303,329,85271,2,0,P|347:315|399:318,1,95.9999970703126,2|0,0:0|0:0,0:0:0:0:
396,317,85549,1,0,0:0:0:0:
396,317,85642,1,8,0:0:0:0:
261,189,85827,5,2,0:0:0:0:
261,189,85919,1,0,0:0:0:0:
261,189,86012,2,0,L|240:88,1,95.9999970703126,2|0,0:0|0:0,0:0:0:0:
189,38,86290,2,0,P|113:32|53:86,1,143.999995605469,10|2,0:0|0:0,0:0:0:0:
340,125,86753,2,0,P|401:122|446:148,1,95.9999970703126,2|8,0:0|0:0,0:0:0:0:
480,255,87123,5,0,1:0:0:0:
470,304,87216,1,0,1:0:0:0:
435,339,87308,1,0,1:0:0:0:
385,356,87401,1,0,1:0:0:0:
336,349,87493,1,4,0:0:0:0:
208,246,87679,5,2,0:0:0:0:
208,246,87771,2,0,P|158:274|158:336,1,95.9999970703126,8|0,0:0|0:0,0:0:0:0:
286,281,88049,2,0,L|240:130,1,143.999995605469,2|0,0:0|0:0,0:0:0:0:
188,90,88419,1,2,0:0:0:0:
78,127,88605,1,8,0:0:0:0:
188,89,88790,1,2,0:0:0:0:
78,127,88975,6,0,P|66:169|90:215,1,95.9999970703126
155,251,89253,2,0,L|308:223,1,143.999995605469,10|0,0:0|0:0,0:0:0:0:
428,132,89716,1,2,0:0:0:0:
314,110,89901,1,0,0:0:0:0:
314,110,89993,1,0,0:0:0:0:
314,110,90086,1,8,0:0:0:0:
410,246,90271,1,2,0:0:0:0:
410,246,90364,1,0,0:0:0:0:
410,246,90456,6,0,P|394:295|378:338,1,95.9999970703126,2|0,0:0|0:0,0:0:0:0:
334,150,90734,2,0,P|384:139|429:131,1,95.9999970703126,8|0,0:0|0:0,0:0:0:0:
289,262,91012,2,0,P|254:223|225:188,1,95.9999970703126,2|0,0:0|0:0,0:0:0:0:
121,47,91382,1,2,0:0:0:0:
72,142,91567,2,0,P|59:192|46:236,1,95.9999970703126,8|2,0:0|0:0,0:0:0:0:
6,316,91845,1,0,0:0:0:0:
6,316,91938,6,0,P|52:326|94:305,1,95.9999970703126,2|0,0:0|0:0,0:0:0:0:
170,318,92216,2,0,L|342:289,1,143.999995605469,10|0,0:0|0:0,0:0:0:0:
457,241,92679,1,2,0:0:0:0:
336,181,92864,1,0,0:0:0:0:
336,181,92956,1,0,0:0:0:0:
336,181,93049,2,0,L|236:197,1,95.9999970703126,8|2,0:0|0:0,0:0:0:0:
164,203,93327,1,0,0:0:0:0:
164,203,93419,6,0,P|114:183|96:145,1,95.9999970703126,4|0,0:0|0:0,0:0:0:0:
91,70,93697,2,0,P|123:26|164:19,1,95.9999970703126,10|0,0:0|0:0,0:0:0:0:
163,96,93975,2,0,L|8:134,1,143.999995605469,2|0,0:0|0:0,0:0:0:0:
2,136,94345,1,2,0:0:0:0:
63,275,94530,1,8,0:0:0:0:
2,136,94716,1,0,0:0:0:0:
63,275,94901,6,0,P|94:309|130:343,1,95.9999970703126,2|0,0:0|0:0,0:0:0:0:
200,375,95179,2,0,P|272:353|274:256,1,143.999995605469,10|0,0:0|0:0,0:0:0:0:
162,57,95642,2,0,L|176:174,2,95.9999970703126,2|0|8,0:0|0:0|0:0,0:0:0:0:
308,24,96197,1,0,0:0:0:0:
308,24,96290,1,0,0:0:0:0:
308,24,96382,6,0,L|404:36,1,95.9999970703126,2|0,0:0|0:0,0:0:0:0:
477,106,96660,2,0,P|493:168|453:223,1,95.9999970703126,10|0,0:0|0:0,0:0:0:0:
432,254,96938,1,2,0:0:0:0:
432,254,97030,1,0,0:0:0:0:
432,254,97123,2,0,P|411:294|418:342,1,95.9999970703126,2|0,0:0|0:0,0:0:0:0:
384,160,97493,1,8,0:0:0:0:
313,324,97679,1,2,0:0:0:0:
313,324,97771,1,0,0:0:0:0:
313,324,97864,6,0,L|238:338,1,47.9999985351563,2|8,0:0|0:0,0:0:0:0:
87,167,98142,1,2,0:0:0:0:
101,177,98234,1,8,0:0:0:0:
182,103,98419,1,0,0:0:0:0:
182,103,98512,1,0,1:0:0:0:
182,103,98605,2,0,P|212:168|199:226,1,95.9999970703126,2|0,0:0|0:0,0:0:0:0:
115,277,98975,2,0,L|13:292,1,95.9999970703126,2|0,3:0|0:0,0:0:0:0:
44,53,99345,5,0,3:0:0:0:
44,53,99438,1,0,3:0:0:0:
44,53,99530,1,0,3:0:0:0:
101,177,99716,6,0,P|99:247|7:274,1,160,4|0,0:0|0:0,0:0:0:0:
55,118,111197,5,4,1:2:0:0:
139,101,111475,1,0,1:0:0:0:
223,84,111753,1,0,1:0:0:0:
169,271,112123,2,0,P|155:240|156:216,1,51.999997619629,0|8,1:0|1:0,0:0:0:0:
246,319,112679,6,0,P|212:353|162:360,1,77.9999964294435,0|0,1:0|1:0,0:0:0:0:
152,224,113234,1,0,1:0:0:0:
236,179,113419,2,0,L|311:170,1,51.999997619629,0|0,1:0|1:0,0:0:0:0:
152,224,113790,1,8,1:0:0:0:
152,224,114160,5,0,1:0:0:0:
120,145,114438,1,0,1:0:0:0:
88,65,114716,1,0,1:0:0:0:
283,90,115086,2,0,P|261:107|222:109,1,51.999997619629,0|8,1:0|1:0,0:0:0:0:
348,19,115642,6,0,P|379:57|379:106,1,77.9999964294435,0|0,1:0|1:0,0:0:0:0:
298,192,116197,1,0,1:0:0:0:
298,192,116382,2,0,L|226:203,1,51.999997619629,0|0,1:0|1:0,0:0:0:0:
397,174,116753,1,8,1:0:0:0:
397,174,117123,6,0,P|410:214|426:262,1,77.9999964294435,4|0,1:2|1:0,0:0:0:0:
408,333,117679,1,0,1:0:0:0:
272,268,117864,1,0,1:0:0:0:
187,285,118142,1,8,1:0:0:0:
103,303,118419,1,0,1:0:0:0:
37,214,118605,6,0,P|25:179|25:135,1,77.9999964294435,0|0,1:0|1:0,0:0:0:0:
24,138,119160,1,0,1:0:0:0:
122,78,119345,2,0,P|139:131|90:165,1,103.999995239258,2|8,3:0|1:0,0:0:0:0:
23,26,120086,5,2,0:0:0:0:
142,62,121382,5,0,0:0:0:0:
142,62,121475,1,0,0:0:0:0:
142,62,121567,1,0,0:0:0:0:
84,126,121845,1,0,0:0:0:0:
1,151,122123,1,0,0:0:0:0:
24,24,122493,1,0,0:0:0:0:
248,64,122679,5,0,1:0:0:0:
281,94,122771,1,0,1:0:0:0:
297,135,122864,1,0,1:0:0:0:
287,176,122956,1,0,1:0:0:0:
260,211,123049,1,4,1:2:0:0:
145,290,123234,6,0,P|188:338|279:346,1,160,2|2,0:0|0:0,0:0:0:0:
259,211,123790,1,0,0:0:0:0:
133,154,123975,2,0,P|69:167|17:242,1,160,2|2,0:0|0:0,0:0:0:0:
145,290,124530,1,0,0:0:0:0:
259,211,124716,6,0,P|279:149|240:66,1,160,2|2,0:0|0:0,0:0:0:0:
170,14,125179,1,0,0:0:0:0:
170,14,125271,2,0,L|92:56,1,80,0|2,0:0|0:0,0:0:0:0:
82,63,125549,2,0,P|70:116|124:167,1,120,0|2,0:0|0:0,0:0:0:0:
259,211,126012,1,0,0:0:0:0:
184,294,126197,6,0,L|12:325,1,160,2|2,0:0|0:0,0:0:0:0:
104,213,126753,1,0,0:0:0:0:
259,211,126938,2,0,P|309:266|297:349,1,160,2|2,0:0|0:0,0:0:0:0:
184,294,127493,1,0,0:0:0:0:
181,130,127679,2,0,P|243:89|323:114,1,160,2|2,0:0|0:0,0:0:0:0:
335,125,128142,1,0,0:0:0:0:
349,138,128234,2,0,L|376:220,1,80,0|2,0:0|0:0,0:0:0:0:
383,231,128512,2,0,P|404:190|470:167,1,120,0|2,0:0|0:0,0:0:0:0:
455,351,128975,5,4,0:0:0:0:
469,257,129160,2,0,L|429:97,1,160,2|2,0:0|0:0,0:0:0:0:
288,8,129716,1,0,0:0:0:0:
206,92,129901,2,0,L|246:252,1,160,2|2,0:0|0:0,0:0:0:0:
251,266,130364,1,0,0:0:0:0:
257,284,130456,5,0,0:0:0:0:
147,346,130642,2,0,P|95:344|51:257,1,160,2|2,0:0|0:0,0:0:0:0:
104,192,131105,1,0,0:0:0:0:
104,192,131197,2,0,L|191:176,1,80,0|2,0:0|0:0,0:0:0:0:
202,176,131475,2,0,P|240:226|226:287,1,120,0|2,0:0|0:0,0:0:0:0:
300,329,131845,2,0,L|351:317,1,40,0|0,0:0|0:0,0:0:0:0:
432,237,132123,5,8,1:0:0:0:
395,109,132308,1,8,1:0:0:0:
432,237,132493,1,0,0:0:0:0:
432,237,132586,1,0,0:0:0:0:
432,237,132679,1,0,0:0:0:0:
287,72,132864,1,0,0:0:0:0:
486,152,133049,1,8,1:0:0:0:
338,188,133234,1,0,0:0:0:0:
318,192,133327,1,0,0:0:0:0:
298,196,133419,5,4,1:2:0:0:
260,209,133512,1,0,1:0:0:0:
229,235,133605,1,0,1:0:0:0:
210,270,133697,1,0,1:0:0:0:
211,310,133790,1,0,1:0:0:0:
200,348,133882,1,0,1:0:0:0:
171,376,133975,1,0,1:0:0:0:
131,382,134067,1,0,1:0:0:0:
91,373,134160,1,0,1:0:0:0:
59,348,134253,1,0,1:0:0:0:
47,309,134345,1,0,1:0:0:0:
53,269,134438,1,0,1:0:0:0:
70,233,134530,1,0,1:0:0:0:
75,193,134623,1,0,1:0:0:0:
63,154,134716,1,0,1:0:0:0:
43,119,134808,1,0,1:0:0:0:
22,84,134901,6,0,P|48:45|95:34,1,95.9999970703126,4|0,0:0|0:0,0:0:0:0:
169,21,135179,2,0,P|213:7|257:29,1,95.9999970703126,8|0,0:0|0:0,0:0:0:0:
304,155,135456,2,0,L|195:134,1,95.9999970703126,2|0,0:0|0:0,0:0:0:0:
392,81,135827,1,2,0:0:0:0:
416,193,136012,1,8,0:0:0:0:
392,81,136197,1,0,0:0:0:0:
501,117,136382,6,0,L|490:218,1,95.9999970703126,2|0,0:0|0:0,0:0:0:0:
416,193,136660,2,0,P|434:265|501:285,1,143.999995605469,8|0,0:0|0:0,0:0:0:0:
326,306,137123,2,0,L|208:314,1,95.9999970703126,2|0,0:0|0:0,0:0:0:0:
206,314,137401,1,0,0:0:0:0:
182,316,137493,1,8,0:0:0:0:
37,268,137679,1,0,0:0:0:0:
60,267,137771,1,0,0:0:0:0:
84,266,137864,6,0,P|109:213|77:161,1,95.9999970703126,2|0,0:0|0:0,0:0:0:0:
146,120,138142,2,0,P|204:115|233:61,1,95.9999970703126,8|0,0:0|0:0,0:0:0:0:
302,101,138419,2,0,P|339:143|435:136,1,143.999995605469,2|0,0:0|0:0,0:0:0:0:
442,129,138790,1,2,0:0:0:0:
359,37,138975,1,8,0:0:0:0:
381,238,139160,1,0,0:0:0:0:
359,37,139345,6,0,L|241:44,1,95.9999970703126,2|0,0:0|0:0,0:0:0:0:
191,72,139623,2,0,P|162:109|174:200,1,143.999995605469,8|2,0:0|0:0,0:0:0:0:
286,245,140086,2,0,L|394:237,1,95.9999970703126
431,117,140456,2,0,L|323:125,1,95.9999970703126,8|2,0:0|0:0,0:0:0:0:
264,155,140734,1,0,0:0:0:0:
264,155,140827,6,0,P|221:185|169:175,1,95.9999970703126,4|2,0:0|0:0,0:0:0:0:
118,134,141105,2,0,P|161:104|213:114,1,95.9999970703126,8|0,0:0|0:0,0:0:0:0:
264,155,141382,2,0,P|304:202|281:276,1,143.999995605469,2|0,0:0|0:0,0:0:0:0:
265,292,141753,1,2,0:0:0:0:
120,241,141938,1,8,0:0:0:0:
265,292,142123,1,0,0:0:0:0:
120,241,142308,6,0,P|65:239|24:240,1,95.9999970703126,2|0,0:0|0:0,0:0:0:0:
3,314,142586,2,0,P|47:358|132:348,1,143.999995605469,8|0,0:0|0:0,0:0:0:0:
265,292,143049,1,2,0:0:0:0:
367,240,143234,1,0,0:0:0:0:
367,240,143327,1,8,0:0:0:0:
286,375,143512,1,0,0:0:0:0:
286,375,143605,1,0,0:0:0:0:
283,189,143790,5,2,0:0:0:0:
167,136,143975,1,0,0:0:0:0:
167,136,144067,2,0,P|111:102|26:124,1,143.999995605469,8|0,0:0|0:0,0:0:0:0:
283,189,144530,2,0,P|320:158|366:153,1,95.9999970703126,2|0,0:0|0:0,0:0:0:0:
366,153,144808,1,0,0:0:0:0:
366,153,144901,1,8,0:0:0:0:
374,327,145086,5,0,0:0:0:0:
374,327,145179,1,0,0:0:0:0:
374,327,145271,2,0,L|262:347,1,95.9999970703126,2|0,0:0|0:0,0:0:0:0:
202,350,145549,2,0,P|133:357|88:290,1,143.999995605469,8|2,0:0|0:0,0:0:0:0:
379,238,146012,2,0,P|431:234|464:194,1,95.9999970703126,2|0,0:0|0:0,0:0:0:0:
317,49,146382,5,0,1:0:0:0:
302,94,146475,1,0,1:0:0:0:
287,139,146567,1,0,1:0:0:0:
272,185,146660,1,0,1:0:0:0:
258,231,146753,2,0,P|285:301|335:323,1,95.9999970703126,4|2,1:2|0:0,0:0:0:0:
171,310,147030,2,0,P|96:298|52:330,1,95.9999970703126,8|0,0:0|0:0,0:0:0:0:
141,194,147308,2,0,P|188:135|168:64,1,143.999995605469,2|0,0:0|0:0,0:0:0:0:
120,16,147679,1,2,0:0:0:0:
7,154,147864,1,8,0:0:0:0:
120,16,148049,1,0,0:0:0:0:
208,142,148234,6,0,P|250:161|304:144,1,95.9999970703126,2|0,0:0|0:0,0:0:0:0:
351,94,148512,2,0,L|504:79,1,143.999995605469,8|2,0:0|0:0,0:0:0:0:
445,270,148975,2,0,P|387:269|352:204,1,95.9999970703126,2|0,0:0|0:0,0:0:0:0:
509,163,149345,1,8,0:0:0:0:
432,296,149530,1,0,0:0:0:0:
423,318,149623,1,0,0:0:0:0:
414,340,149716,6,0,L|309:353,1,95.9999970703126,2|2,0:0|0:0,0:0:0:0:
233,309,149993,2,0,L|128:322,1,95.9999970703126,8|0,0:0|0:0,0:0:0:0:
50,278,150271,2,0,P|-1:232|21:152,1,143.999995605469,2|0,0:0|0:0,0:0:0:0:
26,145,150642,1,2,0:0:0:0:
164,47,150827,2,0,P|172:96|176:143,1,95.9999970703126,8|0,0:0|0:0,0:0:0:0:
198,287,151197,6,0,P|247:282|278:244,1,95.9999970703126,2|0,0:0|0:0,0:0:0:0:
116,213,151475,2,0,P|84:267|122:351,1,143.999995605469,8|0,0:0|0:0,0:0:0:0:
282,147,151938,2,0,P|272:93|246:9,1,95.9999970703126,2|0,0:0|0:0,0:0:0:0:
178,131,152308,1,8,0:0:0:0:
285,250,152493,1,2,0:0:0:0:
285,250,152586,1,0,0:0:0:0:
285,250,152679,6,0,P|336:244|380:274,1,95.9999970703126,4|2,0:0|0:0,0:0:0:0:
431,318,152956,2,0,P|478:309|505:266,1,95.9999970703126,8|0,0:0|0:0,0:0:0:0:
474,199,153234,2,0,P|443:137|482:78,1,143.999995605469,2|0,0:0|0:0,0:0:0:0:
497,62,153605,1,2,0:0:0:0:
324,108,153790,1,8,0:0:0:0:
497,62,153975,1,0,0:0:0:0:
388,172,154160,6,0,P|357:210|325:251,1,95.9999970703126,2|0,0:0|0:0,0:0:0:0:
277,305,154438,2,0,P|210:322|143:256,1,143.999995605469,8|0,0:0|0:0,0:0:0:0:
96,110,154901,2,0,L|80:12,2,95.9999970703126,2|0|8,0:0|0:0|0:0,0:0:0:0:
182,178,155456,5,0,1:0:0:0:
182,178,155549,1,0,1:0:0:0:
182,178,155642,2,0,L|299:190,1,95.9999970703126,0|2,1:0|3:0,0:0:0:0:
433,204,156012,1,0,1:0:0:0:
328,298,156197,1,0,3:0:0:0:
350,299,156290,1,0,3:0:0:0:
373,302,156382,1,0,1:0:0:0:
396,305,156475,1,0,1:0:0:0:
419,307,156567,2,0,P|473:302|510:272,1,95.9999970703126,4|8,3:0|3:0,0:0:0:0:
469,117,156938,5,0,3:0:0:0:
469,117,157030,1,0,3:0:0:0:
469,117,157123,2,0,P|418:69|341:71,1,143.999995605469,0|0,1:0|0:0,1:0:0:0:
273,130,157493,2,0,P|240:166|138:157,1,143.999995605469,0|0,1:0|0:0,0:0:0:0:
76,101,157864,2,0,P|19:152|31:229,1,143.999995605469,0|0,1:0|0:0,0:0:0:0:
75,294,158234,2,0,L|187:280,1,95.9999970703126,0|4,1:0|3:0,0:0:0:0:
257,322,158512,1,4,3:0:0:0:
257,322,158605,5,0,1:0:0:0:
378,243,158790,1,0,1:0:0:0:
378,243,159530,1,0,3:0:0:0:
390,222,159623,1,0,3:0:0:0:
402,201,159716,5,0,1:0:0:0:
439,339,159901,1,0,1:0:0:0:
439,339,160642,2,0,L|384:350,1,47.9999985351563,0|0,3:0|3:0,0:0:0:0:
320,361,160827,5,0,1:0:0:0:
506,248,161012,1,0,1:0:0:0:
402,201,161197,1,0,1:3:0:0:
381,88,161382,1,4,3:3:0:0:
288,133,161567,5,0,1:0:0:0:
312,276,161753,1,0,1:0:0:0:
288,133,162493,1,0,3:0:0:0:
264,129,162586,1,0,3:0:0:0:
240,125,162679,5,0,1:0:0:0:
381,88,162864,1,0,1:0:0:0:
381,88,163605,2,0,L|452:105,1,47.9999985351563,0|0,1:0|1:0,0:0:0:0:
491,162,163790,6,0,L|459:310,2,143.999995605469,0|0|0,1:0|1:0|1:0,0:0:0:0:
442,33,164530,6,0,P|398:7|336:19,1,80,4|0,3:2|0:0,0:0:0:0:
270,90,164901,2,0,P|226:118|167:107,1,80,0|0,3:0|0:0,0:0:0:0:
112,45,165271,2,0,P|48:100|60:173,1,160,0|0,3:0|3:0,0:0:0:0:
143,228,165827,1,0,0:0:0:0:
48,349,166012,6,0,P|89:324|136:332,1,80,0|0,3:0|0:0,0:0:0:0:
272,374,166382,2,0,P|318:358|334:301,1,80,0|0,3:0|0:0,0:0:0:0:
459,277,166753,2,0,P|427:202|489:138,1,160,0|0,3:0|3:0,0:0:0:0:
364,206,167308,5,0,0:0:0:0:
364,206,167401,1,0,0:0:0:0:
364,206,167493,2,0,P|312:197|277:129,2,120,0|0|0,3:0|3:0|0:0,0:0:0:0:
306,31,168234,2,0,P|232:32|177:101,1,160,0|0,3:0|3:0,0:0:0:0:
160,216,168790,5,0,0:0:0:0:
160,216,168882,1,0,0:0:0:0:
160,216,168975,1,4,1:2:0:0:
245,294,169160,1,0,1:0:0:0:
345,236,169344,1,0,1:0:0:0:
321,123,169529,1,0,1:0:0:0:
206,111,169715,5,0,1:0:0:0:
181,274,169901,1,4,1:2:0:0:
328,351,170086,1,0,1:0:0:0:
446,232,170270,1,0,1:0:0:0:
370,84,170456,5,4,0:2:0:0:
230,160,170642,1,2,0:0:0:0:
230,160,170734,2,0,P|290:163|335:124,1,95.9999970703126,8|0,0:0|0:0,0:0:0:0:
370,84,171012,2,0,P|432:98|476:162,1,143.999995605469,2|0,0:0|0:0,0:0:0:0:
446,232,171382,1,2,0:0:0:0:
288,304,171567,1,8,0:0:0:0:
404,344,171753,1,0,0:0:0:0:
288,304,171938,6,0,P|244:291|181:312,1,95.9999970703126,2|0,0:0|0:0,0:0:0:0:
130,342,172216,2,0,P|72:365|0:318,1,143.999995605469,8|2,0:0|0:0,0:0:0:0:
192,214,172679,1,2,0:0:0:0:
75,276,172864,1,0,0:0:0:0:
87,138,173049,2,0,L|78:81,1,47.9999985351563,8|2,0:0|0:0,0:0:0:0:
153,26,173234,2,0,L|162:83,1,47.9999985351563,0|2,0:0|0:0,0:0:0:0:
236,110,173419,6,0,P|298:119|352:78,1,95.9999970703126,0|2,0:0|0:0,0:0:0:0:
388,59,173697,2,0,P|441:59|490:111,1,95.9999970703126,8|0,0:0|0:0,0:0:0:0:
506,153,173975,2,0,P|503:208|427:247,1,143.999995605469,2|0,0:0|0:0,0:0:0:0:
361,214,174345,1,2,0:0:0:0:
506,153,174530,1,8,0:0:0:0:
485,310,174716,1,0,0:0:0:0:
361,214,174901,6,0,P|309:188|233:213,1,95.9999970703126,2|0,0:0|0:0,0:0:0:0:
220,247,175179,1,0,0:0:0:0:
220,247,175271,2,0,L|121:268,1,95.9999970703126,8|0,0:0|0:0,0:0:0:0:
18,93,175642,2,0,P|76:56|182:77,1,143.999995605469,2|0,0:0|0:0,0:0:0:0:
212,102,176012,1,8,0:0:0:0:
133,185,176197,5,2,0:0:0:0:
133,185,176290,1,0,0:0:0:0:
133,185,176382,2,0,L|37:207,1,95.9999970703126,4|2,0:0|0:0,0:0:0:0:
22,281,176660,2,0,P|25:330|69:358,1,95.9999970703126,8|0,0:0|0:0,0:0:0:0:
135,371,176938,2,0,P|204:352|231:285,1,143.999995605469,2|0,0:0|0:0,0:0:0:0:
208,216,177308,1,2,0:0:0:0:
42,119,177493,1,8,0:0:0:0:
208,216,177679,1,0,0:0:0:0:
33,138,177864,6,0,P|26:211|92:271,1,143.999995605469,2|2,0:0|0:0,0:0:0:0:
141,288,178234,1,8,0:0:0:0:
226,103,178419,1,0,0:0:0:0:
226,103,178512,1,0,0:0:0:0:
226,103,178605,2,0,P|274:66|343:68,1,95.9999970703126,2|0,0:0|0:0,0:0:0:0:
362,175,178975,2,0,L|377:280,1,95.9999970703126,8|0,0:0|0:0,0:0:0:0:
443,306,179253,5,0,0:0:0:0:
443,306,179345,1,2,0:0:0:0:
505,229,179530,1,0,0:0:0:0:
349,169,179716,2,0,P|300:157|247:176,1,95.9999970703126,8|0,0:0|0:0,0:0:0:0:
140,265,180086,2,0,L|36:279,1,95.9999970703126,2|0,0:0|0:0,0:0:0:0:
44,277,180364,1,0,0:0:0:0:
44,277,180456,1,8,0:0:0:0:
237,193,180642,1,2,0:0:0:0:
28,266,180827,6,0,L|18:201,1,47.9999985351563,0|8,0:0|0:0,0:0:0:0:
135,71,181105,1,0,0:0:0:0:
135,71,181197,1,8,0:0:0:0:
153,201,181382,1,0,0:0:0:0:
153,201,181475,1,8,0:0:0:0:
153,201,181567,2,0,L|169:309,1,95.9999970703126,2|0,0:0|0:0,0:0:0:0:
327,322,181938,2,0,P|369:286|357:221,1,95.9999970703126,2|0,3:0|0:0,0:0:0:0:
303,82,182308,5,0,1:0:0:0:
279,76,182401,1,0,1:0:0:0:
255,70,182493,1,0,1:0:0:0:
231,64,182586,1,0,1:0:0:0:
455,199,182864,5,0,1:0:0:0:
431,193,182957,1,0,1:0:0:0:
407,187,183049,1,0,1:0:0:0:
383,181,183142,1,0,1:0:0:0:
231,64,183419,6,0,L|247:136,1,60,0|0,0:0|0:0,0:0:0:0:
226,200,183790,6,0,P|189:218|149:217,1,80,4|0,0:0|0:0,0:0:0:0:
69,118,184160,1,8,0:0:0:0:
49,120,184253,1,0,0:0:0:0:
29,122,184345,1,0,0:0:0:0:
23,331,184530,2,0,P|53:302|91:292,1,80
197,363,184900,1,8,0:0:0:0:
215,355,184993,1,0,0:0:0:0:
234,347,185085,1,0,0:0:0:0:
352,292,185271,6,0,L|357:191,1,80
467,88,185642,1,8,0:0:0:0:
467,88,185734,1,0,0:0:0:0:
467,88,185827,1,0,0:0:0:0:
499,178,186012,2,0,L|494:279,1,80
366,89,186383,1,8,0:0:0:0:
366,89,186475,1,0,0:0:0:0:
366,89,186568,1,0,0:0:0:0:
257,149,186753,6,0,P|206:181|167:174,1,80
72,122,187123,1,8,0:0:0:0:
54,112,187216,1,0,0:0:0:0:
36,102,187308,1,0,0:0:0:0:
196,82,187493,2,0,P|236:58|273:62,1,80
236,257,187864,1,8,0:0:0:0:
233,276,187956,1,0,0:0:0:0:
230,295,188049,1,0,0:0:0:0:
70,338,188234,5,0,0:0:0:0:
100,212,188419,1,2,0:0:0:0:
309,360,188790,1,2,0:0:0:0:
224,206,189160,1,2,0:0:0:0:
433,162,189530,1,2,0:0:0:0:
379,69,189716,6,0,L|284:60,1,80,4|0,0:0|0:0,0:0:0:0:
149,52,190086,2,0,L|165:114,1,40,8|0,0:0|0:0,0:0:0:0:
106,154,190271,1,0,0:0:0:0:
91,281,190456,2,0,L|186:272,1,80
321,264,190826,2,0,L|305:326,1,40,8|0,0:0|0:0,0:0:0:0:
364,366,191011,1,0,0:0:0:0:
484,264,191197,6,0,P|495:221|490:184,1,80
422,58,191567,2,0,L|371:56,1,40,8|0,0:0|0:0,0:0:0:0:
309,93,191753,1,0,0:0:0:0:
340,284,191938,2,0,P|339:321|308:353,1,80
171,309,192308,2,0,L|116:303,1,40,8|0,0:0|0:0,0:0:0:0:
76,245,192493,1,0,0:0:0:0:
102,103,192679,6,0,P|139:82|180:85,1,80
389,132,193049,2,0,L|455:139,2,40,8|0|0,0:0|0:0|0:0,0:0:0:0:
134,61,193419,6,0,P|176:52|214:67,1,80
400,173,193789,2,0,L|461:199,2,40,8|0|0,0:0|0:0|0:0,0:0:0:0:
178,32,194160,6,0,P|220:35|252:60,1,80
399,216,194530,2,0,L|450:259,2,40,8|0|0,0:0|0:0|0:0,0:0:0:0:
250,157,194901,5,0,1:0:0:0:
293,297,195086,1,0,1:0:0:0:
204,237,195271,1,0,1:0:0:0:
158,368,195456,1,0,1:0:0:0:
154,161,195642,5,4,0:0:0:0:
84,260,195827,1,0,0:0:0:0:
36,107,196012,2,0,L|30:59,1,40,8|0,0:0|0:0,0:0:0:0:
92,15,196197,1,0,0:0:0:0:
177,174,196382,1,0,0:0:0:0:
84,260,196567,1,0,0:0:0:0:
197,60,196753,2,0,L|245:45,1,40,8|0,0:0|0:0,0:0:0:0:
307,83,196938,1,0,0:0:0:0:
453,31,197123,6,0,P|465:74|453:126,1,80
314,246,197493,1,8,0:0:0:0:
332,238,197586,1,0,0:0:0:0:
350,230,197679,2,0,L|445:242,1,80
474,351,198049,1,0,0:0:0:0:
504,160,198234,1,8,0:0:0:0:
507,179,198327,1,0,0:0:0:0:
510,198,198419,1,0,0:0:0:0:
456,358,198605,6,0,P|386:375|350:357,1,80
202,303,198975,2,0,L|138:313,1,40,8|0,0:0|0:0,0:0:0:0:
106,367,199160,1,0,0:0:0:0:
16,227,199345,2,0,P|80:226|109:242,1,80
79,96,199716,2,0,L|62:38,1,40,8|0,0:0|0:0,0:0:0:0:
130,7,199901,1,0,0:0:0:0:
216,89,200086,5,0,0:0:0:0:
324,38,200271,1,2,0:0:0:0:
398,251,200642,2,0,P|348:246|303:155,1,160,2|2,0:0|0:0,0:0:0:0:
324,38,201197,2,0,L|424:27,1,80,0|2,0:0|0:0,0:0:0:0:
492,109,201567,5,4,0:0:0:0:
387,169,201753,1,0,0:0:0:0:
448,340,201938,1,8,0:0:0:0:
459,323,202030,1,0,0:0:0:0:
470,306,202123,1,0,0:0:0:0:
387,169,202308,1,0,0:0:0:0:
503,142,202493,1,0,0:0:0:0:
303,314,202679,1,8,0:0:0:0:
321,304,202771,1,0,0:0:0:0:
338,293,202864,1,0,0:0:0:0:
494,170,203049,5,0,0:0:0:0:
413,50,203234,2,0,P|374:67|325:69,1,80,0|8,0:0|0:0,0:0:0:0:
257,59,203512,2,0,L|197:45,1,40
89,106,203790,1,0,0:0:0:0:
193,189,203975,2,0,P|233:201|282:197,1,80,0|8,0:0|0:0,0:0:0:0:
349,180,204253,2,0,L|396:167,1,40
490,254,204530,5,0,0:0:0:0:
350,333,204716,1,0,0:0:0:0:
490,254,204901,2,0,L|469:183,1,40,8|0,0:0|0:0,0:0:0:0:
497,137,205086,1,0,0:0:0:0:
349,180,205271,5,0,0:0:0:0:
490,254,205456,1,0,0:0:0:0:
349,180,205642,2,0,L|370:109,1,40,8|0,0:0|0:0,0:0:0:0:
342,63,205827,1,0,0:0:0:0:
186,24,206012,5,0,1:0:0:0:
166,29,206105,1,0,1:0:0:0:
146,34,206197,1,0,1:0:0:0:
126,39,206290,1,0,1:0:0:0:
107,45,206382,1,0,1:0:0:0:
22,148,206567,1,0,1:0:0:0:
107,45,206753,5,0,1:0:0:0:
100,84,206845,1,0,1:0:0:0:
116,120,206938,1,0,1:0:0:0:
144,148,207030,1,0,1:0:0:0:
183,154,207123,1,0,1:0:0:0:
222,149,207216,1,0,1:0:0:0:
252,123,207308,1,0,1:0:0:0:
269,86,207401,1,0,1:0:0:0:
331,39,207493,6,0,L|461:20,1,120.000004577637
278,229,207864,1,0,0:0:0:0:
278,229,207956,1,0,0:0:0:0:
278,229,208049,1,0,0:0:0:0:
278,229,208142,1,0,0:0:0:0:
278,229,208234,2,0,L|402:212,1,120.000004577637,0|0,0:0|0:0,0:0:0:0:
469,356,208605,5,0,0:0:0:0:
469,356,208697,1,0,0:0:0:0:
469,356,208790,1,0,0:0:0:0:
469,356,208882,1,0,0:0:0:0:
469,356,208975,2,0,P|390:367|354:313,1,120.000004577637
164,185,209345,5,0,0:0:0:0:
164,185,209438,1,0,0:0:0:0:
164,185,209530,1,0,0:0:0:0:
164,185,209623,1,0,0:0:0:0:
164,185,209716,2,0,L|145:82,1,95.9999970703126,0|4,0:0|1:3,0:0:0:0:
146,90,210456,5,0,0:0:0:0:
272,34,210642,1,0,0:0:0:0:
340,158,210827,1,0,0:0:0:0:
340,158,210919,1,0,0:0:0:0:
340,158,211012,1,0,0:0:0:0:
340,158,211105,1,0,0:0:0:0:
340,158,211197,2,0,L|315:297,1,120.000004577637
106,337,211567,5,0,0:0:0:0:
106,337,211660,1,0,0:0:0:0:
106,337,211753,1,0,0:0:0:0:
106,337,211845,1,0,0:0:0:0:
106,337,211938,1,0,0:0:0:0:
44,234,212123,1,0,0:0:0:0:
176,185,212308,5,0,0:0:0:0:
217,178,212401,1,0,0:0:0:0:
258,171,212493,1,0,0:0:0:0:
299,164,212586,1,0,0:0:0:0:
340,158,212679,1,10,0:0:0:0:
