osu file format v6

[General]
AudioFilename: 04-neptune--machinegun_revolution-wus.mp3
AudioLeadIn: 0
PreviewTime: -1
Countdown: 1
SampleSet: None
StackLeniency: 0.7
Mode: 0
LetterboxInBreaks: 1

[Editor]
DistanceSpacing: 0.800000011920929
BeatDivisor: 6
GridSize: 32

[Metadata]
Title:Machinegun Revolution
Artist:Neptune
Creator:Brutalraikoh
Version:Easy
Source:
Tags:

[Difficulty]
HPDrainRate:3
CircleSize:5
OverallDifficulty:3
SliderMultiplier:1.5
SliderTickRate:2

[Events]
//Background and Video events
0,0,"b3acb1f5f5f13ddbc71335afd11763ea01f7ff58.png"
//Break Periods
//Storyboard Layer 0 (Background)
//Storyboard Layer 1 (Fail)
//Storyboard Layer 2 (Pass)
//Storyboard Layer 3 (Foreground)
//Storyboard Sound Samples
//Background Colour Transformations
3,100,163,162,255

[TimingPoints]
20,1000,4,0,0,100,1,0

[HitObjects]
224,192,2686,1,0
288,256,3520,1,0
224,160,4020,1,0
416,128,4686,1,0
192,96,5353,1,0
96,192,5853,1,0
288,224,6353,1,0
256,128,7020,1,0
384,160,7686,1,0
192,96,8520,1,0
224,224,9186,1,0
352,128,9853,1,0
352,96,11520,5,0
224,128,12020,1,0
96,160,12686,1,0
256,224,13186,1,0
416,64,13853,1,0
192,64,14353,1,0
0,128,15186,1,0
160,160,15853,1,0
256,96,16686,1,0
352,160,17353,1,0
352,96,18020,1,0
224,96,18686,1,0
256,160,19353,1,0
320,128,20020,1,0
352,96,21353,5,0
192,64,22020,1,0
288,128,22853,1,0
96,64,23853,1,0
256,64,24686,1,0
384,160,25353,1,0
192,128,26186,1,0
96,64,26853,1,0
256,96,28020,1,0
384,160,28686,1,0
192,128,29353,1,0
224,192,30020,1,0
352,128,30686,1,0
352,64,32353,5,0
192,96,33020,1,0
128,160,33853,1,0
352,160,34353,1,0
256,96,35020,1,0
224,192,35520,1,0
64,128,36020,1,0
256,96,36520,1,0
352,96,37020,1,0
384,160,37686,1,0
256,160,38186,1,0
160,96,38686,1,0
256,32,39353,1,0
256,96,39853,1,0
256,160,40520,1,0
320,128,41186,1,0
288,64,41686,1,0
384,96,42353,1,0
224,192,43020,1,0
96,128,43686,1,0
352,160,44853,5,0
192,128,45520,1,0
288,96,46020,1,0
224,192,46686,1,0
160,128,47186,1,0
320,96,47686,1,0
320,192,48186,1,0
480,64,48686,1,0
320,128,49353,1,0
128,96,49853,1,0
160,160,50353,1,0
256,160,50853,1,0
320,96,51186,1,0
384,160,51520,1,0
256,96,52186,1,0
352,64,53020,1,0
352,128,53686,1,0
288,160,54186,1,0
224,192,54686,1,0
192,224,55186,1,0
224,128,55853,1,0
224,96,56353,1,0
288,96,56853,1,0
352,96,57353,1,0
352,160,58020,1,0
320,32,58520,1,0
288,128,59020,1,0
288,192,59520,1,0
224,160,59853,1,0
352,128,60353,1,0
288,96,60853,1,0
384,128,62020,5,0
288,96,62686,1,0
160,128,63186,1,0
224,64,64019,1,0
352,160,64353,1,0
384,96,64686,1,0
288,96,65186,1,0
384,128,66853,5,0
288,96,67353,1,0
192,96,68020,1,0
288,192,68520,1,0
384,96,69020,1,0
288,64,69353,1,0
192,96,70020,1,0
160,96,70520,1,0
320,96,71186,1,0
256,96,71520,1,0
416,64,72520,1,0
224,96,72853,1,0
128,192,73353,1,0
288,160,73686,1,0
192,64,74853,1,0
320,96,75353,1,0
288,160,75853,1,0
96,96,77520,2,0,B,2,200
160,96,81353,1,0
256,160,81853,1,0
384,128,82186,1,0
416,96,83186,5,0
256,96,83686,1,0
160,64,84353,1,0
96,192,85186,1,0
224,160,85520,1,0
224,32,86353,1,0
352,64,87353,1,0
192,160,88186,1,0
288,160,88853,1,0
160,96,89520,1,0
224,96,90020,1,0
320,96,90520,1,0
352,96,90853,1,0
384,64,92020,5,0
320,64,92686,1,0
224,64,93520,1,0
224,128,94020,1,0
288,128,94686,1,0
288,64,95186,1,0
384,128,95853,1,0
192,160,96353,1,0
64,96,96853,1,0
160,64,97353,1,0
128,160,98186,1,0
256,160,98520,1,0
288,64,98853,1,0
384,96,99353,1,0
384,160,99686,1,0
448,96,100686,5,0
320,64,101020,1,0
256,160,101520,1,0
192,160,102020,1,0
288,96,102520,1,0
224,64,102853,1,0
352,160,103520,1,0
320,64,104353,1,0
160,192,104853,1,0
224,128,105520,1,0
352,192,106186,1,0
384,64,106686,1,0
192,64,107353,1,0
64,96,107853,1,0
224,192,108686,1,0
320,160,109020,1,0
288,128,109520,1,0
448,128,109853,1,0
320,64,110686,1,0
192,64,111186,1,0
192,160,111686,1,0
416,128,112186,1,0
384,128,112353,1,0
320,128,112853,1,0
416,64,113853,5,0
256,96,114186,1,0
224,128,114520,1,0
128,160,114853,1,0
320,192,115353,1,0
288,96,115686,1,0
352,128,116186,1,0
192,96,116520,1,0
128,96,117186,1,0
256,96,117686,1,0
224,64,118353,1,0
352,160,118686,1,0
224,160,119186,1,0
352,192,119686,1,0
320,96,119853,1,0
96,160,121353,1,0
256,128,122186,1,0
192,128,122686,1,0
352,96,123020,1,0
160,128,123353,1,0
256,96,123853,1,0
384,64,124853,5,0
256,64,125353,1,0
160,128,125686,1,0
288,160,126186,1,0
320,96,126520,1,0
224,96,127020,1,0
384,32,127853,1,0
224,96,128353,1,0
192,128,128686,1,0
96,128,129186,1,0
320,160,129519,1,0
416,128,129853,1,0
64,160,131353,2,0,B,1,250
64,128,134020,1,0
288,96,134353,1,0
352,224,134853,1,0
416,128,135353,1,0
352,64,135520,1,0
224,96,136186,1,0
224,96,136353,1,0
96,192,136520,1,0
224,160,137020,1,0
224,160,137186,1,0
224,160,137520,1,0
224,160,137686,1,0
320,160,138186,1,0
320,160,138353,1,0
320,160,138686,1,0
288,96,139186,1,0
160,64,139520,1,0
160,64,139686,1,0
192,160,140353,1,0
192,160,140520,1,0
192,160,140686,1,0
288,160,141186,1,0
288,128,141686,1,0
256,96,141853,1,0
384,160,142353,1,0
384,160,142520,1,0
384,160,142853,1,0
352,96,143686,5,0
352,96,144020,1,0
288,96,144520,1,0
288,96,144686,1,0
192,128,145020,1,0
128,192,145520,1,0
128,192,145853,1,0
128,192,146186,1,0
256,64,146686,1,0
256,64,146853,1,0
256,64,147186,1,0
352,96,147686,1,0
256,96,148020,1,0
160,64,148520,1,0
224,160,149020,1,0
352,96,149520,1,0
384,64,149686,1,0
288,64,150186,1,0
224,64,150686,1,0
160,64,151186,1,0
160,128,151520,1,0
160,160,151853,1,0
192,192,152186,1,0
256,160,152686,1,0
256,160,152853,1,0
384,96,153353,1,0
320,160,154186,1,0
224,96,154520,1,0
128,96,155020,1,0
416,96,156020,1,0
384,32,157186,5,0
224,96,157520,1,0
64,96,158020,1,0
224,192,158353,1,0
384,96,159020,1,0
256,32,159520,1,0
224,96,160353,1,0
352,128,160853,1,0
288,32,161353,1,0
384,64,161853,1,0
192,128,162520,1,0
416,96,163020,1,0
256,96,163520,1,0
352,192,164020,1,0
480,64,164686,1,0
128,96,165520,1,0
64,224,166353,1,0
224,96,167020,1,0
448,96,167853,1,0
320,224,168686,1,0
160,128,169353,1,0
288,64,169853,1,0
64,64,170853,1,0
160,192,171353,1,0
416,96,172686,5,0
224,96,173186,1,0
128,128,173853,1,0
192,224,174353,1,0
352,224,175020,1,0
288,128,175353,1,0
384,96,175853,1,0
192,32,176353,1,0
96,128,177353,1,0
192,160,177853,1,0
352,128,178186,1,0
256,64,178686,1,0
448,64,179186,1,0
384,160,179686,1,0
256,192,180686,1,0
288,128,181020,1,0
416,64,182186,5,0
224,128,182853,1,0
64,160,183686,1,0
128,64,184186,1,0
320,160,185020,1,0
224,64,185520,1,0
256,192,188020,12,0,194686
128,160,196520,6,0,B,1,200
96,96,198686,2,0,B|352:192,1,250
352,96,200520,2,0,B|128:96,1,200
416,224,202353,2,0,B|192:96,1,250
128,224,203853,2,0,B|352:64,1,250
64,64,205853,2,0,B|192:128,1,125
64,160,208020,1,0
224,96,208520,1,0
352,224,209186,1,0
416,64,210353,5,0
128,64,211186,1,0
64,128,211853,1,0
288,96,212853,1,0
448,64,213520,1,0
288,64,214020,1,0
96,128,214520,1,0
192,224,215520,1,0
288,128,215853,1,0
384,96,216853,5,0
256,64,217353,1,0
96,160,217853,1,0
128,192,218020,1,0
352,64,219186,1,0
480,96,219686,1,0
224,192,220020,1,0
96,160,220353,1,0
320,128,221353,1,0
224,96,221853,1,0
416,64,222186,1,0
256,64,222353,1,0
384,64,223853,5,0
288,96,224186,1,0
192,160,224520,1,0
192,160,225686,1,0
352,96,226186,1,0
192,96,226686,1,0
64,160,227686,1,0
224,160,228186,1,0
352,64,228520,1,0
448,192,229853,1,0
256,160,230353,1,0
160,96,230686,1,0
448,32,231853,5,0
288,64,232520,1,0
160,64,232853,1,0
160,128,233353,1,0
288,160,233853,1,0
352,160,234186,1,0
320,96,234686,1,0
192,96,235186,1,0
256,192,235853,1,0
384,96,236520,1,0
160,64,237353,1,0
64,192,237853,1,0
256,160,238520,1,0
288,96,239186,1,0
448,192,240353,1,0
160,160,241186,1,0
256,64,242020,1,0
384,160,242686,1,0
384,96,243520,1,0
96,64,244353,1,0
96,160,244853,1,0
256,160,245186,1,0
384,96,245520,1,0
160,64,246686,1,0
256,128,247186,1,0
416,96,247686,1,0
352,224,248520,1,0
160,96,248853,1,0
96,64,249353,1,0
288,128,249686,1,0
384,64,250186,1,0
512,32,250686,1,0
256,96,251686,5,0
128,96,252020,1,0
96,192,252353,1,0
224,192,252686,1,0
384,160,253186,1,0
320,96,253686,1,0
192,64,254020,1,0
96,128,254353,1,0
160,224,255020,1,0
320,160,255519,1,0
256,128,256186,1,0
416,64,256519,1,0
288,128,257019,1,0
160,128,257353,1,0
160,128,257686,1,0
288,192,258186,1,0
192,64,259186,1,0
352,128,259686,1,0
416,64,260853,5,0
224,128,261520,1,0
224,224,261853,1,0
320,160,262353,1,0
160,64,262520,1,0
256,64,263520,1,0
224,160,264020,1,0
320,160,264353,1,0
352,96,264853,1,0
64,128,266020,2,0,B|384:96,1,300
416,192,267520,2,0,B|96:192,1,300
96,64,269020,2,0,B|288:128,1,200
128,256,270353,2,0,B|288:128,1,200
96,0,271686,2,0,B|256:96,1,175
416,128,273186,2,0,B|96:96,1,300
256,224,274686,2,0,B|288:192|352:128,1,125
128,96,276353,2,0,B|288:160,1,150
384,128,277853,2,0,B,1,275
64,128,280020,1,0
224,128,280520,1,0
352,96,281186,1,0
416,192,281520,1,0
192,96,281853,1,0
128,128,282353,1,0
256,160,282686,1,0
384,32,284020,5,0
224,128,284520,1,0
128,192,284853,1,0
