osu file format v13

[General]
AudioFilename: eviltower_01.mp3
AudioLeadIn: 0
PreviewTime: 32579
Countdown: 0
SampleSet: Normal
StackLeniency: 0.7
Mode: 0
LetterboxInBreaks: 0
WidescreenStoryboard: 0

[Editor]
DistanceSpacing: 1.3
BeatDivisor: 2
GridSize: 4
TimelineZoom: 2

[Metadata]
Title:Evil Tower 1
TitleUnicode:Evil Tower 1
Artist:Neople
ArtistUnicode:Neople
Creator:ZZHBOY
Version:Difficult
Source:던전앤파이터
Tags:MMORPG Online Arad Senki NEXON Hangame DFO Regraz Dungeon & Fighter
BeatmapID:271953
BeatmapSetID:102913

[Difficulty]
HPDrainRate:6
CircleSize:3
OverallDifficulty:7
ApproachRate:9
SliderMultiplier:1.8
SliderTickRate:2

[Events]
//Background and Video events
0,0,"BG.jpg",0,0
//Break Periods
//Storyboard Layer 0 (Background)
//Storyboard Layer 1 (Fail)
//Storyboard Layer 2 (Pass)
//Storyboard Layer 3 (Foreground)
//Storyboard Sound Samples
//Background Colour Transformations
3,100,163,162,255

[TimingPoints]
13707,428.571428571429,4,1,1,40,1,0
17028,-100,4,1,1,50,0,0
20349,-100,4,1,1,40,0,0
27742,-100,4,1,1,45,0,0
28599,-100,4,1,1,40,0,0
31171,-100,4,1,1,55,0,0
31599,-100,4,1,1,60,0,0
32028,-100,4,1,1,65,0,0
32435,-100,4,1,1,40,0,0
32980,400,4,1,1,50,1,0
33416,387.096774193548,4,1,1,60,1,0
33783,375,4,1,1,20,1,0
34127,333.333333333333,4,1,1,65,1,1
39293,-100,4,1,1,70,0,1
41293,-100,4,1,1,80,0,1
42210,-100,4,1,1,60,0,1
42376,-100,4,1,1,80,0,1
42543,-100,4,1,1,60,0,1
42710,-100,4,1,1,80,0,1
42876,-100,4,1,1,60,0,1
43043,-100,4,1,1,80,0,1
43210,-100,4,1,1,60,0,1
43868,-100,4,1,1,100,0,1
44210,-100,4,1,1,50,0,1
44376,-100,4,1,1,100,0,1
44615,-100,4,1,1,75,0,1
45376,-100,4,1,1,65,0,1
45942,-100,4,1,1,70,0,1
46710,-100,4,1,1,70,0,1
47210,-100,4,1,1,75,0,1
47793,-100,4,1,1,65,0,1
49960,-100,4,1,1,50,0,1
50460,-100,4,1,1,55,0,1
53210,-100,4,1,1,65,0,1
53376,-100,4,1,1,55,0,1
53905,-133.333333333333,4,1,1,55,0,1
55229,-133.333333333333,4,1,1,60,0,1
58126,-100,4,1,1,50,0,0
59376,-100,4,1,1,60,0,0
63126,-100,4,1,1,45,0,0
65960,-100,4,1,1,60,0,0
66460,-100,4,1,1,50,0,0
66626,-100,4,1,1,60,0,0
66710,-100,4,1,1,40,0,0
66960,-100,4,1,1,60,0,0
68210,-100,4,1,1,50,0,0
70043,-100,4,1,1,60,0,0
71376,-100,4,1,1,50,0,0
73376,-100,4,1,1,20,0,0
73460,-100,4,1,1,60,0,0
75876,-100,4,1,1,40,0,0
76043,-100,4,1,1,60,0,0
76626,-100,4,1,1,40,0,0
77376,-100,4,1,1,60,0,0
83543,-100,4,1,1,40,0,0
83710,-100,4,1,1,60,0,0
84793,-100,4,1,1,45,0,0
84960,-100,4,1,1,60,0,0
86460,-100,4,1,1,80,0,0
87376,-100,4,1,1,60,0,0
90460,-100,4,1,1,70,0,0
91376,-100,4,1,1,60,0,0
93543,-100,4,1,1,70,0,0
94960,-100,4,1,1,70,0,0
97460,-100,4,1,1,80,0,0
97793,-100,4,1,1,60,0,0
98126,-80,4,1,1,70,0,1
99543,-80,4,1,1,60,0,1
99710,-80,4,1,1,70,0,1
99876,-80,4,1,1,60,0,1
100043,-80,4,1,1,70,0,1
100210,-80,4,1,1,60,0,1
100376,-80,4,1,1,70,0,1
100543,-80,4,1,1,60,0,1
100710,-80,4,1,1,70,0,1
108043,-80,4,1,1,50,0,1
108210,-80,4,1,1,80,0,1
108376,-80,4,1,1,50,0,1
108543,-80,4,1,1,60,0,1
108793,-80,4,1,1,60,0,0
112126,-80,4,1,1,60,0,1
114043,-100,4,1,1,80,0,1
117126,-100,4,1,1,60,0,1
118626,-100,4,1,1,70,0,1
119293,-133.333333333333,4,1,1,60,0,1
119460,-100,4,1,1,60,0,0
120793,-100,4,1,1,50,0,0
122126,-100,4,1,1,40,0,0
123460,-100,4,1,1,20,0,0
124543,-100,4,1,1,5,0,0

[Colours]
Combo1 : 226,139,252
Combo2 : 172,171,162
Combo3 : 147,190,255
Combo4 : 143,235,177

[HitObjects]
96,40,13706,5,0,0:0:0:0:
232,88,13921,1,0,0:0:0:0:
243,235,14135,1,2,0:0:0:0:
162,168,14349,1,0,0:0:0:0:
232,88,14564,2,0,L|348:52,1,90,8|0,0:0|0:0,0:0:0:0:
396,148,14992,2,0,L|308:176,1,90,2|0,0:0|0:0,0:0:0:0:
292,288,15421,6,0,L|400:252,1,90,8|0,0:0|0:0,0:0:0:0:
160,200,15849,1,2,0:0:0:0:
204,320,16064,1,0,0:0:0:0:
349,258,16278,2,0,P|311:236|267:230,1,90,8|0,0:0|0:0,0:0:0:0:
95,294,16706,1,2,0:0:0:0:
58,129,16921,1,0,0:0:0:0:
180,60,17135,6,0,B|221:88|224:136|224:136|274:133|320:160,1,180,8|2,0:0|0:0,0:0:0:0:
404,184,17778,1,0,0:0:0:0:
352,332,17992,2,0,P|346:324|332:232,1,90,8|0,0:0|0:0,0:0:0:0:
208,64,18421,2,0,P|224:104|220:156,1,90,2|0,0:0|0:0,0:0:0:0:
96,320,18849,6,0,L|152:224,1,90,8|0,0:0|0:0,0:0:0:0:
196,136,19278,1,2,0:0:0:0:
312,148,19492,1,0,0:0:0:0:
464,56,19707,2,0,L|416:144,1,90,8|0,0:0|0:0,0:0:0:0:
368,240,20135,1,2,0:0:0:0:
224,312,20349,1,0,0:0:0:0:
80,232,20564,6,0,B|123:229|157:189|157:189|196:200|252:240,1,180,8|2,0:0|0:0,0:0:0:0:
188,328,21207,1,0,0:0:0:0:
80,232,21421,2,0,P|72:144|132:76,1,180,8|2,0:0|0:0,0:0:0:0:
232,52,22064,1,0,0:0:0:0:
336,72,22278,5,8,0:0:0:0:
440,96,22492,1,0,0:0:0:0:
244,188,22707,1,2,0:0:0:0:
232,52,22921,1,0,0:0:0:0:
384,106,23135,1,8,0:0:0:0:
396,242,23349,1,0,0:0:0:0:
244,188,23564,2,0,L|144:256,1,90,2|0,0:0|0:0,0:0:0:0:
176,48,23992,5,8,0:0:0:0:
256,76,24207,1,0,0:0:0:0:
336,104,24421,1,2,0:0:0:0:
416,136,24635,1,0,0:0:0:0:
448,244,24849,5,8,0:0:0:0:
344,204,25064,1,0,0:0:0:0:
240,168,25278,1,2,0:0:0:0:
132,136,25492,1,0,0:0:0:0:
147,331,25707,6,0,P|164:282|159:239,1,90,8|0,0:0|0:0,0:0:0:0:
72,274,26135,1,2,0:0:0:0:
255,315,26349,1,0,0:0:0:0:
265,121,26564,6,0,P|221:117|183:139,1,90,8|0,0:0|0:0,0:0:0:0:
142,256,26992,1,2,0:0:0:0:
220,40,27206,1,0,0:0:0:0:
182,139,27421,6,0,P|214:195|266:227,1,90,8|0,0:0|0:0,0:0:0:0:
220,40,27849,2,0,P|155:39|104:64,1,90,2|0,0:0|0:0,0:0:0:0:
97,197,28278,2,0,L|32:136,1,90,8|0,0:0|0:0,0:0:0:0:
182,140,28707,2,0,L|247:201,1,90,2|0,0:0|0:0,0:0:0:0:
252,300,29135,5,8,0:0:0:0:
392,308,29349,1,0,0:0:0:0:
320,188,29563,1,2,0:0:0:0:
296,100,29778,1,0,0:0:0:0:
384,112,29992,5,8,0:0:0:0:
256,266,30207,1,0,0:0:0:0:
384,112,30421,1,2,0:0:0:0:
216,84,30635,1,0,0:0:0:0:
256,266,30849,6,0,P|258:317|282:377,1,90,8|0,0:0|0:0,0:0:0:0:
256,100,31278,2,0,P|205:102|145:126,1,90,2|0,0:0|0:0,0:0:0:0:
410,100,31707,2,0,P|408:49|384:-11,1,90,8|0,0:0|0:0,0:0:0:0:
410,260,32135,2,0,P|461:258|521:234,1,90,2|0,0:0|0:0,0:0:0:0:
256,192,32564,12,0,33783,0:0:0:0:
366,188,34127,6,0,P|364:235|330:304,1,90,4|0,0:0|0:0,0:0:0:0:
115,280,34460,2,0,P|191:250|236:257,1,90,2|0,0:0|0:0,0:0:0:0:
186,347,34793,1,8,0:0:0:0:
40,52,35127,1,2,0:0:0:0:
132,108,35293,1,0,0:0:0:0:
40,52,35460,6,0,B|40:128|40:128|56:164,1,90,8|0,0:0|0:0,0:0:0:0:
136,296,35793,2,0,B|136:220|136:220|120:184,1,90,2|0,0:0|0:0,0:0:0:0:
40,52,36127,2,0,B|96:76|96:76|152:76,1,90,8|0,0:0|0:0,0:0:0:0:
316,48,36460,1,2,0:0:0:0:
225,61,36627,1,0,0:0:0:0:
401,87,36793,6,0,P|369:143|377:223,1,90,8|0,0:0|0:0,0:0:0:0:
349,340,37127,2,0,P|381:284|373:204,1,90,2|0,0:0|0:0,0:0:0:0:
401,86,37460,1,8,0:0:0:0:
188,168,37793,1,2,0:0:0:0:
151,260,37960,1,0,0:0:0:0:
84,188,38126,6,0,P|90:127|134:70,1,90,8|0,0:0|0:0,0:0:0:0:
188,168,38460,1,2,0:0:0:0:
84,188,38626,1,0,0:0:0:0:
188,168,38793,2,0,P|245:188|316:172,1,90,8|0,0:0|0:0,0:0:0:0:
252,80,39127,1,2,0:0:0:0:
308,292,39293,1,0,0:0:0:0:
308,292,39376,1,0,0:0:0:0:
308,292,39460,6,0,P|219:271|196:276,1,90,12|0,0:0|0:0,0:0:0:0:
100,338,39793,2,0,P|121:271|117:212,1,90,2|0,0:0|0:0,0:0:0:0:
64,72,40126,1,8,0:0:0:0:
106,150,40293,1,0,0:0:0:0:
276,191,40460,1,2,0:0:0:0:
188,184,40627,1,0,0:0:0:0:
357,247,40793,6,0,P|373:177|359:134,1,90,8|0,0:0|0:0,0:0:0:0:
301,101,41126,1,2,0:0:0:0:
476,184,41293,1,0,0:0:0:0:
301,101,41460,1,8,0:0:0:0:
112,156,41626,1,0,0:0:0:0:
164,303,41793,1,2,0:0:0:0:
281,198,41960,1,0,0:0:0:0:
128,68,42126,6,0,P|114:116|114:168,1,90,8|0,0:0|0:0,0:0:0:0:
205,290,42460,2,0,P|155:263|86:268,1,90,2|0,0:0|0:0,0:0:0:0:
14,362,42793,2,0,L|35:249,1,90,8|0,0:0|0:0,0:0:0:0:
127,68,43126,2,0,L|110:156,1,90,2|0,0:0|0:0,0:0:0:0:
212,231,43460,5,8,0:0:0:0:
427,205,43626,1,0,0:0:0:0:
299,54,43793,1,2,0:0:0:0:
304,191,43960,2,0,L|317:257,1,45,0|0,0:0|0:0,0:0:0:0:
268,153,44126,5,8,3:0:0:0:
267,143,44210,1,0,3:0:0:0:
265,134,44293,1,0,3:0:0:0:
263,125,44376,1,0,3:0:0:0:
229,77,44460,5,8,0:0:0:0:
209,65,44543,1,0,3:0:0:0:
189,53,44626,1,0,0:0:0:0:
168,43,44710,1,0,0:0:0:0:
148,32,44793,6,0,L|126:128,1,90,12|0,0:0|0:0,0:0:0:0:
177,330,45126,1,0,0:0:0:0:
253,253,45293,1,0,0:0:0:0:
126,235,45460,2,0,L|17:257,1,90,8|0,0:0|0:0,0:0:0:0:
147,106,45793,2,0,L|252:154,1,90,2|0,0:0|0:0,0:0:0:0:
122,105,46127,5,8,0:0:0:0:
328,73,46460,1,2,0:0:0:0:
348,62,46626,1,0,0:0:0:0:
368,51,46793,2,0,L|399:157,1,90,8|0,0:0|0:0,0:0:0:0:
464,267,47126,2,0,P|397:250|351:270,1,90,2|0,0:0|0:0,0:0:0:0:
415,337,47460,5,8,0:0:0:0:
258,146,47626,1,0,0:0:0:0:
412,162,47793,1,2,0:0:0:0:
227,231,47960,1,0,0:0:0:0:
223,64,48126,1,8,0:0:0:0:
386,256,48292,1,0,0:0:0:0:
226,239,48459,1,2,0:0:0:0:
412,162,48626,1,0,0:0:0:0:
412,162,48793,6,0,L|351:81,1,90,8|0,0:0|0:0,0:0:0:0:
259,146,49126,2,0,L|168:161,1,90,2|0,0:0|0:0,0:0:0:0:
87,61,49460,1,8,0:0:0:0:
46,175,49626,1,0,0:0:0:0:
170,161,49793,1,0,0:0:0:0:
214,274,49959,1,2,0:0:0:0:
214,274,50043,1,0,0:0:0:0:
214,274,50126,6,0,B|215:327|215:327|197:364,1,90,4|8,0:0|0:0,3:0:0:0:
345,53,50626,1,0,0:0:0:0:
345,53,50793,2,0,L|246:62,1,90,8|0,0:0|0:0,0:0:0:0:
303,239,51126,2,0,P|315:187|305:140,1,90,2|0,0:0|0:0,0:0:0:0:
416,80,51460,6,0,P|412:133|430:189,1,90,8|0,0:0|0:0,0:0:0:0:
480,277,51793,2,0,L|379:295,1,90,2|0,0:0|0:0,0:0:0:0:
330,174,52126,1,8,0:0:0:0:
253,274,52293,1,0,0:0:0:0:
134,317,52460,1,2,0:0:0:0:
56,229,52626,1,0,0:0:0:0:
165,196,52793,6,0,P|171:152|163:108,1,90,8|0,0:0|0:0,0:0:0:0:
52,20,53126,2,0,L|184:20,1,90,2|0,0:0|0:0,0:0:0:0:
200,132,53460,1,8,0:0:0:0:
183,256,53626,1,0,0:0:0:0:
56,228,53793,1,0,0:0:0:0:
73,104,53959,1,8,0:0:0:0:
256,169,54126,6,0,P|328:171|401:129,1,135.000005149842,8|2,0:0|0:0,0:0:0:0:
428,74,54626,1,0,0:0:0:0:
384,238,54793,2,0,L|384:306,1,67.5000025749208,8|0,0:0|0:0,0:0:0:0:
127,238,55126,1,2,0:0:0:0:
256,239,55293,1,0,0:0:0:0:
256,255,55377,1,0,0:0:0:0:
256,271,55460,5,8,0:0:0:0:
256,192,55543,12,4,57460,0:0:0:0:
156,202,58126,6,0,L|259:184,1,90,8|0,0:0|0:0,0:0:0:0:
360,133,58460,1,2,0:0:0:0:
458,210,58626,1,0,0:0:0:0:
342,342,58793,2,0,L|324:239,1,90,8|0,0:0|0:0,0:0:0:0:
273,138,59127,1,2,0:0:0:0:
350,40,59293,1,0,0:0:0:0:
240,232,59460,5,8,0:0:0:0:
121,274,59626,1,0,0:0:0:0:
220,216,59793,1,2,0:0:0:0:
98,187,59959,1,0,0:0:0:0:
212,193,60126,1,8,0:0:0:0:
126,102,60292,1,0,0:0:0:0:
218,169,60459,1,2,0:0:0:0:
196,45,60625,1,0,0:0:0:0:
196,45,60710,1,0,0:0:0:0:
196,45,60793,6,0,P|247:78|308:95,1,90,8|0,0:0|0:0,0:0:0:0:
418,113,61126,2,0,P|345:138|321:162,1,90,2|0,0:0|0:0,0:0:0:0:
255,324,61460,1,8,0:0:0:0:
429,223,61793,2,0,P|352:228|310:236,1,90,2|0,0:0|0:0,0:0:0:0:
254,323,62126,6,0,P|242:227|219:189,1,135,8|0,0:0|2:0,0:0:0:0:
160,183,62460,2,0,P|226:153|253:132,1,90,2|0,0:0|0:0,0:0:0:0:
404,45,62793,1,8,0:0:0:0:
487,112,62960,1,2,0:0:0:0:
296,50,63126,1,0,0:0:0:0:
487,112,63293,1,0,0:0:0:0:
296,50,63460,6,0,P|239:61|192:54,1,90,8|0,0:0|0:0,0:0:0:0:
39,35,63793,2,0,P|70:75|80:129,1,90,2|0,0:0|0:0,0:0:0:0:
17,258,64126,2,0,L|103:215,1,90,8|0,0:0|0:0,0:0:0:0:
279,247,64460,2,0,L|199:288,1,90,0|8,0:0|0:0,0:0:0:0:
200,181,64792,5,0,0:0:0:0:
382,211,64960,1,0,0:0:0:0:
200,180,65126,1,2,0:0:0:0:
40,84,65293,1,0,0:0:0:0:
140,280,65460,6,0,L|130:235,1,45
211,223,65626,2,0,L|200:180,1,45,8|0,0:0|0:0,0:0:0:0:
280,172,65793,1,0,0:0:0:0:
404,137,65960,1,0,0:0:0:0:
404,137,66043,1,0,0:0:0:0:
404,137,66126,6,0,L|386:248,1,90,8|0,0:0|0:0,0:0:0:0:
268,275,66460,2,0,P|223:274|172:241,1,90,2|0,0:0|0:0,0:0:0:0:
144,52,66793,1,8,0:0:0:0:
124,312,67126,1,2,0:0:0:0:
201,147,67293,1,0,0:0:0:0:
381,138,67460,6,0,P|379:183|335:242,1,90,8|0,0:0|0:0,0:0:0:0:
163,341,67793,2,0,P|165:296|209:237,1,90,2|0,0:0|0:0,0:0:0:0:
355,240,68126,1,8,0:0:0:0:
355,241,68460,1,2,0:0:0:0:
191,168,68627,1,0,0:0:0:0:
78,61,68793,5,8,0:0:0:0:
78,61,68960,2,0,L|180:64,1,90,0|2,0:0|0:0,0:0:0:0:
311,221,69293,1,0,0:0:0:0:
289,97,69460,1,8,0:0:0:0:
91,309,69626,1,0,0:0:0:0:
218,306,69793,1,2,0:0:0:0:
19,205,69960,1,0,0:0:0:0:
19,205,70126,6,0,L|108:138,1,90,8|0,0:0|0:0,0:0:0:0:
187,47,70460,1,2,0:0:0:0:
173,225,70626,1,0,0:0:0:0:
187,47,70793,2,0,B|216:80|216:80|258:96,1,90,8|0,0:0|0:0,0:0:0:0:
332,232,71126,2,0,B|303:199|303:199|261:183,1,90,2|0,0:0|0:0,0:0:0:0:
212,194,71376,1,0,0:0:0:0:
173,225,71460,6,0,L|107:328,1,90
261,236,71793,1,2,0:0:0:0:
360,182,71960,1,0,0:0:0:0:
363,295,72126,1,8,0:0:0:0:
180,154,72293,1,0,0:0:0:0:
261,236,72460,1,2,0:0:0:0:
80,120,72626,1,0,0:0:0:0:
324,64,72793,6,0,P|308:106|278:139,1,90,8|0,0:0|0:0,0:0:0:0:
180,155,73126,2,0,L|95:123,1,90,10|0,0:0|0:0,0:0:0:0:
109,235,73460,2,0,L|193:266,1,90,8|0,0:0|0:0,0:0:0:0:
362,171,73793,2,0,L|279:139,1,90,2|0,0:0|0:0,0:0:0:0:
447,158,74126,6,0,P|469:221|511:245,1,90,8|0,0:0|0:0,0:0:0:0:
478,54,74460,2,0,L|381:92,1,90,2|0,0:0|0:0,0:0:0:0:
172,164,74793,1,8,0:0:0:0:
263,106,74960,1,0,0:0:0:0:
195,268,75126,2,0,P|194:314|217:361,1,90,2|0,0:0|0:0,0:0:0:0:
234,159,75460,6,0,L|119:198,1,90,8|0,0:0|0:0,0:0:0:0:
382,42,75960,1,0,0:0:0:0:
386,62,76043,1,0,0:0:0:0:
390,84,76126,2,0,L|408:184,1,90,8|0,0:0|0:0,0:0:0:0:
238,328,76460,1,2,0:0:0:0:
377,289,76626,1,0,0:0:0:0:
377,289,76710,1,0,0:0:0:0:
377,289,76793,5,8,0:0:0:0:
285,115,76960,1,0,0:0:0:0:
154,259,77126,1,2,0:0:0:0:
185,156,77293,1,0,0:0:0:0:
238,328,77460,1,8,0:0:0:0:
123,66,77793,1,2,0:0:0:0:
185,156,77960,1,0,0:0:0:0:
238,328,78126,6,0,P|250:255|273:228,1,90,8|0,0:0|0:0,0:0:0:0:
428,336,78460,1,2,0:0:0:0:
185,156,78793,2,0,P|136:173|88:178,1,90,8|0,0:0|0:0,0:0:0:0:
286,96,79126,1,2,0:0:0:0:
218,236,79293,1,0,0:0:0:0:
218,236,79460,6,0,P|197:169|171:143,1,90,8|0,0:0|0:0,0:0:0:0:
364,53,79793,2,0,P|304:83|274:108,1,90,2|0,0:0|0:0,0:0:0:0:
372,160,80126,1,8,0:0:0:0:
364,53,80293,1,0,0:0:0:0:
200,53,80460,1,2,0:0:0:0:
200,160,80626,1,0,0:0:0:0:
245,265,80793,6,0,L|346:266,1,90,8|0,0:0|0:0,0:0:0:0:
372,160,81126,2,0,L|278:160,1,90,2|0,0:0|0:0,0:0:0:0:
274,52,81460,2,0,L|364:52,1,90,8|0,0:0|0:0,0:0:0:0:
189,68,81793,2,0,P|184:138|160:181,1,90,2|0,0:0|0:0,0:0:0:0:
161,172,82043,1,0,0:0:0:0:
142,182,82126,6,0,L|181:266,1,90,8|0,0:0|0:0,0:0:0:0:
362,249,82460,2,0,P|296:268|272:295,1,90,2|0,0:0|0:0,0:0:0:0:
445,301,82793,1,8,0:0:0:0:
188,36,83126,1,2,0:0:0:0:
106,107,83293,1,0,0:0:0:0:
290,72,83460,6,0,P|351:77|390:70,1,90,8|0,0:0|0:0,0:0:0:0:
188,36,83793,1,2,0:0:0:0:
327,284,84126,1,8,0:0:0:0:
461,231,84293,1,0,0:0:0:0:
204,207,84460,1,2,0:0:0:0:
70,260,84627,1,0,0:0:0:0:
70,260,84710,1,0,0:0:0:0:
70,260,84793,6,0,L|105:144,1,90,8|0,0:0|0:0,0:0:0:0:
230,120,85126,2,0,L|204:206,1,90,2|0,0:0|0:0,0:0:0:0:
135,334,85460,1,8,0:0:0:0:
293,51,85793,1,2,0:0:0:0:
420,119,85960,1,0,0:0:0:0:
451,259,86126,5,8,0:0:0:0:
317,204,86293,1,0,0:0:0:0:
172,209,86460,1,8,0:0:0:0:
150,215,86543,1,0,0:0:0:0:
130,225,86626,2,0,L|142:126,1,90,0|8,0:0|0:0,0:0:0:0:
84,268,86960,2,0,L|96:169,1,90,0|2,0:0|0:0,0:0:0:0:
73,70,87293,1,0,0:0:0:0:
71,92,87376,1,0,0:0:0:0:
66,113,87460,6,0,P|128:114|170:124,1,90,4|0,0:0|0:0,0:0:0:0:
275,158,87793,1,2,0:0:0:0:
385,97,87960,1,0,0:0:0:0:
270,272,88126,1,8,0:0:0:0:
66,113,88460,2,0,P|128:114|170:124,1,90,2|0,0:0|0:0,0:0:0:0:
101,237,88793,5,8,0:0:0:0:
247,89,88960,1,0,0:0:0:0:
332,210,89126,1,2,0:0:0:0:
385,96,89293,1,0,0:0:0:0:
366,331,89460,2,0,P|311:317|261:326,1,90,8|0,0:0|0:0,0:0:0:0:
104,346,89793,2,0,P|117:293|91:243,1,90,2|0,0:0|0:0,0:0:0:0:
29,301,90126,5,8,0:0:0:0:
266,255,90293,1,0,0:0:0:0:
29,301,90626,1,0,0:0:0:0:
29,301,90960,5,0,0:0:0:0:
53,263,91126,1,2,0:0:0:0:
64,219,91293,1,0,0:0:0:0:
56,174,91460,6,0,L|143:237,1,90,8|0,0:0|0:0,0:0:0:0:
273,231,91793,2,0,L|200:178,1,90,2|0,0:0|0:0,0:0:0:0:
162,38,92126,2,0,L|249:101,1,90,8|0,0:0|0:0,0:0:0:0:
306,42,92459,2,0,L|379:95,1,90,2|0,0:0|0:0,0:0:0:0:
392,138,92710,1,0,0:0:0:0:
397,183,92793,5,8,0:0:0:0:
260,286,92960,1,0,0:0:0:0:
345,257,93126,1,2,0:0:0:0:
172,263,93293,1,0,0:0:0:0:
332,342,93460,1,8,0:0:0:0:
68,77,93793,1,2,0:0:0:0:
245,95,93960,1,0,0:0:0:0:
68,77,94126,6,0,P|108:153|107:188,1,90,8|0,0:0|0:0,0:0:0:0:
58,291,94460,2,0,L|171:297,1,90,2|0,0:0|0:0,0:0:0:0:
316,304,94793,1,8,0:0:0:0:
404,192,94960,1,0,0:0:0:0:
328,72,95126,1,2,0:0:0:0:
192,120,95293,1,0,0:0:0:0:
193,249,95460,6,0,P|236:239|274:215,1,90,8|0,0:0|0:0,0:0:0:0:
88,151,95793,2,0,P|76:208|57:242,1,90,2|0,0:0|0:0,0:0:0:0:
43,44,96126,2,0,P|115:66|164:67,1,90,8|0,0:0|0:0,0:0:0:0:
271,36,96460,1,2,0:0:0:0:
274,215,96626,1,0,0:0:0:0:
271,36,96793,5,8,0:0:0:0:
274,215,96960,2,0,P|221:211|170:160,1,90,0|2,0:0|0:0,0:0:0:0:
396,320,97293,1,0,0:0:0:0:
368,33,97626,1,0,0:0:0:0:
88,112,97960,1,0,0:0:0:0:
88,112,98043,1,0,0:0:0:0:
88,112,98126,6,0,L|88:226,1,112.5,12|0,0:0|0:0,0:0:0:0:
304,226,98460,2,0,L|304:113,1,112.5,2|0,0:0|0:0,0:0:0:0:
195,113,98793,2,0,L|195:227,1,112.5,8|0,0:0|0:0,0:0:0:0:
411,227,99127,2,0,L|411:114,1,112.5,2|0,0:0|0:0,0:0:0:0:
195,225,99460,6,0,P|137:254|87:252,1,112.5,8|0,0:0|0:0,0:0:0:0:
304,112,99793,2,0,P|362:83|412:85,1,112.5,2|0,0:0|0:0,0:0:0:0:
196,112,100126,2,0,P|167:54|169:4,1,112.5,8|0,0:0|0:0,0:0:0:0:
304,228,100460,2,0,P|332:286|330:336,1,112.5,2|0,0:0|0:0,0:0:0:0:
304,112,100793,5,8,0:0:0:0:
212,308,100960,1,0,0:0:0:0:
48,40,101293,2,0,B|124:120|124:120|168:56|240:76,1,225,0|0,0:0|0:0,0:0:0:0:
212,308,101793,1,2,0:0:0:0:
216,180,101960,1,0,0:0:0:0:
84,364,102126,6,0,L|84:248,1,112.5,8|0,0:0|0:0,0:0:0:0:
212,308,102460,2,0,L|256:188,1,112.5,2|0,0:0|0:0,0:0:0:0:
88,176,102793,2,0,L|88:60,1,112.5,8|0,0:0|0:0,0:0:0:0:
216,108,103126,2,0,P|288:108|340:88,1,112.5,2|0,0:0|0:0,0:0:0:0:
348,76,103376,1,0,0:0:0:0:
360,48,103460,6,0,L|372:176,1,112.5,12|0,0:0|0:0,0:0:0:0:
416,288,103793,2,0,P|360:248|288:240,1,112.5,2|0,0:0|0:0,0:0:0:0:
144,320,104126,1,8,0:0:0:0:
216,108,104293,1,0,0:0:0:0:
144,320,104460,2,0,P|208:264|216:212,1,112.5,2|0,0:0|0:0,0:0:0:0:
412,140,104793,6,0,P|360:160|300:160,1,112.5,8|0,0:0|0:0,0:0:0:0:
168,32,105126,2,0,P|132:80|132:140,2,112.5,2|0|8,0:0|0:0|0:0,0:0:0:0:
180,200,105626,1,0,0:0:0:0:
324,152,105793,2,0,B|384:152|384:152|432:132,1,112.5,2|0,0:0|0:0,0:0:0:0:
180,200,106126,6,0,B|120:200|120:200|72:220,1,112.5,8|0,0:0|0:0,0:0:0:0:
300,130,106460,2,0,B|341:85|341:85|358:36,1,112.5,2|0,0:0|0:0,0:0:0:0:
217,125,106793,2,0,B|193:71|193:71|155:35,1,112.5,8|0,0:0|0:0,0:0:0:0:
330,207,107126,2,0,B|387:226|387:226|439:222,1,112.5,2|0,0:0|0:0,0:0:0:0:
217,125,107460,5,8,0:0:0:0:
96,180,107626,1,0,0:0:0:0:
47,308,107793,1,2,0:0:0:0:
96,180,107960,1,0,0:0:0:0:
340,344,108293,1,0,0:0:0:0:
406,57,108626,1,0,0:0:0:0:
406,57,108710,1,0,0:0:0:0:
406,57,108793,5,4,0:0:0:0:
256,192,108960,12,0,111126,2:0:0:0:
340,177,111460,5,4,0:0:0:0:
206,188,111627,1,0,0:0:0:0:
262,67,111793,1,2,0:0:0:0:
396,56,111960,1,0,0:0:0:0:
144,132,112126,2,0,P|81:131|36:97,1,112.5,12|0,0:0|0:0,0:0:0:0:
262,67,112460,2,0,P|254:155|231:188,1,112.5,2|0,0:0|0:0,0:0:0:0:
396,56,112793,5,8,0:0:0:0:
304,285,112960,1,0,0:0:0:0:
401,191,113126,1,2,0:0:0:0:
117,151,113293,1,0,0:0:0:0:
256,164,113460,1,8,0:0:0:0:
171,270,113626,1,0,0:0:0:0:
209,52,113793,1,2,0:0:0:0:
256,165,113960,1,0,0:0:0:0:
256,164,114043,1,0,0:0:0:0:
256,164,114126,6,0,L|309:236,1,90,4|0,0:0|0:0,0:0:0:0:
101,230,114460,2,0,L|34:140,1,90,2|0,0:0|0:0,0:0:0:0:
180,291,114793,1,8,0:0:0:0:
79,327,114960,1,0,0:0:0:0:
383,286,115126,1,2,0:0:0:0:
282,323,115293,1,0,0:0:0:0:
463,211,115460,6,0,P|465:149|476:100,1,90,8|0,0:0|0:0,0:0:0:0:
504,18,115793,1,2,0:0:0:0:
158,116,116126,2,0,P|196:128|269:100,1,90,8|0,0:0|0:0,0:0:0:0:
95,222,116460,1,2,0:0:0:0:
201,45,116626,1,0,0:0:0:0:
189,225,116793,6,0,P|234:249|303:235,1,90,8|0,0:0|0:0,0:0:0:0:
202,45,117126,1,2,0:0:0:0:
256,144,117293,1,0,0:0:0:0:
141,283,117460,1,8,0:0:0:0:
241,156,117626,1,0,0:0:0:0:
397,111,117793,1,2,0:0:0:0:
350,250,117960,1,0,0:0:0:0:
350,250,118126,6,0,P|344:304|367:350,1,90,8|0,0:0|0:0,0:0:0:0:
385,163,118460,1,2,0:0:0:0:
452,102,118626,1,0,0:0:0:0:
164,74,118960,1,0,0:0:0:0:
296,329,119293,2,0,L|266:278,2,33.7500012874604
256,192,119543,12,0,124626,0:0:0:0:
