osu file format v13

[General]
AudioFilename: eviltower_01.mp3
AudioLeadIn: 0
PreviewTime: 32579
Countdown: 0
SampleSet: Normal
StackLeniency: 0.7
Mode: 0
LetterboxInBreaks: 0
WidescreenStoryboard: 0

[Editor]
DistanceSpacing: 0.8
BeatDivisor: 1
GridSize: 4
TimelineZoom: 1

[Metadata]
Title:Evil Tower 1
TitleUnicode:Evil Tower 1
Artist:Neople
ArtistUnicode:Neople
Creator:ZZHBOY
Version:Basic
Source:던전앤파이터
Tags:MMORPG Online Arad Senki NEXON Hangame DFO Regraz Dungeon & Fighter
BeatmapID:272341
BeatmapSetID:102913

[Difficulty]
HPDrainRate:3
CircleSize:3
OverallDifficulty:3
ApproachRate:3
SliderMultiplier:0.8
SliderTickRate:1

[Events]
//Background and Video events
0,0,"BG.jpg",0,0
//Break Periods
//Storyboard Layer 0 (Background)
//Storyboard Layer 1 (Fail)
//Storyboard Layer 2 (Pass)
//Storyboard Layer 3 (Foreground)
//Storyboard Sound Samples
//Background Colour Transformations
3,100,163,162,255

[TimingPoints]
13707,428.571428571429,4,1,1,40,1,0
32980,400,4,1,1,50,1,0
33416,387.096774193548,4,1,1,60,1,0
33783,375,4,1,1,20,1,0
34127,333.333333333333,4,1,1,50,1,1
58126,-100,4,1,1,60,0,0
98126,-100,4,1,1,70,0,1
108793,-100,4,1,1,60,0,0
112126,-100,4,1,1,60,0,1
119460,-100,4,1,1,60,0,0
120793,-100,4,1,1,50,0,0
122126,-100,4,1,1,40,0,0
123460,-100,4,1,1,20,0,0
124543,-100,4,1,1,5,0,0

[Colours]
Combo1 : 226,139,252
Combo2 : 172,171,162
Combo3 : 147,190,255
Combo4 : 143,235,177

[HitObjects]
88,136,13706,5,0,0:0:0:0:
164,240,14564,1,8,0:0:0:0:
212,120,15421,2,0,P|292:88|376:112,1,160,12|8,0:0|0:0,0:0:0:0:
436,208,17135,5,12,0:0:0:0:
308,224,17992,1,8,0:0:0:0:
304,352,18849,2,0,P|232:332|188:256,1,160,12|8,0:0|0:0,0:0:0:0:
176,136,20564,5,12,0:0:0:0:
248,32,21421,1,8,0:0:0:0:
304,148,22278,2,0,P|356:190|463:178,1,160,12|8,0:0|0:0,0:0:0:0:
376,296,23992,5,12,0:0:0:0:
256,252,24849,1,8,0:0:0:0:
136,296,25707,2,0,P|64:216|12:202,1,160,12|8,0:0|0:0,0:0:0:0:
128,140,27421,5,12,0:0:0:0:
256,132,28278,1,8,0:0:0:0:
384,140,29135,1,12,0:0:0:0:
388,268,29992,1,8,0:0:0:0:
256,192,30849,12,0,32564,0:0:0:0:
58,92,34127,6,0,B|168:87|256:144|256:144|270:81|329:62,1,320,0|12,0:0|0:0,0:0:0:0:
380,180,36127,1,8,0:0:0:0:
275,256,36793,2,0,P|275:333|337:379,2,160,12|8|12,0:0|0:0|0:0,0:0:0:0:
380,180,38793,1,8,0:0:0:0:
452,76,39460,6,0,P|383:48|300:84,1,160,12|8,0:0|0:0,0:0:0:0:
248,192,40793,2,0,P|175:221|102:193,1,160,12|8,0:0|0:0,0:0:0:0:
112,64,42126,1,12,0:0:0:0:
0,124,42793,1,8,0:0:0:0:
40,247,43460,6,0,P|118:235|194:257,1,160,12|8,0:0|0:0,0:0:0:0:
236,304,44460,1,0,0:0:0:0:
272,356,44793,2,0,P|350:371|428:357,1,160,12|8,0:0|0:0,0:0:0:0:
476,240,46126,1,12,0:0:0:0:
380,156,46793,2,0,P|376:111|398:69,1,80,8|2,0:0|0:0,0:0:0:0:
440,44,47460,6,0,L|278:74,1,160,12|8,0:0|0:0,0:0:0:0:
196,172,48793,1,12,0:0:0:0:
152,52,49460,1,8,0:0:0:0:
64,144,50126,2,0,P|56:223|96:291,1,160,12|8,0:0|0:0,0:0:0:0:
212,344,51460,2,0,P|291:351|359:311,1,160,12|8,0:0|0:0,0:0:0:0:
404,192,52793,5,12,0:0:0:0:
328,88,53460,1,8,0:0:0:0:
280,208,54126,2,0,P|219:258|141:266,2,160,12|8|12,0:0|0:0|0:0,0:0:0:0:
256,192,55793,12,0,57460,0:0:0:0:
444,264,58126,5,0,0:0:0:0:
468,140,58793,1,8,0:0:0:0:
349,176,59460,2,0,P|271:185|197:149,1,160,12|8,0:0|0:0,0:0:0:0:
148,116,60460,1,0,0:0:0:0:
116,60,60793,6,0,P|142:142|110:208,1,160,12|12,0:0|0:0,0:0:0:0:
108,332,62126,1,0,0:0:0:0:
224,276,62793,2,0,P|251:265|306:264,1,80,8|2,0:0|0:0,0:0:0:0:
356,296,63460,2,0,P|365:217|432:157,1,160,12|8,0:0|0:0,0:0:0:0:
492,56,64793,5,12,0:0:0:0:
364,44,65460,1,8,0:0:0:0:
240,80,66126,2,0,P|168:92|74:68,1,160,12|8,0:0|0:0,0:0:0:0:
148,184,67460,2,0,P|159:255|116:336,1,160,12|8,0:0|0:0,0:0:0:0:
32,240,68793,5,12,0:0:0:0:
44,112,69460,1,8,0:0:0:0:
140,28,70126,2,0,P|228:68|253:126,1,160,12|8,0:0|0:0,0:0:0:0:
260,252,71460,2,0,P|309:306|402:317,1,160,12|8,0:0|0:0,0:0:0:0:
372,192,72793,5,12,0:0:0:0:
260,252,73460,2,0,P|255:283|272:334,1,80,8|2,0:0|0:0,0:0:0:0:
332,336,74126,2,0,L|171:352,1,160,12|8,0:0|0:0,0:0:0:0:
84,260,75460,1,12,0:0:0:0:
132,140,76126,1,8,0:0:0:0:
256,168,76793,5,12,0:0:0:0:
348,80,77460,1,8,0:0:0:0:
454,155,78126,2,0,P|426:226|466:303,1,160,12|8,0:0|0:0,0:0:0:0:
336,328,79460,5,12,0:0:0:0:
216,288,80126,1,8,0:0:0:0:
108,356,80793,2,0,P|91:284|30:225,1,160,12|8,0:0|0:0,0:0:0:0:
76,104,82126,5,12,0:0:0:0:
204,100,82793,1,8,0:0:0:0:
144,212,83460,2,0,P|221:227|304:212,1,160,12|8,0:0|0:0,0:0:0:0:
360,100,84793,5,12,0:0:0:0:
432,208,85460,1,8,0:0:0:0:
304,196,86126,2,0,P|315:266|387:333,2,160,12|8|12,0:0|0:0|0:0,0:0:0:0:
416,132,88126,5,8,0:0:0:0:
304,68,88793,2,0,P|245:57|141:82,1,160,12|8,0:0|0:0,0:0:0:0:
48,160,90126,1,12,0:0:0:0:
104,276,90793,1,8,0:0:0:0:
216,336,91460,2,0,P|280:286|382:291,1,160,12|8,0:0|0:0,0:0:0:0:
464,348,92793,5,12,0:0:0:0:
468,220,93460,2,0,P|464:168|484:132,1,80,8|2,0:0|0:0,0:0:0:0:
508,88,94126,2,0,L|345:109,1,160,12|8,0:0|0:0,0:0:0:0:
272,212,95460,5,12,0:0:0:0:
224,92,96126,1,8,0:0:0:0:
108,36,96793,2,0,P|103:95|28:174,1,160,12|8,0:0|0:0,0:0:0:0:
84,288,98126,5,4,0:0:0:0:
168,192,98793,1,8,0:0:0:0:
208,316,99460,1,12,0:0:0:0:
296,220,100126,2,0,P|337:216|378:227,1,80,8|2,0:0|0:0,0:0:0:0:
400,284,100793,6,0,L|501:160,1,160,12|8,0:0|0:0,0:0:0:0:
400,80,102126,2,0,B|344:148|344:148|266:158,1,160,12|8,0:0|0:0,0:0:0:0:
168,84,103460,2,0,P|144:148|172:240,1,160,12|8,0:0|0:0,0:0:0:0:
268,312,104793,2,0,P|204:356|108:348,1,160,12|8,0:0|0:0,0:0:0:0:
40,256,106126,5,12,0:0:0:0:
68,132,106793,1,8,0:0:0:0:
176,64,107460,1,12,0:0:0:0:
304,76,108126,1,8,0:0:0:0:
256,192,108793,12,0,110793,0:0:0:0:
449,78,111460,5,12,0:0:0:0:
420,204,112126,1,8,0:0:0:0:
320,280,112793,1,12,0:0:0:0:
192,276,113460,1,8,0:0:0:0:
80,216,114126,6,0,P|64:288|100:368,1,160,12|8,0:0|0:0,0:0:0:0:
192,276,115460,2,0,P|256:252|350:279,1,160,12|8,0:0|0:0,0:0:0:0:
468,256,116793,1,12,0:0:0:0:
468,128,117460,1,8,0:0:0:0:
360,196,118126,2,0,P|340:112|396:32,2,160,12|8|12,0:0|0:0|0:0,0:0:0:0:
256,192,119793,12,0,124626,0:0:0:0:
