osu file format v14

[General]
AudioFilename: Neon Hitch - Fuck U Betta (Nightcore Mix).mp3
AudioLeadIn: 1500
PreviewTime: 49222
Countdown: 0
SampleSet: Soft
StackLeniency: 0.3
Mode: 0
LetterboxInBreaks: 0
WidescreenStoryboard: 1

[Editor]
Bookmarks: 88,37011,43164,160088
DistanceSpacing: 1.1
BeatDivisor: 4
GridSize: 4
TimelineZoom: 1.5

[Metadata]
Title:Fuck U Betta (Nightcore Mix)
TitleUnicode:Fuck U Betta (Nightcore Mix)
Artist:Neon Hitch
ArtistUnicode:Neon Hitch
Creator:Gero
Version:Normal
Source:
Tags:NΞOИ HITCH F**k Love You Techno Trance Synthpop Dance Pop Urban Warner Music Collab Collaboration CDFA Inyuschan osuplayer111 Andrea
BeatmapID:564473
BeatmapSetID:244929

[Difficulty]
HPDrainRate:3
CircleSize:3
OverallDifficulty:3
ApproachRate:4
SliderMultiplier:1.2
SliderTickRate:2

[Events]
//Background and Video events
0,0,"BG.jpg",0,0
//Break Periods
2,37211,43164
//Storyboard Layer 0 (Background)
//Storyboard Layer 1 (Fail)
//Storyboard Layer 2 (Pass)
//Storyboard Layer 3 (Foreground)
Sprite,Foreground,Centre,"BG.jpg",320,240 P,0,36914,167320,A T,HitSoundFinish F,1,0,1200,1,0 S,1,0,1200,0.71,0.75
//Storyboard Sound Samples

[TimingPoints]
88,384.615384615385,4,2,1,60,1,0
9703,-100,4,2,10,50,0,0
9799,-100,4,2,1,60,0,0
11241,-100,4,2,10,50,0,0
11338,-100,4,2,1,60,0,0
12395,-100,4,2,2,50,0,0
12780,-100,4,2,11,40,0,0
12876,-100,4,2,2,50,0,0
15857,-100,4,2,11,40,0,0
15953,-100,4,2,2,50,0,0
22011,-100,4,2,11,40,0,0
22107,-100,4,2,2,50,0,0
23549,-100,4,2,11,40,0,0
23645,-100,4,2,2,50,0,0
23741,-100,4,2,1,50,0,0
23838,-100,4,2,2,50,0,0
23934,-100,4,2,11,40,0,0
24030,-100,4,2,2,50,0,0
28164,-100,4,2,11,40,0,0
28261,-100,4,2,2,50,0,0
31241,-100,4,2,11,40,0,0
31338,-100,4,2,2,50,0,0
34126,-100,4,2,1,20,0,0
34703,-100,4,2,1,30,0,0
35472,-100,4,2,1,40,0,0
36241,-100,4,2,1,50,0,0
37011,-100,4,2,1,60,0,0
44703,-100,4,2,1,5,0,0
45472,-100,4,2,1,10,0,0
46241,-100,4,2,1,20,0,0
47011,-100,4,2,1,30,0,0
47780,-100,4,2,1,40,0,0
48164,-100,4,2,1,35,0,0
49318,-100,4,1,1,70,0,1
49703,-100,4,1,10,60,0,1
49799,-100,4,1,1,70,0,1
49895,-100,4,1,11,60,0,1
49991,-100,4,1,1,70,0,1
51818,-100,4,1,11,60,0,1
51914,-100,4,1,1,70,0,1
56434,-100,4,1,11,60,0,1
56530,-100,4,1,1,70,0,1
57972,-100,4,1,11,60,0,1
58068,-100,4,1,1,70,0,1
60472,-100,4,1,10,60,0,1
60568,-100,4,1,1,70,0,1
60664,-100,4,1,11,60,0,1
60761,-100,4,1,1,70,0,1
61626,-100,4,2,2,60,0,0
62011,-100,4,2,11,50,0,0
62107,-100,4,2,2,60,0,0
65088,-100,4,2,11,50,0,0
65184,-100,4,2,2,60,0,0
71241,-100,4,2,11,50,0,0
71338,-100,4,2,2,60,0,0
72972,-100,4,2,1,60,0,0
73068,-100,4,2,2,60,0,0
73934,-100,4,2,3,60,0,0
77395,-100,4,2,12,50,0,0
77491,-100,4,2,3,60,0,0
77588,-100,4,2,14,50,0,0
77684,-100,4,2,3,60,0,0
80088,-100,4,2,3,40,0,0
80184,-100,4,2,3,60,0,0
80472,-100,4,2,12,50,0,0
80568,-100,4,2,3,60,0,0
80664,-100,4,2,14,50,0,0
80761,-100,4,2,3,60,0,0
85857,-100,4,2,1,35,0,0
86241,-100,4,1,1,70,0,1
86626,-100,4,1,10,60,0,1
86722,-100,4,1,1,70,0,1
86818,-100,4,1,11,60,0,1
86914,-100,4,1,1,70,0,1
88741,-100,4,1,11,60,0,1
88838,-100,4,1,1,70,0,1
93357,-100,4,1,11,60,0,1
93453,-100,4,1,1,70,0,1
94895,-100,4,1,11,60,0,1
94991,-100,4,1,1,70,0,1
96049,-100,4,1,11,60,0,1
96145,-100,4,1,1,70,0,1
97395,-100,4,1,10,60,0,1
97491,-100,4,1,1,70,0,1
97588,-100,4,1,11,60,0,1
97684,-100,4,1,1,70,0,1
98453,-100,4,1,1,70,0,0
98549,-100,4,1,1,70,0,1
99511,-100,4,1,11,60,0,1
99607,-100,4,1,1,70,0,1
100472,-100,4,1,10,60,0,1
100568,-100,4,1,1,70,0,1
105664,-100,4,1,11,60,0,1
105761,-100,4,1,1,70,0,1
108357,-100,4,1,11,60,0,1
108453,-100,4,1,1,70,0,1
108741,-100,4,1,11,60,0,1
108838,-100,4,1,1,70,0,1
109703,-100,4,1,10,60,0,1
109799,-100,4,1,1,70,0,1
110280,-100,4,1,11,60,0,1
110376,-100,4,1,1,70,0,1
110857,-100,4,2,2,60,0,0
112972,-100,4,2,11,50,0,0
113068,-100,4,2,2,60,0,0
115664,-100,4,2,11,50,0,0
115761,-100,4,2,2,60,0,0
116049,-100,4,2,11,50,0,0
116145,-100,4,2,2,60,0,0
118741,-100,4,2,11,50,0,0
118838,-100,4,2,2,60,0,0
119511,-100,4,2,11,50,0,0
119607,-100,4,2,2,60,0,0
120184,-100,4,2,1,60,0,0
121626,-100,4,2,3,60,0,0
122011,-100,4,2,14,50,0,0
122107,-100,4,2,3,60,0,0
122780,-100,4,2,1,30,0,0
123164,-100,4,1,1,70,0,1
124126,-100,4,1,11,60,0,1
124222,-100,4,1,1,70,0,1
125664,-100,4,1,11,60,0,1
125761,-100,4,1,1,70,0,1
128741,-100,4,1,11,60,0,1
128838,-100,4,1,1,70,0,1
130280,-100,4,1,11,60,0,1
130376,-100,4,1,1,70,0,1
131818,-100,4,1,11,60,0,1
131914,-100,4,1,1,70,0,1
132780,-100,4,1,10,60,0,1
132876,-100,4,1,1,70,0,1
132972,-100,4,1,11,60,0,1
133068,-100,4,1,1,70,0,1
134318,-100,4,1,10,60,0,1
134414,-100,4,1,1,70,0,1
134511,-100,4,1,11,60,0,1
134607,-100,4,1,1,70,0,1
135376,-100,4,1,1,70,0,0
135472,-100,4,1,1,70,0,1
136434,-100,4,1,11,60,0,1
136530,-100,4,1,1,70,0,1
137395,-100,4,1,10,60,0,1
137491,-100,4,1,1,70,0,1
137588,-100,4,1,11,60,0,1
137684,-100,4,1,1,70,0,1
141049,-100,4,1,11,60,0,1
141145,-100,4,1,1,70,0,1
142011,-100,4,1,10,60,0,1
142107,-100,4,1,1,70,0,1
142203,-100,4,1,11,60,0,1
142299,-100,4,1,1,70,0,1
145088,-100,4,1,10,60,0,1
145184,-100,4,1,1,70,0,1
145280,-100,4,1,11,60,0,1
145376,-100,4,1,1,70,0,1
146626,-100,4,1,10,60,0,1
146722,-100,4,1,1,70,0,1
147684,-100,4,1,1,70,0,0
147780,-100,4,1,1,70,0,1
148164,-100,4,1,10,60,0,1
148261,-100,4,1,1,70,0,1
148357,-100,4,1,11,60,0,1
148453,-100,4,1,1,70,0,1
150280,-100,4,1,11,60,0,1
150376,-100,4,1,1,70,0,1
153357,-100,4,1,11,60,0,1
153453,-100,4,1,1,70,0,1
154318,-100,4,1,10,60,0,1
154414,-100,4,1,1,70,0,1
154511,-100,4,1,11,60,0,1
154607,-100,4,1,1,70,0,1
155857,-100,4,1,10,60,0,1
155953,-100,4,1,1,70,0,1
156049,-100,4,1,11,60,0,1
156145,-100,4,1,1,70,0,1
160088,-100,4,2,1,60,0,0
160857,-100,4,2,1,50,0,0
161626,-100,4,2,1,40,0,0
162395,-100,4,2,1,30,0,0
163164,-100,4,2,1,25,0,0
163934,-100,4,2,1,20,0,0
164703,-100,4,2,1,15,0,0
165472,-100,4,2,1,10,0,0
166241,-100,4,2,40,5,0,0

[Colours]
Combo1 : 168,168,168
Combo2 : 206,179,140
Combo3 : 196,138,234
Combo4 : 174,134,134
Combo5 : 66,142,204
Combo6 : 117,216,221
Combo7 : 227,147,94
Combo8 : 214,194,88

[HitObjects]
256,84,88,6,0,P|312:102|368:84,1,120,2|0,0:0|0:0,0:0:0:0:
404,28,664,2,0,L|392:152,1,120,2|0,0:0|0:0,0:0:0:0:
440,196,1241,1,2,0:0:0:0:
396,320,1626,6,0,P|336:320|288:356,1,120,2|0,0:0|0:0,0:0:0:0:
222,354,2203,2,0,P|175:319|116:320,1,120,2|0,0:0|0:0,0:0:0:0:
72,272,2780,1,2,0:0:0:0:
176,192,3164,6,0,B|224:188|256:224|256:224|288:188|336:192,2,180,2|2|2,0:0|0:0|0:0,0:0:0:0:
176,60,4703,2,0,B|224:64|256:28|256:28|288:64|336:60,2,180,2|2|2,0:0|0:0|0:0,0:0:0:0:
64,132,6241,6,0,L|48:256,1,120,2|0,0:0|0:0,0:0:0:0:
108,224,6818,2,0,L|136:344,1,120,2|0,0:0|0:0,0:0:0:0:
200,360,7395,1,2,0:0:0:0:
332,376,7780,6,0,P|388:376|436:332,1,120,2|8,0:0|0:0,0:0:0:0:
492,300,8357,2,0,B|432:300|432:300|388:256,1,120,2|0,0:0|0:0,0:0:0:0:
332,228,8934,1,8,0:0:0:0:
220,160,9318,6,0,B|140:160|140:160|96:160|52:204,2,180,2|2|10,0:0|0:0|0:0,0:0:0:0:
332,228,10857,2,0,B|412:228|412:228|456:228|500:184,2,180,2|2|10,0:0|0:0|0:0,0:0:0:0:
332,96,12395,6,0,L|208:316,1,240,2|2,0:0|0:0,0:0:0:0:
96,360,13549,1,2,0:0:0:0:
24,248,13934,2,0,P|6:192|24:136,1,120,2|2,0:0|0:0,0:0:0:0:
144,80,14703,2,0,P|162:136|144:192,1,120,2|2,0:0|0:0,0:0:0:0:
25,136,15472,6,0,L|270:136,1,240,2|2,0:0|0:0,0:0:0:0:
372,60,16626,1,2,0:0:0:0:
480,136,17011,2,0,L|460:200,2,60,2|0|2,0:0|0:0|0:0,0:0:0:0:
372,60,17780,2,0,L|392:-4,2,60,2|0|2,0:0|0:0|0:0,0:0:0:0:
264,136,18549,6,0,P|245:192|264:248,1,120,2|2,0:0|0:0,0:0:0:0:
384,304,19318,2,0,P|402:248|383:192,1,120,2|2,0:0|0:0,0:0:0:0:
264,136,20088,2,0,L|204:156,1,60,2|0,0:0|0:0,0:0:0:0:
148,124,20472,2,0,L|96:164,1,60,2|0,0:0|0:0,0:0:0:0:
52,116,20857,2,0,L|36:244,1,120,2|2,0:0|0:0,0:0:0:0:
156,296,21626,6,0,P|256:352|356:296,1,240,2|2,0:0|0:0,0:0:0:0:
256,208,22780,1,2,0:0:0:0:
339,107,23164,2,0,P|255:80|172:108,2,180,2|2|2,0:0|0:0|0:0,0:0:0:0:
468,136,24703,6,0,B|446:192|446:192|468:248,1,120,2|2,0:0|0:0,0:0:0:0:
336,264,25472,2,0,B|358:320|358:320|336:376,1,120,2|2,0:0|0:0,0:0:0:0:
216,320,26241,1,2,0:0:0:0:
160,288,26434,1,0,0:0:0:0:
104,256,26626,1,2,0:0:0:0:
224,196,27011,1,2,0:0:0:0:
168,164,27204,1,0,0:0:0:0:
112,132,27396,1,2,0:0:0:0:
4,60,27780,6,0,B|44:20|100:20|100:20|236:20,1,240,2|2,0:0|0:0,0:0:0:0:
348,88,28934,1,2,0:0:0:0:
448,172,29318,2,0,P|448:236|416:288,1,120,2|2,0:0|0:0,0:0:0:0:
319,363,30088,2,0,P|290:311|292:252,1,120,2|2,0:0|0:0,0:0:0:0:
421,283,30857,6,0,L|173:340,1,240,2|2,0:0|0:0,0:0:0:0:
93,243,32011,1,2,0:0:0:0:
200,168,32395,2,0,B|222:143|222:143|222:107,1,60,2|0,0:0|0:0,0:0:0:0:
290,116,32780,2,0,B|290:143|290:143|312:168,1,60,2|0,0:0|0:0,0:0:0:0:
356,216,33164,1,2,0:0:0:0:
256,304,33549,1,2,0:0:0:0:
156,216,33934,5,2,0:0:0:0:
256,192,34126,12,4,37011,0:0:0:0:
256,192,44703,12,2,48164,0:0:0:0:
360,72,49318,6,0,P|256:21|152:72,1,240,6|0,0:0|0:0,0:0:0:0:
256,156,50472,1,10,0:0:0:0:
360,236,50857,2,0,P|324:280|308:344,1,120,2|8,0:0|0:0,0:0:0:0:
256,380,51434,1,2,0:0:0:0:
203,340,51626,2,0,P|189:282|152:236,1,120,0|10,0:0|0:0,0:0:0:0:
56,144,52395,6,0,L|-8:152,2,60,2|0|8,0:0|0:0|0:0,0:0:0:0:
152,56,53164,2,0,L|216:48,2,60,0|2|10,0:0|0:0|0:0,0:0:0:0:
56,144,53934,1,2,0:0:0:0:
24,204,54126,1,0,0:0:0:0:
56,260,54318,1,8,0:0:0:0:
172,320,54703,1,0,0:0:0:0:
204,260,54895,1,0,0:0:0:0:
172,204,55087,1,10,0:0:0:0:
256,100,55472,6,0,B|288:72|328:72|328:72|380:72,1,120,6|8,0:0|0:0,0:0:0:0:
428,40,56049,1,2,0:0:0:0:
428,40,56241,2,0,L|392:160,1,120,0|10,0:0|0:0,0:0:0:0:
436,280,57011,2,0,B|404:308|364:308|364:308|312:308,1,120,2|8,0:0|0:0,0:0:0:0:
264,340,57588,1,2,0:0:0:0:
264,340,57780,2,0,L|300:220,1,120,0|10,0:0|0:0,0:0:0:0:
393,154,58549,5,2,0:0:0:0:
312,48,58934,2,0,B|256:69|256:69|200:48,1,120,8|0,0:0|0:0,0:0:0:0:
119,154,59703,1,10,0:0:0:0:
160,280,60088,2,0,B|216:300|256:349|256:349|296:300|352:280,1,240,2|0,0:0|0:0,0:0:0:0:
393,154,61241,1,10,0:0:0:0:
312,48,61626,6,0,P|257:133|200:48,1,240,2|2,0:0|0:0,0:0:0:0:
119,154,62780,1,2,0:0:0:0:
44,264,63165,2,0,P|26:320|44:376,1,120,2|2,0:0|0:0,0:0:0:0:
108,360,63741,1,0,0:0:0:0:
172,336,63934,2,0,L|288:364,1,120,2|2,0:0|0:0,0:0:0:0:
400,292,64703,6,0,B|448:248|464:192|464:192|448:136|400:92,1,240,2|2,0:0|0:0,0:0:0:0:
316,192,65857,1,2,0:0:0:0:
256,308,66241,2,0,L|256:376,2,60,2|0|2,0:0|0:0|0:0,0:0:0:0:
196,192,67011,2,0,L|116:192,2,60,2|0|2,0:0|0:0|0:0,0:0:0:0:
200,60,67780,6,0,P|256:41|312:60,1,120,2|2,0:0|0:0,0:0:0:0:
430,116,68549,2,0,P|449:60|432:4,2,120,2|2|2,0:0|0:0|0:0,0:0:0:0:
388,164,69511,1,0,0:0:0:0:
340,208,69703,2,0,L|364:280,1,60,2|0,0:0|0:0,0:0:0:0:
396,320,70088,2,0,B|344:296|344:296|280:296,1,120,2|2,0:0|0:0,0:0:0:0:
164,356,70857,6,0,P|52:356|0:248,1,240,2|2,0:0|0:0,0:0:0:0:
80,148,72011,1,2,0:0:0:0:
160,44,72395,2,0,L|352:16,2,180,2|2|2,0:0|0:0|0:0,0:0:0:0:
80,148,73934,6,0,B|58:204|58:204|80:260,1,120,4|0,0:0|0:0,0:0:0:0:
44,316,74511,1,2,0:0:0:0:
8,372,74703,2,0,L|136:352,1,120
256,336,75472,2,0,L|384:316,1,120,2|0,0:0|0:0,0:0:0:0:
421,270,76049,1,2,0:0:0:0:
467,223,76241,1,0,0:0:0:0:
373,129,76627,1,0,0:0:0:0:
279,35,77011,6,0,B|145:35|145:35|89:35|49:75,1,240,2|8,0:0|0:0,0:0:0:0:
148,160,78165,1,8,0:0:0:0:
256,236,78549,2,0,B|304:236|304:236|340:236|368:264,1,120,10|8,0:0|0:0,0:0:0:0:
288,372,79318,2,0,B|240:372|240:372|204:372|176:344,1,120,8|8,0:0|0:0,0:0:0:0:
112,368,79895,1,0,0:0:0:0:
112,368,80088,6,0,L|8:152,1,240,14|8,0:0|0:0,0:0:0:0:
100,60,81242,1,8,0:0:0:0:
200,144,81626,2,0,P|256:163|312:144,1,120,10|8,0:0|0:0,0:0:0:0:
412,60,82395,1,8,0:0:0:0:
504,151,82780,1,8,0:0:0:0:
424,256,83164,6,2,B|400:376|152:424|116:284|104:164|256:44|408:164|396:284|360:424|112:376|88:256,1,840,10|2,0:0|0:3,0:0:0:0:
147,140,86241,6,0,P|256:97|365:140,1,240,6|0,0:0|0:0,0:0:0:0:
424,256,87395,1,10,0:0:0:0:
312,328,87780,2,0,B|256:307|256:307|200:328,1,120,2|8,0:0|0:0,0:0:0:0:
144,292,88357,1,2,0:0:0:0:
96,248,88549,2,0,P|78:192|96:136,1,120,0|10,0:0|0:0,0:0:0:0:
176,32,89318,6,0,L|112:24,2,60,2|0|8,0:0|0:0|0:0,0:0:0:0:
256,136,90088,2,0,L|320:144,2,60,0|2|10,0:0|0:0|0:0,0:0:0:0:
176,240,90857,2,0,L|112:232,2,60,2|0|8,0:0|0:0|0:0,0:0:0:0:
256,344,91626,2,0,L|320:352,2,60,0|2|10,0:0|0:0|0:0,0:0:0:0:
176,240,92395,6,0,B|144:212|104:212|104:212|52:212,1,120,6|8,0:0|0:0,0:0:0:0:
16,256,92972,1,2,0:0:0:0:
16,256,93164,2,0,L|52:136,1,120,0|10,0:0|0:0,0:0:0:0:
152,56,93934,2,0,B|184:56|184:56|216:72,1,60,2|0,0:0|0:0,0:0:0:0:
256,24,94318,2,0,L|320:56,1,60,8|2,0:0|0:0,0:0:0:0:
376,36,94703,2,0,P|357:92|375:148,1,120,0|10,0:0|0:0,0:0:0:0:
416,276,95472,5,2,0:0:0:0:
312,356,95857,2,0,B|256:335|256:335|200:356,1,120,8|0,0:0|0:0,0:0:0:0:
96,276,96626,1,10,0:0:0:0:
164,164,97011,2,0,B|220:144|256:90|256:90|292:144|348:164,1,240,2|0,0:0|0:0,0:0:0:0:
256,260,98164,1,10,0:0:0:0:
164,164,98549,6,0,L|76:76,1,120,6|0,0:0|0:0,0:0:0:0:
12,192,99318,2,0,L|100:280,1,120,0|10,0:0|0:0,0:0:0:0:
192,368,100088,2,0,P|308:368|376:272,1,240,6|0,0:0|0:0,0:0:0:0:
480,192,101241,1,10,0:0:0:0:
376,112,101626,6,0,B|346:112|346:112|316:94,2,60,2|0|8,0:0|0:0|0:0,0:0:0:0:
324,236,102395,2,0,B|353:235|353:235|383:253,2,60,0|2|10,0:0|0:0|0:0,0:0:0:0:
208,296,103164,1,2,0:0:0:0:
148,328,103357,1,0,0:0:0:0:
92,360,103549,1,8,0:0:0:0:
4,264,103934,1,0,0:0:0:0:
64,232,104127,1,2,0:0:0:0:
120,200,104319,1,10,0:0:0:0:
68,80,104703,6,0,L|40:24,2,60,2|0|8,0:0|0:0|0:0,0:0:0:0:
200,96,105472,2,0,B|256:75|256:75|312:96,1,120,0|10,0:0|0:0,0:0:0:0:
444,80,106241,2,0,L|472:24,2,60,2|0|8,0:0|0:0|0:0,0:0:0:0:
392,200,107011,1,0,0:0:0:0:
448,232,107203,1,2,0:0:0:0:
508,264,107396,1,10,0:0:0:0:
420,360,107780,5,2,0:0:0:0:
300,304,108164,2,0,B|180:304|180:304|120:304|72:248,1,240,8|10,0:0|0:0,0:0:0:0:
184,176,109318,2,0,L|56:48,2,180,2|2|10,0:0|0:0|0:0,0:0:0:0:
256,288,110857,6,0,P|348:288|400:220,1,180,2|2,0:0|0:0,0:0:0:0:
448,268,111626,2,0,L|312:132,1,180,10|0,0:0|0:0,0:0:0:0:
268,104,112395,5,0,0:0:0:0:
152,44,112780,2,0,P|92:44|40:80,1,120,0|8,0:0|0:0,0:0:0:0:
20,136,113357,1,0,0:0:0:0:
20,136,113549,2,0,L|80:180,1,60,0|2,0:0|0:0,0:0:0:0:
128,140,113934,6,0,P|128:220|192:300,1,180,2|2,0:0|0:0,0:0:0:0:
164,360,114703,2,0,B|216:332|216:332|292:332,1,120,10|0,0:0|0:0,0:0:0:0:
340,352,115280,1,0,0:0:0:0:
400,376,115472,6,0,B|452:348|472:284|472:284|452:220|400:192,1,240,0|8,0:0|0:0,0:0:0:0:
456,72,116626,1,0,0:0:0:0:
324,64,117011,6,0,B|280:48|256:8|256:8|232:48|188:64,1,180,2|2,0:0|0:0,0:0:0:0:
124,56,117780,2,0,L|216:148,1,120,10|0,0:0|0:0,0:0:0:0:
88,192,118549,6,0,L|180:284,1,120,0|0,0:0|0:0,0:0:0:0:
124,320,119126,1,2,0:0:0:0:
124,320,119318,2,0,P|184:320|240:344,1,120,2|10,0:0|0:0,0:0:0:0:
304,352,119895,1,8,0:0:0:0:
368,368,120088,5,2,0:0:0:0:
424,248,120472,2,0,B|445:192|445:192|424:136,2,120,2|2|2,0:0|0:0|0:0,0:0:0:0:
304,188,121626,2,2,B|184:188|184:188|120:188|80:128,1,240
192,56,122780,1,2,0:3:0:0:
320,56,123164,6,0,L|364:96,1,60,6|0,0:0|0:0,0:0:0:0:
392,36,123549,2,0,L|424:92,1,60,8|2,0:0|0:0,0:0:0:0:
488,84,123934,2,0,L|416:192,1,120,0|10,0:0|0:0,0:0:0:0:
312,260,124703,2,0,B|256:281|256:281|200:260,1,120,2|8,0:0|0:0,0:0:0:0:
148,304,125280,1,2,0:0:0:0:
148,304,125472,2,0,P|166:248|148:192,1,120,0|10,0:0|0:0,0:0:0:0:
256,112,126241,5,2,0:0:0:0:
316,80,126434,1,0,0:0:0:0:
372,48,126626,1,8,0:0:0:0:
476,128,127011,1,0,0:0:0:0:
416,160,127204,1,2,0:0:0:0:
360,192,127396,1,10,0:0:0:0:
256,272,127780,1,2,0:0:0:0:
152,352,128164,2,0,P|64:352|16:224,1,240,8|10,0:0|0:0,0:0:0:0:
100,123,129318,6,0,B|152:123|152:123|188:123|216:91,1,120,6|8,0:0|0:0,0:0:0:0:
256,47,129895,1,2,0:0:0:0:
300,96,130088,2,0,B|324:123|360:123|360:123|412:123,1,120,0|10,0:0|0:0,0:0:0:0:
412,261,130857,2,0,B|360:261|360:261|324:261|296:293,1,120,2|8,0:0|0:0,0:0:0:0:
256,337,131434,1,2,0:0:0:0:
212,288,131627,2,0,B|187:260|151:260|151:260|99:260,1,120,0|10,0:0|0:0,0:0:0:0:
16,360,132395,6,0,L|76:124,1,240,2|0,0:0|0:0,0:0:0:0:
196,68,133549,1,10,0:0:0:0:
324,28,133934,2,0,P|436:28|500:132,1,240,2|0,0:0|0:0,0:0:0:0:
452,248,135087,1,10,0:0:0:0:
388,364,135472,6,0,B|332:340|332:340|264:340,1,120,6|8,0:0|0:0,0:0:0:0:
192,236,136241,2,0,P|174:180|192:124,1,120,0|10,0:0|0:0,0:0:0:0:
308,60,137011,2,0,B|196:60|196:60|180:68|180:68|68:68,1,240,6|0,0:0|0:0,0:0:0:0:
100,196,138164,1,10,0:0:0:0:
148,320,138549,6,0,B|172:388,2,60,2|0|8,0:0|0:0|0:0,0:0:0:0:
100,196,139318,2,0,B|76:128,2,60,0|2|10,0:0|0:0|0:0,0:0:0:0:
200,112,140087,1,2,0:0:0:0:
256,148,140280,1,0,0:0:0:0:
312,112,140472,1,8,0:0:0:0:
412,196,140857,2,0,B|412:244|412:244|448:252|470:282,1,120,0|10,0:0|0:0,0:0:0:0:
372,368,141626,6,0,B|316:396|264:372|256:368|248:364|196:336|140:368,1,240,2|0,0:0|0:0,0:0:0:0:
41,283,142780,1,10,0:0:0:0:
128,184,143164,2,0,L|120:108,1,60,2|0,0:0|0:0,0:0:0:0:
180,88,143549,2,0,L|172:12,2,60,8|2|0,0:0|0:0|0:0,0:0:0:0:
256,196,144318,1,10,0:0:0:0:
340,300,144703,6,0,B|280:328|256:382|256:382|232:328|172:300,1,240,2|0,0:0|0:0,0:0:0:0:
256,196,145857,1,10,0:0:0:0:
336,92,146241,2,0,P|256:57|176:92,2,180,2|2|10,0:0|0:0|0:0,0:0:0:0:
256,196,147780,6,0,L|16:196,1,240,6|0,0:0|0:0,0:0:0:0:
112,288,148934,1,10,0:0:0:0:
224,356,149319,2,0,B|284:356|284:356|348:384,1,120,2|8,0:0|0:0,0:0:0:0:
396,348,149896,1,2,0:0:0:0:
444,304,150088,2,0,P|462:248|444:192,1,120,0|10,0:0|0:0,0:0:0:0:
336,112,150857,6,0,B|336:84|336:84|352:52,2,60,2|0|8,0:0|0:0|0:0,0:0:0:0:
256,220,151627,2,0,L|256:280,2,60,0|2|10,0:0|0:0|0:0,0:0:0:0:
176,112,152395,2,0,B|176:84|176:84|160:52,2,60,2|0|8,0:0|0:0|0:0,0:0:0:0:
68,191,153164,2,0,P|50:247|68:304,1,120,0|10,0:0|0:0,0:0:0:0:
188,248,153934,6,0,B|288:248|288:248|356:248|404:320,1,240,2|0,0:0|0:0,0:0:0:0:
448,192,155088,1,10,0:0:0:0:
402,66,155472,2,0,B|356:136|288:136|288:136|188:136,1,240,2|0,0:0|0:0,0:0:0:0:
68,192,156626,1,10,0:0:0:0:
188,248,157011,6,0,L|256:248,2,60,2|0|8,0:0|0:0|0:0,0:0:0:0:
68,192,157780,2,0,L|0:192,2,60,0|2|10,0:0|0:0|0:0,0:0:0:0:
188,136,158549,2,0,B|248:136|248:136|292:92,1,120,2|8,0:0|0:0,0:0:0:0:
396,16,159318,6,0,P|424:16|456:32,1,60,0|2,0:0|0:0,0:0:0:0:
440,96,159703,2,0,P|466:106|490:132,1,60,10|2,0:0|0:0,0:0:0:0:
472,192,160088,1,4,0:0:0:0:
256,192,160280,12,0,166241,0:0:0:0:
