osu file format v9

[General]
AudioFilename: bloominosu.mp3
AudioLeadIn: 0
PreviewTime: 28386
Countdown: 1
SampleSet: Normal
StackLeniency: 0.7
Mode: 0
LetterboxInBreaks: 1

[Editor]
Bookmarks: 23083,28386,30540,43964,54902,65509,75784,76115,86391,96997
DistanceSpacing: 0.9
BeatDivisor: 4
GridSize: 4

[Metadata]
Title:Bloomin osu!
Artist:Neo@lex
Creator:iMuffin
Version:STARTPOWER
Source:
Tags:LunaticMara ztrot Pasonia WeegeevsWeegee

[Difficulty]
HPDrainRate:7
CircleSize:5
OverallDifficulty:7
ApproachRate:8
SliderMultiplier:1.5
SliderTickRate:1

[Events]
//Background and Video events
Video,0,"Bloomin' osu!_xvid.avi"
0,0,"BloominOsuBG.jpg"
//Break Periods
2,17647,22333
2,44164,54152
//Storyboard Layer 0 (Background)
//Storyboard Layer 1 (Fail)
//Storyboard Layer 2 (Pass)
//Storyboard Layer 3 (Foreground)
//Storyboard Sound Samples
//Background Colour Transformations
3,100,163,162,255

[TimingPoints]
1870,331.455087835598,4,1,0,51,1,0
23083,-100,4,1,0,51,0,1
33026,-100,4,1,0,51,0,0
65509,-100,4,1,0,51,0,1
75784,-100,4,1,0,51,0,0
76115,-100,4,1,0,51,0,1
86391,-100,4,1,0,51,0,0

[HitObjects]
216,160,1869,1,0
352,160,2201,1,0
228,216,2532,1,0
268,272,2698,1,8
332,292,2864,1,0
392,256,3030,1,8
416,192,3195,1,0
336,84,3527,1,2
416,192,3858,1,4
144,196,4521,5,0
96,148,4687,1,4
96,148,4770,1,4
96,148,4853,1,4
224,112,5184,1,0
272,160,5350,1,4
272,160,5433,1,4
272,160,5516,1,4
176,256,5847,1,0
220,308,6013,1,0
176,256,6178,1,0
220,308,6344,1,0
176,256,6510,2,0,B|160:320|72:320|76:240,1,150,2|4
76,120,7173,5,0
212,120,7504,1,0
140,236,7836,2,0,B|140:328,4,75,0|8|0|8|0
212,120,8830,1,2
284,236,9162,1,4
72,324,9824,5,0
76,256,9990,1,4
96,228,10073,1,4
128,216,10156,1,4
180,172,10322,1,0
200,108,10487,1,0
148,64,10653,1,4
116,48,10736,1,4
84,48,10819,1,4
104,112,10985,1,0
100,180,11150,1,0
144,180,11316,1,0
60,180,11482,1,0
180,180,11647,1,0
20,180,11813,1,2
100,292,12145,1,4
220,228,12476,5,0
320,136,12808,1,0
188,100,13139,1,0
140,56,13305,1,8
188,100,13470,1,0
236,148,13636,1,8
284,196,13802,1,0
380,288,14133,1,2
284,196,14465,1,4
44,320,15128,6,0,B|104:364|148:344|160:272,1,150
172,152,15791,2,0,B|216:88,2,75,0|8|0
176,220,16288,1,8
196,284,16454,1,0
260,304,16619,1,0
324,284,16785,1,8
376,240,16951,1,0
416,188,17116,2,0,B|468:160|472:104|416:64,1,150,2|4
156,56,23083,5,0
292,56,23414,1,0
176,124,23746,1,0
244,124,23911,1,8
204,180,24077,1,0
272,180,24243,1,8
236,236,24408,1,0
104,216,24740,1,2
32,104,25071,1,4
300,108,25734,6,0,B|264:56|196:72|168:116,1,150
108,228,26397,1,0
156,276,26563,1,8
204,228,26729,1,0
252,180,26894,1,8
188,164,27060,2,0,B|124:108,3,75,0|8|0|0
131,114,27723,2,0,B|168:48|28:88|40:24,1,150,2|4
404,36,28386,5,0
296,116,28717,1,0
352,240,29049,1,0
268,300,29215,1,8
184,240,29380,1,0
270,173,29546,1,8
268,235,29712,2,0,B|200:291|200:291|124:303,2,150,4|2|4
40,92,31038,5,0
148,172,31369,1,0
16,144,31700,1,0
52,204,31866,1,8
104,248,32032,1,0
172,260,32198,1,8
228,224,32363,1,0
224,156,32529,1,8
164,124,32695,1,0
216,80,32861,1,2
152,64,33026,1,4
416,40,33689,5,0
416,40,33855,2,4,B|472:40,1,37.5
416,40,34104,2,4,B|416:84,1,37.5
356,68,34352,1,0
356,136,34518,1,2
416,168,34684,1,4
392,300,35015,5,0
392,300,35181,1,0
392,300,35264,1,4
328,276,35429,1,0
300,260,35512,1,4
244,220,35678,1,0
196,172,35844,1,2
160,116,36009,1,4
84,72,36340,5,0
148,48,36507,1,4
184,48,36589,1,4
200,112,36755,1,4
176,136,36838,1,4
132,188,37004,1,0
180,236,37170,1,2
232,280,37335,1,4
312,172,37667,5,0
312,172,37832,2,4,B|356:172,1,37.5
316,172,38081,2,4,B|316:224,1,37.5
380,228,38330,1,0
424,176,38496,1,2
404,112,38662,1,4
280,56,38992,5,0
280,56,39158,2,4,B|256:96,1,37.5
280,56,39407,2,4,B|240:32,1,37.5
200,84,39656,1,0
160,140,39822,1,2
188,200,39987,1,4
300,276,40318,5,0
300,276,40484,1,4
300,276,40567,1,4
344,224,40733,1,4
344,224,40815,1,4
332,156,40981,1,0
280,112,41147,1,2
228,156,41313,1,4
196,240,41644,5,0
128,252,41810,1,0
96,240,41893,1,4
96,172,42058,1,4
124,156,42141,1,4
176,116,42307,1,0
224,68,42473,1,2
176,116,42638,1,4
256,192,42970,12,4,43964
192,160,54902,6,0,B|224:108|284:108|320:168,1,150
304,296,55565,2,0,B|268:256|232:308,1,75,0|8
172,296,55897,2,0,B|136:256|100:308,1,75,0|8
56,256,56228,2,0,B|4:224|4:164|64:128,1,150,0|2
168,56,56891,1,4
256,192,57720,12,0,59874
152,44,60206,5,0
284,76,60537,1,0
152,112,60869,1,0
108,164,61034,1,8
116,232,61200,1,0
180,252,61366,1,4
212,192,61531,1,0
284,76,61863,1,2
212,192,62194,1,4
256,192,62857,12,0,64846
148,80,65509,6,0,B|176:32|244:32|272:88,1,150
268,220,66172,1,0
208,252,66338,1,8
148,220,66503,1,0
148,220,66669,1,8
148,220,66835,2,0,B|96:264|32:212|68:148,1,150
64,160,67332,2,0,B|20:108|72:44|136:80,1,150,2|0
188,96,67829,1,4
328,76,68161,5,0
428,168,68492,1,0
292,208,68823,2,0,B|336:168|276:136,6,75
344,252,69984,1,0
280,276,70149,2,0,B|192:316|124:272,1,150,2|4
56,168,70812,5,0
160,84,71144,1,0
284,28,71475,1,0
352,40,71641,1,8
400,88,71807,1,0
376,152,71972,1,8
332,204,72138,2,0,B|296:256|320:320|380:352,1,150
357,337,72635,2,2,B|456:332|484:244,1,150,2|0
424,220,73132,1,4
312,140,73464,6,0,B|304:80|256:44|208:56,1,150
100,136,74127,1,0
60,188,74292,1,8
60,256,74458,1,0
116,292,74624,1,8
172,256,74790,1,0
176,188,74955,1,8
172,120,75121,1,0
176,188,75287,1,0
172,256,75453,2,0,B|128:320|88:316|56:244,1,150,2|4
80,120,76115,6,0,B|132:40|224:52,1,150
252,176,76778,2,0,B|288:136|324:188,1,75,0|8
380,176,77110,2,0,B|344:136|308:188,1,75,0|8
316,244,77441,2,0,B|184:336,2,150,0|2|0
184,212,78436,1,4
208,72,78767,5,0
320,148,79099,1,0
236,256,79430,2,0,B|160:200,2,75,0|8|0
280,204,79927,2,0,B|216:156,4,75,8|0|8|0|0
344,232,80756,2,2,B|444:212|444:120,1,150,2|4
404,36,81419,5,0
296,116,81750,1,0
352,240,82082,1,0
268,300,82248,1,8
184,240,82413,1,0
270,173,82579,1,8
268,235,82745,2,0,B|200:291|200:291|124:303,2,150,0|2|0
168,144,83739,1,4
64,56,84070,5,0
140,168,84402,1,0
276,172,84733,1,0
324,220,84899,1,8
372,268,85065,1,0
416,316,85230,1,8
372,268,85396,1,0
324,220,85562,1,8
276,172,85728,1,0
224,216,85893,1,0
224,216,86059,2,0,B|200:140|240:108|292:112,1,150,2|8
404,36,86722,5,0
296,116,87053,1,0
352,240,87385,1,0
268,300,87551,1,8
184,240,87716,1,0
270,173,87882,1,8
268,235,88048,2,0,B|200:291|200:291|124:303,2,150,0|2|0
204,116,89042,1,4
40,92,89374,5,0
148,172,89705,1,0
16,144,90036,1,0
52,204,90202,1,8
104,248,90368,1,0
172,260,90534,1,8
228,224,90699,1,0
224,156,90865,1,8
164,124,91031,1,0
216,80,91197,1,2
152,64,91362,1,4
372,220,92025,6,0,B|400:172|468:172|496:228,1,150
400,320,92688,1,0
332,308,92854,1,8
272,276,93019,1,0
272,276,93185,1,8
216,236,93351,2,0,B|164:280|100:228|136:164,1,150
132,176,94014,2,0,B|88:124|140:60|204:96,1,150,2|4
328,76,94677,5,0
428,168,95008,1,0
292,208,95340,2,0,B|336:168|276:136,6,75
348,248,96500,1,0
288,276,96665,2,0,B|200:316|132:272,1,150,2|4
