osu file format v14

[General]
AudioFilename: Act Beloved.mp3
AudioLeadIn: 0
PreviewTime: 59312
Countdown: 0
SampleSet: Soft
StackLeniency: 0.2
Mode: 0
LetterboxInBreaks: 0
WidescreenStoryboard: 1

[Editor]
DistanceSpacing: 0.55
BeatDivisor: 4
GridSize: 4
TimelineZoom: 1

[Metadata]
Title:Act Beloved
TitleUnicode:Act Beloved
Artist:Nene Anegasaki feat. Salita
ArtistUnicode:Nene Anegasaki feat. Salita
Creator:Kitami Erika
Version:Hard
Source:BMS
Tags:THE BMS OF FIGHTERS 2011 bof bof2011 void Team NEWラブプラス
BeatmapID:907339
BeatmapSetID:418408

[Difficulty]
HPDrainRate:6
CircleSize:4
OverallDifficulty:5.7
ApproachRate:8.1
SliderMultiplier:1.4
SliderTickRate:2

[Events]
//Background and Video events
0,0,"abcde.jpg",0,0
//Break Periods
//Storyboard Layer 0 (Background)
//Storyboard Layer 1 (Fail)
//Storyboard Layer 2 (Pass)
//Storyboard Layer 3 (Foreground)
//Storyboard Sound Samples

[TimingPoints]
0,458.015267175573,4,2,0,65,1,0
30000,-200,4,2,0,65,0,0
31145,-100,4,2,0,65,0,0
60458,-83.3333333333333,4,2,0,65,0,1
74885,-83.3333333333333,4,2,0,65,0,0
75114,-83.3333333333333,4,2,0,65,0,1
89770,-100,4,2,0,65,0,0
133740,-83.3333333333333,4,2,0,65,0,1
148396,-133.333333333333,4,2,0,65,0,0

[Colours]
Combo1 : 255,255,223
Combo2 : 221,255,221
Combo3 : 223,223,255
Combo4 : 255,234,255

[HitObjects]
96,344,1832,6,0,L|20:340,1,70,2|0,0:0|0:0,0:0:0:0:
156,300,2290,2,0,L|232:296,1,70,0|0,0:0|0:0,0:0:0:0:
416,240,3206,1,0,0:0:0:0:
384,112,3664,6,0,L|460:108,1,70,2|0,0:0|0:0,0:0:0:0:
324,68,4122,2,0,L|248:64,1,70,0|0,0:0|0:0,0:0:0:0:
52,168,4809,2,0,P|32:104|48:40,1,105,0|2,0:0|0:0,0:0:0:0:
140,28,5496,6,0,L|132:100,1,70,2|0,0:0|0:0,0:0:0:0:
164,164,5954,2,0,L|172:236,1,70,0|2,0:0|0:0,0:0:0:0:
372,324,6870,1,0,0:0:0:0:
300,304,7099,2,0,P|388:308|452:288,1,140,2|0,0:0|0:0,0:0:0:0:
468,228,7786,6,0,L|376:216,1,70,0|0,0:0|0:0,0:0:0:0:
268,180,8244,2,0,L|360:168,1,70,2|0,0:0|0:0,0:0:0:0:
464,124,8702,2,0,L|372:112,1,70,2|0,0:0|0:0,0:0:0:0:
336,68,9160,6,0,P|264:80|204:40,1,140,0|2,0:0|0:0,0:0:0:0:
152,4,9847,2,0,P|128:64|156:140,1,140
192,196,10534,2,0,P|192:232|164:276,1,70,2|0,0:0|0:0,0:0:0:0:
144,280,10877,1,0,0:0:0:0:
108,288,10992,6,0,L|272:284,1,140,0|2,0:0|0:0,0:0:0:0:
300,336,11679,2,0,L|464:340,1,140
492,288,12366,2,0,P|504:252|496:216,1,70,2|0,0:0|0:0,0:0:0:0:
460,156,12824,6,0,P|452:104|472:24,2,105,0|0|2,0:0|0:0|0:0,0:0:0:0:
328,220,13969,2,0,P|320:272|340:352,2,105,0|2|0,0:0|0:0|0:0,0:0:0:0:
384,172,14885,5,0,0:0:0:0:
316,140,15114,1,2,0:0:0:0:
296,68,15343,1,0,0:0:0:0:
244,120,15572,5,0,3:2:0:0:
172,140,15801,1,0,3:2:0:0:
100,120,16030,1,10,3:2:0:0:
52,64,16259,1,0,3:2:0:0:
80,132,16488,6,0,P|88:200|56:264,1,140,4|0,3:2|3:2,0:0:0:0:
0,300,17175,2,0,L|160:296,1,140,2|2,0:0|0:0,0:0:0:0:
208,324,17862,2,0,P|228:280|224:248,1,70,0|0,3:0|0:0,0:0:0:0:
300,276,18320,6,0,L|439:279,1,140,2|0,3:2|3:0,0:0:0:0:
484,220,19007,1,2,0:0:0:0:
412,200,19236,1,0,3:0:0:0:
464,148,19465,2,0,P|472:96|464:40,2,105,2|2|2,0:0|0:0|0:0,0:0:0:0:
412,200,20381,5,0,0:0:0:0:
340,180,20610,2,0,L|260:184,1,70,0|2,3:0|0:0,0:0:0:0:
144,132,21068,1,0,0:0:0:0:
216,108,21297,2,0,L|296:104,1,70,2|0,0:0|3:0,0:0:0:0:
444,92,21755,2,0,P|380:88|324:32,1,140,2|2,0:0|0:0,0:0:0:0:
251,47,22442,6,0,L|216:108,1,70,2|0,3:2|0:0,0:0:0:0:
76,128,22900,2,0,L|111:188,1,70,0|2,3:0|0:0,0:0:0:0:
228,224,23358,2,0,L|192:284,1,70,2|0,3:2|0:0,0:0:0:0:
104,324,23816,6,0,P|156:316|228:360,1,140,0|2,3:0|0:0,0:0:0:0:
284,312,24503,2,0,P|336:320|408:276,1,140
464,240,25190,2,0,L|472:152,1,70,2|0,3:2|0:0,0:0:0:0:
444,100,25648,6,0,P|396:72|300:92,1,140,0|2,3:0|3:2,0:0:0:0:
256,128,26335,2,0,L|256:204,2,70,0|0|0,0:0|3:0|0:0,0:0:0:0:
198,81,27022,2,0,P|146:69|102:81,1,70,2|0,3:2|0:0,0:0:0:0:
68,100,27480,6,0,P|56:156|64:208,2,105,0|0|2,3:0|0:0|0:0,0:0:0:0:
252,280,28625,2,0,P|264:224|256:172,2,105,0|2|0,0:0|0:0|3:2,0:0:0:0:
188,316,29541,1,0,0:0:0:0:
116,324,29770,1,0,0:0:0:0:
48,304,30000,6,0,P|32:240|44:164,1,140,2|0,0:0|0:0,0:0:0:0:
84,108,31145,6,0,L|72:48,4,35,4|0|0|0|0,0:0|0:0|0:0|0:0|3:0,0:0:0:0:
140,152,31832,2,0,L|128:212,4,35,0|0|0|0|0,0:0|0:0|3:2|0:0|0:0,0:0:0:0:
428,108,32977,6,0,L|440:48,4,35,0|0|0|0|0,3:2|0:0|0:0|0:0|3:0,0:0:0:0:
372,152,33664,2,0,L|384:212,4,35,0|0|0|0|0,0:0|0:0|3:2|0:0|0:0,0:0:0:0:
88,304,35038,5,0,0:0:0:0:
160,288,35267,1,2,0:0:0:0:
220,332,35496,1,0,0:0:0:0:
292,332,35725,1,2,0:0:0:0:
352,288,35954,2,0,L|344:240,2,35,0|2|0,0:0|0:0|3:0,0:0:0:0:
424,304,36412,1,0,0:0:0:0:
188,172,36870,5,0,0:0:0:0:
215,250,37099,1,2,0:0:0:0:
296,250,37328,1,2,0:0:0:0:
324,172,37557,1,2,0:0:0:0:
256,120,37786,2,0,L|256:79,2,35,0|2|0,0:0|0:0|3:0,0:0:0:0:
256,192,38244,1,2,0:0:0:0:
215,250,38473,6,0,L|172:268,4,35,0|0|0|0|0,3:0|0:0|0:0|0:0|3:0,0:0:0:0:
120,308,39160,2,0,L|76:304,4,35,0|0|0|0|0,0:0|0:0|3:0|0:0|0:0,0:0:0:0:
297,250,40305,6,0,L|340:268,4,35,0|0|0|0|0,3:0|0:0|0:0|0:0|3:0,0:0:0:0:
392,308,40992,2,0,L|436:304,3,35,0|0|0|0,0:0|0:0|3:0|0:0,0:0:0:0:
448,312,41450,6,0,L|456:272,1,35,0|0,0:0|0:0,0:0:0:0:
432,232,41679,2,0,L|424:192,1,35,0|0,3:0|0:0,0:0:0:0:
444,152,41908,2,0,L|452:112,2,35,0|0|0,0:0|3:0|3:0,0:0:0:0:
356,80,42366,5,0,0:0:0:0:
292,44,42595,1,2,0:0:0:0:
220,44,42824,1,0,0:0:0:0:
156,80,43053,1,2,3:2:0:0:
220,116,43282,2,0,L|220:156,2,35,0|2|0,0:0|0:0|3:2,0:0:0:0:
292,116,43740,1,2,0:0:0:0:
324,264,44198,5,0,0:0:0:0:
297,342,44427,1,2,3:2:0:0:
216,342,44656,1,2,0:0:0:0:
188,264,44885,1,2,3:2:0:0:
256,212,45114,2,0,L|256:171,2,35,0|2|0,0:0|0:0|3:2,0:0:0:0:
256,284,45572,1,2,3:2:0:0:
297,342,45801,6,0,L|348:352,4,35,4|0|2|0|8,3:2|0:0|0:0|0:0|3:2,0:0:0:0:
404,312,46488,2,0,L|455:302,3,35,2|0|0|0,0:0|0:0|3:2|0:0,0:0:0:0:
456,312,46946,2,0,P|472:252|468:232,1,70,2|8,0:0|3:2,0:0:0:0:
440,128,47404,1,0,0:0:0:0:
404,200,47633,6,0,L|353:210,4,35,0|0|2|0|8,3:2|0:0|0:0|0:0|3:2,0:0:0:0:
297,170,48320,2,0,L|246:160,3,35,2|0|0|0,0:0|0:0|3:2|0:0,0:0:0:0:
245,170,48778,2,0,P|229:110|233:90,1,70,2|8,0:0|3:2,0:0:0:0:
172,56,49236,2,0,L|92:44,1,70,2|0,0:0|3:2,0:0:0:0:
40,80,49694,6,0,P|32:116|40:156,1,70,2|8,3:2|3:2,3:2:0:0:
108,240,50152,2,0,P|116:204|108:164,1,70,2|0,0:0|3:2,0:0:0:0:
40,280,50610,2,0,L|36:324,2,35,2|0|8,0:0|0:0|3:2,0:0:0:0:
108,316,51068,1,2,0:0:0:0:
252,300,51526,6,0,L|328:296,1,70,2|8,0:0|3:2,0:0:0:0:
448,236,51984,2,0,L|372:232,1,70,2|0,0:0|3:2,0:0:0:0:
340,168,52442,2,0,L|344:128,2,35,2|0|8,0:0|0:0|3:2,0:0:0:0:
304,232,52900,1,0,3:2:0:0:
232,240,53129,6,0,L|184:244,4,35,2|0|2|0|8,3:2|0:0|0:0|0:0|3:2,0:0:0:0:
128,276,53816,2,0,L|80:272,3,35,2|0|0|0,0:0|0:0|3:2|0:0,0:0:0:0:
80,276,54274,2,0,P|72:232|80:196,1,70,2|8,0:0|3:2,0:0:0:0:
112,56,54732,1,0,0:0:0:0:
120,136,54961,6,0,L|168:140,4,35,0|0|2|0|8,3:2|0:0|0:0|0:0|3:2,0:0:0:0:
224,172,55648,2,0,L|272:168,3,35,2|0|0|0,0:0|0:0|3:2|0:0,0:0:0:0:
272,176,56106,2,0,P|280:132|272:96,1,70,2|8,0:0|3:2,0:0:0:0:
236,44,56564,1,2,0:0:0:0:
288,96,56793,6,0,P|336:104|368:92,1,70,0|2,3:2|0:0,0:0:0:0:
480,148,57251,2,0,P|432:156|400:144,1,70,8|2,3:2|0:0,0:0:0:0:
224,240,57938,6,0,P|176:248|144:236,1,70,2|8,0:0|3:2,0:0:0:0:
32,292,58396,1,2,3:2:0:0:
256,192,58625,12,4,60458,0:0:0:0:
416,88,61374,6,0,P|448:168|388:140,1,167.999994873047,0|2,3:2|3:2,0:0:0:0:
336,176,62061,1,0,0:0:0:0:
336,176,62290,6,0,P|312:216|340:328,1,167.999994873047,0|2,3:2|3:2,0:0:0:0:
172,327,63206,2,0,P|205:252|176:176,1,167.999994873047,0|2,3:0|3:2,0:0:0:0:
104,200,63893,1,0,0:0:0:0:
80,204,64007,1,0,0:0:0:0:
56,208,64122,1,0,0:0:0:0:
168,100,64351,6,0,P|172:76|168:56,2,41.9999987182618,0|0|2,0:0|0:0|3:2,0:0:0:0:
268,132,64809,2,0,P|288:124|304:108,2,41.9999987182618,0|0|0,0:0|0:0|3:2,0:0:0:0:
344,208,65267,2,0,P|368:212|388:204,2,41.9999987182618,0|0|2,0:0|0:0|3:2,0:0:0:0:
392,308,65725,6,0,P|408:320|432:320,2,41.9999987182618,0|0|2,0:0|0:0|3:2,0:0:0:0:
312,320,66183,1,0,0:0:0:0:
248,272,66412,2,0,L|216:356,1,83.9999974365235,2|0,3:2|0:0,0:0:0:0:
144,336,66870,5,0,0:0:0:0:
136,316,66984,1,0,0:0:0:0:
136,292,67099,1,0,0:0:0:0:
144,272,67213,1,0,0:0:0:0:
116,284,67328,2,0,P|76:260|60:220,1,83.9999974365235,2|0,3:2|3:2,0:0:0:0:
140,208,67786,6,0,B|132:168|172:136|172:136|112:132|100:96,1,167.999994873047,0|2,3:0|3:2,0:0:0:0:
372,208,68702,2,0,B|380:168|340:136|340:136|400:132|412:96,1,167.999994873047,0|2,3:0|3:2,0:0:0:0:
408,76,69274,1,0,0:0:0:0:
392,60,69389,1,0,0:0:0:0:
372,52,69503,1,0,0:0:0:0:
348,52,69618,6,0,B|248:32|280:80|168:60,1,167.999994873047,0|2,3:0|3:2,0:0:0:0:
96,192,70534,2,0,B|196:212|164:164|276:184,1,167.999994873047,0|2,3:0|3:2,0:0:0:0:
324,228,71221,1,0,0:0:0:0:
332,252,71335,1,0,0:0:0:0:
336,276,71450,1,0,0:0:0:0:
384,176,71679,6,0,P|432:168|468:180,2,83.9999974365235,0|2|2,0:0|3:2|0:0,0:0:0:0:
284,300,72595,2,0,P|232:308|200:296,1,83.9999974365235,2|2,0:0|3:2,0:0:0:0:
148,240,73053,1,2,0:0:0:0:
124,164,73282,5,0,3:2:0:0:
124,164,73511,1,2,3:2:0:0:
124,164,73740,2,0,P|194:159|248:120,1,125.999996154785,2|0,3:2|3:0,0:0:0:0:
256,108,74198,1,2,3:2:0:0:
316,156,74427,1,0,3:0:0:0:
348,228,74656,1,2,3:2:0:0:
388,164,74885,1,2,3:2:0:0:
460,132,75114,6,0,B|480:68|460:14|460:14|432:24|424:56,2,167.999994873047,4|8|2,3:2|3:2|3:2,0:0:0:0:
452,212,76259,1,0,0:0:0:0:
476,288,76488,1,0,0:0:0:0:
460,304,76603,1,0,0:0:0:0:
440,316,76717,1,0,0:0:0:0:
416,316,76832,1,0,0:0:0:0:
392,312,76946,6,0,B|328:308|260:332|260:332|268:304|292:296,1,167.999994873047,2|8,3:2|3:2,0:0:0:0:
88,256,77862,2,0,B|152:260|220:236|220:236|212:264|188:272,1,167.999994873047,2|8,3:2|3:2,0:0:0:0:
152,328,78549,1,0,0:0:0:0:
156,352,78664,1,0,0:0:0:0:
168,372,78778,1,0,0:0:0:0:
88,256,79007,6,0,P|80:216|72:204,2,41.9999987182618,0|0|8,0:0|0:0|3:2,0:0:0:0:
184,168,79465,2,0,P|160:152|144:152,2,41.9999987182618,0|0|2,0:0|0:0|3:2,0:0:0:0:
264,72,79923,2,0,P|232:68|212:76,2,41.9999987182618,0|0|8,0:0|0:0|3:2,0:0:0:0:
384,28,80381,6,0,P|416:24|436:32,2,41.9999987182618,0|0|2,0:0|0:0|3:2,0:0:0:0:
340,96,80839,1,0,0:0:0:0:
416,120,81068,2,0,P|396:156|344:176,1,83.9999974365235,8|2,3:2|0:0,0:0:0:0:
312,240,81526,6,0,L|360:252,3,41.9999987182618,0|0|2|0,3:2|0:0|0:0|0:0,0:0:0:0:
372,256,81984,2,0,L|420:244,3,41.9999987182618,10|0|0|0,3:2|0:0|0:0|0:0,0:0:0:0:
432,240,82442,6,0,P|440:288|408:364,2,125.999996154785,6|2|2,3:2|0:0|0:0,0:0:0:0:
460,164,83358,1,0,3:0:0:0:
380,180,83587,5,2,0:0:0:0:
304,160,83816,1,2,3:2:0:0:
256,96,84045,1,2,0:0:0:0:
256,176,84274,6,0,L|256:312,2,125.999996154785,2|2|2,3:2|0:0|0:0,0:0:0:0:
256,96,85190,1,0,3:0:0:0:
208,160,85419,5,2,0:0:0:0:
132,180,85648,1,2,3:2:0:0:
52,164,85877,1,2,0:0:0:0:
76,240,86106,6,0,P|64:272|72:320,1,83.9999974365235,0|2,3:2|0:0,0:0:0:0:
148,348,86564,2,0,L|224:292,1,83.9999974365235,2|2,3:2|0:0,0:0:0:0:
296,298,87022,2,0,L|364:348,1,83.9999974365235,0|2,3:2|0:0,0:0:0:0:
439,320,87480,2,0,P|448:279|436:240,1,83.9999974365235,2|2,3:2|0:0,0:0:0:0:
256,192,87938,12,0,89312,3:0:0:0:
312,292,89770,6,0,L|400:280,2,70,4|0|2,3:2|0:0|3:2,0:0:0:0:
332,212,90458,2,0,L|376:208,1,35,0|2,0:0|0:0,0:0:0:0:
352,132,90801,2,0,L|396:128,1,35,0|2,0:0|0:0,0:0:0:0:
332,212,91145,2,0,L|249:221,1,70,2|0,3:2|0:0,0:0:0:0:
200,292,91603,6,0,L|112:280,2,70,2|0|2,3:2|0:0|3:2,0:0:0:0:
180,212,92291,2,0,L|136:208,1,35,0|2,0:0|0:0,0:0:0:0:
160,132,92634,2,0,L|116:128,1,35,0|2,0:0|0:0,0:0:0:0:
52,100,92977,6,0,P|40:64|44:52,3,35,0|0|2|0,3:2|0:0|0:0|0:0,0:0:0:0:
40,48,93435,2,0,L|128:60,1,70,2|0,3:2|0:0,0:0:0:0:
184,28,93893,1,2,3:2:0:0:
248,76,94122,2,0,L|248:120,1,35,2|0,0:0|0:0,0:0:0:0:
324,88,94465,1,2,0:0:0:0:
400,64,94694,1,2,0:0:0:0:
464,112,94923,2,0,L|464:156,1,35,0|2,0:0|0:0,0:0:0:0:
420,216,95267,6,0,P|416:248|424:272,2,46.6666666666667,2|0|2,3:2|0:0|0:0,0:0:0:0:
340,244,95725,2,0,P|344:276|360:304,2,46.6666666666667,2|0|2,3:2|0:0|0:0,0:0:0:0:
268,288,96183,6,0,P|240:292|224:292,3,35,2|0|0|0,3:2|0:0|0:0|0:0,0:0:0:0:
208,288,96641,2,0,P|180:284|164:284,3,35,2|0|0|0,3:2|0:0|3:2|0:0,0:0:0:0:
152,288,97099,6,0,P|96:296|32:296,2,105,2|0|2,3:2|0:0|0:0,0:0:0:0:
208,232,98015,2,0,P|224:180|224:120,1,105,2|0,3:2|0:0,0:0:0:0:
256,4,98702,1,2,0:0:0:0:
324,48,98931,6,0,P|372:56|432:52,2,105,2|0|2,3:2|0:0|0:0,0:0:0:0:
188,48,99847,2,0,P|140:56|80:52,2,105,2|0|2,3:2|0:0|0:0,0:0:0:0:
172,128,100763,5,0,3:2:0:0:
108,180,100992,2,0,L|64:180,1,35,0|0,0:0|0:0,0:0:0:0:
96,256,101335,1,2,0:0:0:0:
172,284,101564,1,0,0:0:0:0:
236,336,101793,2,0,L|280:336,1,35,0|2,0:0|0:0,0:0:0:0:
348,312,102137,2,0,P|376:304|384:296,3,35,0|0|2|0,3:2|0:0|0:0|0:0,0:0:0:0:
392,288,102595,6,0,P|404:220|396:172,2,105,2|2|2,3:2|3:2|3:2,0:0:0:0:
324,244,103511,2,0,P|328:216|324:196,3,35,2|0|2|0,3:2|0:0|0:0|3:2,0:0:0:0:
320,192,103969,2,0,P|316:164|320:144,2,35,2|0|0,3:2|0:0|3:2,0:0:0:0:
212,92,104427,6,0,P|176:80|124:84,1,70,4|2,0:0|0:0,0:0:0:0:
128,92,104770,2,0,P|120:140|144:176,1,70
144,168,105114,2,0,P|166:175|188:176,1,35
300,92,105343,2,0,P|336:80|388:84,1,70,4|2,0:0|0:0,0:0:0:0:
384,92,105686,2,0,P|392:140|368:176,1,70
368,168,106030,2,0,P|345:175|324:176,1,35
216,172,106259,6,0,P|204:216|220:264,1,70,0|2,0:0|0:0,0:0:0:0:
212,256,106603,2,0,P|216:296|200:332,1,70
188,332,106946,2,0,L|144:336,1,35
104,256,107175,6,0,P|100:216|108:200,3,35
108,204,107633,2,0,P|128:156|128:128,2,46.6666666666667
256,104,108091,6,0,L|256:56,3,35,0|0|2|0,0:0|0:0|0:0|0:0,0:0:0:0:
276,52,108549,2,0,L|316:40,3,35,0|0|2|0,0:0|0:0|0:0|0:0,0:0:0:0:
236,52,109007,2,0,L|196:40,3,35,0|0|2|0,0:0|0:0|0:0|0:0,0:0:0:0:
180,44,109465,2,0,L|124:48,2,46.6666666666667,0|0|2,0:0|0:0|0:0,0:0:0:0:
72,100,109923,6,0,L|76:136,3,35,0|0|2|0,0:0|0:0|0:0|0:0,0:0:0:0:
148,164,110381,2,0,L|144:200,3,35,0|0|2|0,0:0|0:0|0:0|0:0,0:0:0:0:
72,232,110839,6,0,L|76:264,5,23.3333333333333,0|0|0|2|0|0,0:0|0:0|0:0|0:0|0:0|0:0,0:0:0:0:
108,280,111297,2,0,L|104:312,5,23.3333333333333,0|0|0|2|0|0,0:0|0:0|0:0|0:0|0:0|0:0,0:0:0:0:
96,340,111755,6,0,L|208:344,2,105,4|2|2,0:0|0:0|0:0,0:0:0:0:
192,268,112671,2,0,P|204:240|196:192,1,70,0|2,0:0|0:0,0:0:0:0:
308,176,113129,2,0,L|316:220,1,35
380,240,113358,2,0,L|372:284,1,35
416,340,113587,6,0,L|304:344,2,105,0|2|2,0:0|0:0|0:0,0:0:0:0:
468,276,114503,2,0,P|472:244|472:232,3,35,0|0|2|0,0:0|0:0|0:0|0:0,0:0:0:0:
464,212,114961,2,0,P|456:184|444:168,3,35,0|0|2|0,0:0|0:0|0:0|0:0,0:0:0:0:
440,156,115419,6,0,P|432:124|432:104,2,46.6666666666667,2|0|2,0:0|0:0|0:0,0:0:0:0:
364,200,115877,2,0,P|356:232|356:252,2,46.6666666666667,2|0|2,0:0|0:0|0:0,0:0:0:0:
312,132,116335,5,0,0:0:0:0:
304,116,116450,1,0,0:0:0:0:
296,100,116564,1,2,0:0:0:0:
232,160,116793,1,0,0:0:0:0:
224,176,116908,1,0,0:0:0:0:
216,192,117022,1,2,0:0:0:0:
256,192,117251,12,0,118625,0:0:0:0:
184,252,119083,5,4,3:2:0:0:
316,264,119541,1,0,3:0:0:0:
328,132,120000,1,0,3:0:0:0:
196,120,120458,1,0,3:0:0:0:
168,276,120916,5,0,3:0:0:0:
340,280,121374,1,0,3:0:0:0:
344,108,121832,1,0,3:0:0:0:
172,104,122290,1,0,3:0:0:0:
172,304,122748,5,0,3:0:0:0:
368,276,123206,1,0,3:0:0:0:
340,80,123664,1,0,3:0:0:0:
144,108,124122,1,0,3:0:0:0:
192,320,124580,5,0,3:0:0:0:
384,256,125038,1,0,3:0:0:0:
320,64,125496,1,0,3:0:0:0:
128,128,125954,1,0,3:0:0:0:
76,188,126183,1,0,3:0:0:0:
0,192,126412,5,0,3:0:0:0:
176,236,126870,1,0,3:0:0:0:
336,148,127328,1,0,3:0:0:0:
512,192,127786,1,0,3:0:0:0:
444,232,128244,5,0,3:0:0:0:
332,348,128702,1,0,3:0:0:0:
180,348,129160,1,0,3:0:0:0:
68,232,129618,1,0,3:0:0:0:
48,108,129961,6,0,L|64:72,1,35,0|0,3:0|3:0,3:0:0:0:
128,76,130305,1,0,3:0:0:0:
196,76,130534,1,0,3:0:0:0:
368,176,130992,1,0,3:0:0:0:
300,176,131221,1,0,3:0:0:0:
232,176,131450,1,0,3:0:0:0:
164,176,131679,1,0,3:0:0:0:
256,192,131908,12,0,133282,0:0:0:0:
96,332,133740,6,0,P|64:252|124:280,1,167.999994873047,4|8,3:2|3:2,0:0:0:0:
96,88,134656,2,0,P|64:168|124:140,1,167.999994873047,2|8,3:2|3:2,0:0:0:0:
120,164,135228,1,0,0:0:0:0:
140,164,135343,1,2,0:0:0:0:
160,168,135457,1,0,0:0:0:0:
176,176,135572,6,0,P|200:216|172:328,1,167.999994873047,2|8,3:2|3:2,0:0:0:0:
340,327,136488,2,0,P|307:252|336:176,1,167.999994873047,2|8,0:0|3:2,0:0:0:0:
408,200,137175,1,0,0:0:0:0:
432,204,137290,1,0,0:0:0:0:
456,208,137404,1,0,0:0:0:0:
344,100,137633,6,0,P|340:76|344:56,2,41.9999987182618,0|0|8,0:0|0:0|3:2,0:0:0:0:
244,132,138091,2,0,P|224:124|208:108,2,41.9999987182618,0|0|2,0:0|0:0|3:2,0:0:0:0:
168,208,138549,2,0,P|144:212|124:204,2,41.9999987182618,0|0|8,0:0|0:0|3:2,0:0:0:0:
120,308,139007,6,0,P|104:320|80:320,2,41.9999987182618,0|0|2,0:0|0:0|3:2,0:0:0:0:
200,320,139465,1,0,0:0:0:0:
272,284,139694,1,10,3:2:0:0:
280,300,139808,1,0,0:0:0:0:
288,316,139923,1,2,0:0:0:0:
360,292,140152,6,0,P|352:267|372:240,3,41.9999987182618,0|0|2|0,3:2|0:0|0:0|0:0,0:0:0:0:
372,240,140610,2,0,P|400:228|424:240,3,41.9999987182618,10|0|0|0,3:2|0:0|0:0|0:0,0:0:0:0:
432,240,141068,6,0,P|440:288|408:364,2,125.999996154785,6|2|2,3:2|0:0|0:0,0:0:0:0:
460,164,141984,1,0,3:2:0:0:
380,180,142213,5,2,0:0:0:0:
304,160,142442,1,2,3:2:0:0:
256,96,142671,1,2,0:0:0:0:
256,176,142900,6,0,L|256:312,2,125.999996154785,2|2|2,3:2|0:0|0:0,0:0:0:0:
256,96,143816,1,0,3:2:0:0:
208,160,144045,5,2,0:0:0:0:
132,180,144274,1,2,3:2:0:0:
52,164,144503,1,2,0:0:0:0:
76,240,144732,6,0,P|64:272|72:320,1,83.9999974365235,0|2,3:2|0:0,0:0:0:0:
148,348,145190,2,0,L|224:292,1,83.9999974365235,2|2,3:2|0:0,0:0:0:0:
296,298,145648,2,0,L|364:348,1,83.9999974365235,0|2,3:2|0:0,0:0:0:0:
439,320,146106,2,0,P|448:279|436:240,1,83.9999974365235,2|2,3:2|0:0,0:0:0:0:
256,192,146564,12,4,148396,0:0:0:0:
168,312,150229,5,0,0:0:0:0:
96,284,151145,1,0,0:0:0:0:
56,216,152061,2,0,L|52:188,3,17.500000667572,0|0|0|0,0:0|0:0|0:0|0:0,0:0:0:0:
140,148,154122,5,0,0:0:0:0:
20,92,155725,5,0,0:0:0:0:
132,36,157442,6,0,L|140:20,2,13.125000500679,0|0|2,0:0|0:0|0:0,0:0:0:0:
