osu file format v12

[General]
AudioFilename: Alpha Century 4 o(2jam music).mp3
AudioLeadIn: 0
PreviewTime: 182423
Countdown: 1
SampleSet: Soft
StackLeniency: 0.7
Mode: 0
LetterboxInBreaks: 1
WidescreenStoryboard: 0

[Editor]
Bookmarks: 2752,66388,78024,112933,118752,208933,211843,240933
DistanceSpacing: 1
BeatDivisor: 4
GridSize: 4

[Metadata]
Title:Alpha Century IV
TitleUnicode:Alpha Century IV
Artist:NemesisTheory
ArtistUnicode:NemesisTheory
Creator:NinjaTertel
Version:SHD
Source:O2Jam
Tags:o2mania techno
BeatmapID:327641
BeatmapSetID:129722

[Difficulty]
HPDrainRate:7
CircleSize:4
OverallDifficulty:7
ApproachRate:9
SliderMultiplier:2.5
SliderTickRate:2

[Events]
//Background and Video events
0,0,"BG.jpg",0,0
//Break Periods
2,66588,77424
2,113133,118152
2,209133,211243
//Storyboard Layer 0 (Background)
//Storyboard Layer 1 (Fail)
//Storyboard Layer 2 (Pass)
//Storyboard Layer 3 (Foreground)
//Storyboard Sound Samples
//Background Colour Transformations
3,100,163,162,255

[TimingPoints]
2752,363.636363636364,4,2,0,50,1,0
2752,-200,4,2,0,50,0,0
3843,363.636363636364,4,2,0,50,1,0
3843,-133.333333333333,4,2,0,50,0,0
9661,-133.333333333333,4,1,0,40,0,0
15479,-100,4,1,0,40,0,0
27115,-153.846153846154,4,2,0,50,0,0
32933,-133.333333333333,4,1,0,40,0,0
38752,-133.333333333333,4,2,0,50,0,0
44570,-80,4,1,0,40,0,1
50388,-100,4,1,0,40,0,0
62024,-133.333333333333,4,1,0,40,0,0
88206,-133.333333333333,4,2,0,40,0,0
89479,-100,4,1,0,40,0,1
101297,-117.647058823529,4,2,0,50,0,1
107115,-100,4,2,0,50,0,1
112933,-100,4,2,0,50,0,0
118752,-100,4,1,0,40,0,0
134570,-80,4,1,0,40,0,0
136206,-133.333333333333,4,2,0,50,0,0
136297,-133.333333333333,4,2,0,25,0,0
147843,-100,4,1,0,40,0,0
159479,-86.9565217391304,4,1,0,40,0,1
170752,-86.9565217391304,4,1,0,40,0,0
171115,-76.9230769230769,4,1,0,40,0,1
181297,-66.6666666666667,4,1,0,40,0,1
181661,-72.992700729927,4,1,0,40,0,1
182024,-80,4,1,0,40,0,1
182388,-89.2857142857143,4,1,0,40,0,1
182752,-133.333333333333,4,2,0,50,0,0
191343,-133.333333333333,4,2,0,5,0,0
191433,-133.333333333333,4,2,0,50,0,0
191979,-133.333333333333,4,2,0,5,0,0
192070,-133.333333333333,4,2,0,50,0,0
192933,-100,4,1,0,40,0,0
206024,-100,4,1,0,40,0,0
206115,-100,4,2,0,5,0,0
209024,-133.333333333333,4,2,0,25,0,0
217661,-100,4,2,0,50,0,0
230752,-100,4,1,0,40,0,0
232206,-100,4,2,0,50,0,0
233661,-100,4,1,0,40,0,0
235115,-100,4,2,0,50,0,0
239479,-100,4,3,0,60,0,0
240206,-100,4,1,0,50,0,0

[Colours]
Combo1 : 255,159,207
Combo2 : 252,255,206
Combo3 : 255,128,64
Combo4 : 255,255,72
Combo5 : 255,128,128

[HitObjects]
256,192,2752,12,0,3843,0:0:0:0:
317,192,4024,5,0,0:0:0:0:
196,192,4206,1,2,0:0:0:0:
317,192,4388,2,0,P|364:172|396:124,1,93.7500035762788
195,192,4752,2,0,P|148:212|116:260,1,93.7500035762788,0|2,0:0|0:0,0:0:0:0:
208,284,5115,1,0,0:0:0:0:
112,124,5297,5,0,0:0:0:0:
80,36,5479,1,0,0:0:0:0:
256,96,5661,1,2,0:0:0:0:
432,36,5843,2,0,L|400:124,1,93.7500035762788
340,52,6206,1,0,0:0:0:0:
488,168,6388,2,0,P|444:216|384:216,1,93.7500035762788,2|0,0:0|0:0,0:0:0:0:
404,240,6661,1,2,0:0:0:0:
388,260,6752,5,0,0:0:0:0:
228,160,6933,1,0,0:0:0:0:
328,320,7115,1,2,0:0:0:0:
352,92,7297,2,0,B|332:64|332:64|260:36,1,93.7500035762788
160,292,7661,2,0,B|180:320|180:320|252:348,1,93.7500035762788,0|2,0:0|0:0,0:0:0:0:
288,224,8024,1,0,0:0:0:0:
104,192,8206,5,0,0:0:0:0:
208,48,8388,1,0,0:0:0:0:
208,336,8570,1,2,0:0:0:0:
120,96,8752,2,0,P|74:101|37:130,1,93.7500035762788
120,287,9115,2,0,P|74:282|37:253,1,93.7500035762788,0|2,0:0|0:0,0:0:0:0:
264,172,9479,1,0,0:0:0:0:
308,160,9570,1,2,0:0:0:0:
352,148,9661,6,0,L|400:244,1,93.7500035762788,4|0,0:0|0:0,0:0:0:0:
467,288,10024,2,0,P|429:315|383:324,1,93.7500035762788,8|0,0:2|0:0,0:0:0:0:
44,95,10388,2,0,P|82:68|128:60,1,93.7500035762788
118,152,10752,2,0,L|160:236,1,93.7500035762788,8|0,0:2|0:0,0:0:0:0:
160,236,11024,1,0,0:0:0:0:
160,236,11115,1,0,0:0:0:0:
312,344,11297,1,0,0:0:0:0:
200,40,11479,1,8,0:2:0:0:
352,148,11661,1,0,0:0:0:0:
220,104,11843,5,0,0:0:0:0:
40,216,12024,1,0,0:0:0:0:
292,280,12206,5,8,0:2:0:0:
472,168,12388,1,0,0:0:0:0:
472,168,12479,1,8,0:2:0:0:
472,168,12570,2,0,P|456:224|412:260,1,93.7500035762788
156,124,12933,2,0,L|256:192,1,93.7500035762788,8|0,0:2|0:0,0:0:0:0:
79,248,13297,2,0,P|49:213|40:168,1,93.7500035762788
356,124,13661,2,0,L|256:192,1,93.7500035762788,8|0,0:2|0:0,0:0:0:0:
188,152,14024,5,4,0:0:0:0:
160,124,14388,5,4,0:0:0:0:
132,96,14752,5,4,0:0:0:0:
108,68,15115,5,4,0:0:0:0:
164,32,15206,1,0,0:0:0:0:
216,72,15297,1,0,0:0:0:0:
268,32,15388,1,0,0:0:0:0:
316,72,15479,6,0,L|412:216,1,125,4|0,0:0|0:0,0:0:0:0:
280,332,15843,1,0,0:0:0:0:
180,176,16024,2,0,L|252:176,1,62.5
180,176,16206,2,0,P|156:220|68:248,1,125
72,100,16570,1,0,0:0:0:0:
184,280,16752,5,0,0:0:0:0:
204,304,16843,1,0,0:0:0:0:
220,328,16933,2,0,B|272:308|272:308|352:308,1,125,0|0,0:0|0:0,0:0:0:0:
256,64,17297,1,0,0:0:0:0:
120,192,17479,5,0,0:0:0:0:
144,212,17570,1,0,0:0:0:0:
172,224,17661,2,0,P|232:240|300:228,1,125
390,180,17933,2,0,L|336:144,1,62.5
304,180,18115,1,0,0:0:0:0:
292,228,18206,1,0,0:0:0:0:
300,276,18297,1,0,0:0:0:0:
328,320,18388,6,0,B|372:340|372:340|452:340,1,125
200,292,18752,2,0,B|168:264|168:264|120:268|96:220,1,125
160,192,19024,1,0,0:0:0:0:
99,157,19115,2,0,B|120:116|168:120|168:120|200:92,1,125
440,48,19479,2,0,B|364:48|364:48|320:76,1,125
384,117,19752,6,0,L|416:184,1,62.5
316,176,19933,2,0,L|332:252,1,62.5
233,209,20115,2,0,L|224:280,1,62.5
152,212,20297,2,0,L|92:288,1,62.5
64,212,20479,1,0,0:0:0:0:
36,156,20570,1,0,0:0:0:0:
56,96,20661,1,0,0:0:0:0:
108,64,20752,1,0,0:0:0:0:
168,84,20843,1,0,0:0:0:0:
196,140,20933,2,0,P|224:112|236:73,3,62.5
276,140,21297,6,0,B|316:172|316:172|316:284,1,125,4|0,0:0|0:0,0:0:0:0:
272,292,21570,1,0,0:0:0:0:
236,244,21661,2,0,B|196:212|196:212|196:100,1,125
240,92,21933,1,0,0:0:0:0:
288,128,22024,2,0,B|332:116|332:116|384:132|399:156,1,125
256,192,22297,1,0,0:0:0:0:
224,256,22388,2,0,B|180:268|180:268|128:252|113:228,1,125
112,227,22661,6,0,L|132:168,3,62.5
152,108,23024,2,0,L|175:42,1,62.5
76,332,23297,5,0,0:0:0:0:
76,332,23388,1,0,0:0:0:0:
76,332,23479,1,0,0:0:0:0:
76,332,23570,1,0,0:0:0:0:
76,332,23661,1,0,0:0:0:0:
76,332,23752,1,0,0:0:0:0:
136,308,23843,1,0,0:0:0:0:
180,268,23933,1,0,0:0:0:0:
200,208,24024,1,0,0:0:0:0:
204,144,24115,1,0,0:0:0:0:
184,84,24206,6,0,L|276:52,4,62.5
124,60,24661,1,0,0:0:0:0:
76,100,24752,1,0,0:0:0:0:
56,160,24843,1,0,0:0:0:0:
52,216,24933,1,0,0:0:0:0:
60,272,25024,1,0,0:0:0:0:
76,332,25115,2,0,L|168:332,1,62.5
264,208,25297,2,0,L|201:208,1,62.5
320,332,25479,2,0,L|404:332,1,62.5
356,176,25661,6,0,L|312:100,1,62.5,4|0,0:0|0:0,0:0:0:0:
256,76,25843,2,0,L|300:152,1,62.5
304,224,26024,2,0,L|256:144,1,62.5,4|0,0:0|0:0,0:0:0:0:
184,96,26206,2,0,L|236:184,1,62.5
253,273,26388,2,0,L|204:192,1,62.5,4|0,0:0|0:0,0:0:0:0:
116,120,26570,2,0,L|152:184,1,62.5
200,320,26752,2,0,L|140:220,1,62.5,4|0,0:0|0:0,0:0:0:0:
48,144,26933,2,0,L|88:216,1,62.5
104,344,27115,5,4,0:1:0:0:
408,40,27479,1,2,0:0:0:0:
40,116,27843,1,0,0:0:0:0:
472,268,28206,1,2,0:0:0:0:
304,188,28570,5,0,0:0:0:0:
304,188,28752,1,0,0:0:0:0:
304,188,28933,2,0,P|288:224|296:292,1,81.2499962806703,2|0,0:0|0:0,0:0:0:0:
224,118,29297,2,0,B|232:84|232:84|248:56|288:60,1,81.2499962806703
368,296,29661,2,0,P|340:332|292:352,1,81.2499962806703,2|0,0:0|0:0,0:0:0:0:
264,348,29933,1,2,0:0:0:0:
220,344,30024,5,0,0:0:0:0:
296,40,30388,1,2,0:0:0:0:
428,344,30752,1,0,0:0:0:0:
84,40,31115,1,2,0:0:0:0:
208,196,31479,5,0,0:0:0:0:
208,196,31661,1,0,0:0:0:0:
208,196,31843,2,0,B|168:212|168:212|140:248,1,81.2499962806703,2|0,0:0|0:0,0:0:0:0:
304,188,32206,2,0,B|344:172|344:172|372:136,1,81.2499962806703
280,56,32570,1,2,1:2:0:0:
268,48,32661,1,0,1:0:0:0:
256,44,32752,1,0,1:0:0:0:
244,48,32843,1,0,1:0:0:0:
232,52,32933,6,0,B|184:72|184:72|148:104,1,93.7500035762788,4|0,0:0|0:0,0:0:0:0:
280,332,33297,2,0,B|328:312|328:312|364:280,1,93.7500035762788,8|0,0:2|0:0,0:0:0:0:
172,256,33661,2,0,B|120:256|120:256|80:268,1,93.7500035762788,0|0,0:0|0:0,0:0:0:0:
340,128,34024,2,0,B|391:127|391:127|432:116,1,93.7500035762788,8|0,0:2|0:0,0:0:0:0:
156,284,34388,5,0,0:0:0:0:
232,340,34570,1,0,0:0:0:0:
304,168,34752,2,0,P|252:172|200:216,1,93.7500035762788,8|0,0:2|0:0,0:0:0:0:
248,228,35024,2,0,P|232:256|228:296,1,46.8750017881394
236,316,35206,2,0,P|264:348|292:356,1,46.8750017881394
308,324,35388,2,0,P|340:296|360:268,1,46.8750017881394,0|8,0:0|0:2,0:0:0:0:
364,252,35570,1,0,0:0:0:0:
376,208,35661,2,0,P|380:176|356:144,1,46.8750017881394,0|8,0:0|0:2,0:0:0:0:
340,128,35843,6,0,B|312:96|312:96|284:80|228:92,1,93.7500035762788
172,256,36206,2,0,B|200:288|200:288|228:304|284:292,1,93.7500035762788,8|0,0:2|0:0,0:0:0:0:
224,40,36570,2,0,P|176:92|118:107,1,93.7500035762788
288,344,36933,2,0,P|322:299|374:278,1,93.7500035762788,8|0,0:2|0:0,0:0:0:0:
416,180,37297,5,4,0:0:0:0:
388,136,37388,1,0,0:0:0:0:
360,92,37479,1,0,0:0:0:0:
312,184,37661,5,4,0:0:0:0:
280,144,37752,1,0,0:0:0:0:
252,100,37843,1,0,0:0:0:0:
164,48,38024,5,4,0:0:0:0:
116,64,38115,1,0,0:0:0:0:
92,108,38206,1,0,0:0:0:0:
104,152,38297,1,0,0:0:0:0:
144,184,38388,1,4,0:0:0:0:
180,224,38479,1,0,0:0:0:0:
196,272,38570,1,0,0:0:0:0:
188,324,38661,1,0,0:0:0:0:
188,324,38752,5,4,0:1:0:0:
188,324,38933,1,0,0:0:0:0:
188,324,39115,2,0,L|76:324,1,93.7500035762788,2|0,0:0|0:0,0:0:0:0:
324,324,39479,2,0,L|436:324,1,93.7500035762788
256,48,39843,1,2,0:0:0:0:
256,208,40024,1,0,0:0:0:0:
160,172,40206,6,0,B|132:164|132:164|100:140|96:100,1,93.7500035762788
352,172,40570,2,0,B|380:164|380:164|412:140|416:100,1,93.7500035762788,2|0,0:0|0:0,0:0:0:0:
24,92,40933,2,0,P|48:56|112:36,1,93.7500035762788
418,36,41297,2,0,P|461:53|488:92,1,93.7500035762788,2|0,0:0|0:0,0:0:0:0:
484,144,41570,1,2,0:0:0:0:
464,192,41661,6,0,L|400:264,1,93.7500035762788,4|0,0:1|0:0,0:0:0:0:
256,152,42024,1,2,0:0:0:0:
48,192,42206,2,0,L|110:262,1,93.7500035762788
256,256,42570,2,0,L|256:356,2,93.7500035762788,0|2|0,0:0|0:0|0:0,0:0:0:0:
256,80,43115,5,0,0:0:0:0:
116,304,43297,1,0,0:0:0:0:
396,304,43479,1,2,0:0:0:0:
256,80,43661,2,0,P|292:132|280:184,1,93.7500035762788
196,152,44024,1,0,0:0:0:0:
160,224,44206,6,0,P|184:264|144:312,1,93.7500035762788,2|0,0:0|0:0,0:0:0:0:
128,332,44479,1,2,0:0:0:0:
82,340,44570,2,0,P|42:192|96:48,1,312.5,0|2,0:0|0:2,0:0:0:0:
176,48,45024,1,0,0:0:0:0:
256,48,45115,1,0,0:0:0:0:
336,48,45206,1,0,0:0:0:0:
416,48,45297,2,0,P|469:192|429:340,1,312.5,0|2,0:0|0:2,0:0:0:0:
256,128,45843,5,0,0:0:0:0:
256,204,45933,1,0,0:0:0:0:
320,248,46024,2,0,P|256:284|188:244,2,156.25,0|0|0,0:0|0:0|0:0,0:0:0:0:
256,204,46479,1,0,0:0:0:0:
189,161,46570,2,0,P|254:123|320:160,1,156.25
336,336,46933,1,0,0:0:0:0:
256,204,47115,1,0,0:0:0:0:
176,336,47297,2,0,L|108:280,1,78.125,0|0,0:0|0:0,0:0:0:0:
92,228,47479,5,0,0:0:0:0:
88,164,47570,1,0,0:0:0:0:
108,104,47661,1,0,0:0:0:0:
152,64,47752,1,0,0:0:0:0:
212,40,47843,2,0,P|264:48|292:80,1,78.125
228,108,48024,2,0,P|184:124|160:172,1,78.125
228,180,48206,6,0,L|228:280,4,78.125,0|0|0|0|0,0:0|0:0|0:0|0:0|0:0,0:0:0:0:
292,212,48661,2,0,P|300:174|288:137,1,78.125
168,140,48843,2,0,P|156:176|164:214,1,78.125,0|4,0:0|0:0,0:0:0:0:
188,280,49024,2,0,P|220:284|266:280,1,78.125
332,260,49206,1,0,0:0:0:0:
400,276,49297,1,0,0:0:0:0:
412,344,49388,1,0,0:0:0:0:
344,336,49479,6,0,B|264:336,1,78.125
268,336,49661,2,0,P|248:236|148:296,1,234.375,4|0,0:0|0:0,0:0:0:0:
152,272,50024,2,0,P|240:168|384:240,1,312.5,4|4,0:0|0:0,0:0:0:0:
420,192,50479,5,0,0:0:0:0:
420,192,50570,1,0,0:0:0:0:
420,192,50661,1,0,0:0:0:0:
420,192,50752,2,0,B|380:144|380:144|380:72,1,125
296,124,51024,2,0,L|296:188,1,62.5
212,144,51206,2,0,L|212:68,1,62.5
116,76,51388,2,0,L|12:76,1,62.5
112,152,51570,2,0,L|174:152,1,62.5
112,152,51752,6,0,L|64:232,1,62.5
20,316,52024,1,0,0:0:0:0:
160,280,52206,2,0,L|128:344,1,62.5
204,244,52388,2,0,L|232:184,1,62.5
228,288,52570,2,0,L|196:356,1,62.5
268,256,52752,2,0,L|296:196,1,62.5
292,136,52933,1,0,0:0:0:0:
348,160,53024,1,0,0:0:0:0:
360,220,53115,1,0,0:0:0:0:
336,276,53206,1,0,0:0:0:0:
340,340,53297,6,0,B|420:328|416:224,1,125
468,292,53570,1,0,0:0:0:0:
476,232,53661,2,0,B|460:200|424:196|424:196|424:112,1,125
464,88,53933,1,0,0:0:0:0:
484,148,54024,2,0,B|472:196|424:208|424:208|344:208,1,125
364,152,54297,1,0,0:0:0:0:
424,136,54388,2,0,B|420:92|364:84|364:84|344:44,1,125
256,28,54661,1,0,0:0:0:0:
140,76,54752,6,0,B|168:76|168:76|208:56,1,62.5
92,191,54933,2,0,B|111:172|111:172|125:129,1,62.5,0|0,0:0|0:0,0:0:0:0:
140,307,55115,2,0,B|140:280|140:280|119:240,1,62.5,0|0,0:0|0:0,0:0:0:0:
255,355,55297,2,0,B|236:336|236:336|193:322,1,62.5,0|0,0:0|0:0,0:0:0:0:
371,307,55479,2,0,B|344:308|344:308|304:328,1,62.5,0|0,0:0|0:0,0:0:0:0:
419,192,55661,2,0,B|400:211|400:211|386:254,1,62.5,0|0,0:0|0:0,0:0:0:0:
371,76,55843,2,0,B|372:104|372:104|392:144,1,62.5,0|0,0:0|0:0,0:0:0:0:
256,28,56024,2,0,B|275:47|275:47|318:61,1,62.5,0|0,0:0|0:0,0:0:0:0:
324,124,56206,6,0,B|316:220|192:184,1,125,4|0,0:0|0:0,0:0:0:0:
260,132,56479,1,0,0:0:0:0:
172,220,56570,2,0,B|208:280|308:256,1,125
344,256,56843,1,0,0:0:0:0:
404,240,56933,2,0,B|368:188|368:188|292:168,1,125
256,192,57206,1,0,0:0:0:0:
108,144,57297,2,0,B|144:196|144:196|220:216,1,125
196,276,57570,5,0,0:0:0:0:
180,148,57661,2,0,L|188:68,1,62.5
128,252,57843,1,0,0:0:0:0:
112,124,57933,2,0,L|120:44,1,62.5
56,328,58206,5,0,0:0:0:0:
56,328,58297,1,0,0:0:0:0:
56,328,58388,1,0,0:0:0:0:
56,328,58479,1,0,0:0:0:0:
116,344,58570,1,0,0:0:0:0:
180,336,58661,1,0,0:0:0:0:
236,304,58752,1,0,0:0:0:0:
280,260,58843,1,0,0:0:0:0:
312,208,58933,1,0,0:0:0:0:
332,148,59024,1,0,0:0:0:0:
392,124,59115,6,0,L|444:192,1,62.5
316,88,59297,2,0,L|336:12,1,62.5
256,152,59479,2,0,L|256:240,1,62.5
196,88,59661,2,0,L|180:27,1,62.5
120,124,59843,2,0,L|82:173,1,62.5
108,228,60024,1,0,0:0:0:0:
164,260,60115,1,0,0:0:0:0:
224,272,60206,1,0,0:0:0:0:
288,272,60297,1,0,0:0:0:0:
348,260,60388,1,0,0:0:0:0:
404,228,60479,1,0,0:0:0:0:
396,164,60570,6,0,L|468:164,2,62.5,4|0|0,0:0|0:0|0:0,0:0:0:0:
116,220,60933,6,0,L|44:220,2,62.5,4|0|0,0:0|0:0|0:0,0:0:0:0:
344,108,61297,6,0,L|408:84,2,62.5,4|0|0,0:0|0:0|0:0,0:0:0:0:
168,276,61661,6,0,L|104:300,2,62.5,4|0|0,0:0|0:0|0:0,0:0:0:0:
240,340,62024,6,0,B|320:332|328:264|328:264|416:264,1,187.500007152558
252,260,62570,2,0,L|184:192,2,93.7500035762788,0|10|0,0:0|0:2|0:0,0:0:0:0:
400,192,63115,1,0,0:0:0:0:
100,108,63297,1,0,0:0:0:0:
400,44,63479,2,0,B|284:44,2,93.7500035762788
256,192,64024,1,0,0:0:0:0:
340,332,64206,2,0,L|404:232,1,93.7500035762788,10|0,0:2|0:0,0:0:0:0:
172,332,64570,2,0,L|108:232,1,93.7500035762788
112,72,64933,5,0,2:0:0:0:
100,100,65024,1,0,2:0:0:0:
116,128,65115,1,0,2:0:0:0:
100,156,65206,1,0,2:0:0:0:
116,184,65297,1,0,2:0:0:0:
100,212,65388,1,0,2:0:0:0:
120,236,65479,1,0,2:0:0:0:
104,264,65570,1,0,2:0:0:0:
124,288,65661,5,0,0:2:0:0:
180,256,65752,1,0,0:0:0:0:
236,292,65843,1,0,0:0:0:0:
300,304,65933,1,0,0:0:0:0:
360,272,66024,1,0,0:0:0:0:
400,220,66115,1,0,0:0:0:0:
416,156,66206,1,0,0:0:0:0:
416,92,66297,1,0,0:0:0:0:
416,92,66388,5,4,0:1:0:0:
124,120,78024,6,0,P|220:116|292:64,1,187.500007152558,0|8,0:0|0:0,0:0:0:0:
256,192,78570,1,0,0:0:0:0:
220,319,78752,2,0,P|295:266|388:264,1,187.500007152558,0|8,0:0|0:0,0:0:0:0:
328,336,79297,1,0,0:0:0:0:
328,336,79388,1,0,0:0:0:0:
328,336,79479,6,0,L|288:248,1,93.7500035762788
184,48,79843,2,0,L|224:136,1,93.7500035762788,8|0,0:0|0:0,0:0:0:0:
427,223,80206,2,0,P|424:270|403:311,1,93.7500035762788
83,159,80570,2,0,P|84:113|106:72,1,93.7500035762788,8|0,0:0|0:0,0:0:0:0:
156,72,80843,1,0,0:0:0:0:
204,72,80933,6,0,B|288:112|288:112|382:112,1,187.500007152558,0|8,0:0|0:0,0:0:0:0:
256,192,81479,1,0,0:0:0:0:
129,272,81661,2,0,B|224:272|224:272|308:312,1,187.500007152558,0|8,0:0|0:0,0:0:0:0:
116,40,82206,5,0,0:0:0:0:
68,172,82388,1,0,0:0:0:0:
188,96,82570,1,0,0:0:0:0:
140,228,82752,1,8,0:0:0:0:
260,160,82933,1,0,0:0:0:0:
212,292,83115,1,0,0:0:0:0:
304,264,83297,1,8,0:0:0:0:
328,200,83388,1,0,0:0:0:0:
352,132,83479,1,8,0:0:0:0:
392,236,83661,1,4,0:0:0:0:
416,172,83752,1,0,0:0:0:0:
440,104,83843,6,0,B|384:56|384:56|288:40|276:128,1,187.500007152558,0|8,0:0|0:0,0:0:0:0:
352,160,84388,1,0,0:0:0:0:
264,188,84570,2,0,P|190:137|200:48,1,187.500007152558,0|8,0:0|0:0,0:0:0:0:
280,96,85115,1,0,0:0:0:0:
280,96,85206,1,0,0:0:0:0:
280,96,85297,6,0,L|188:148,1,93.7500035762788
62,228,85661,2,0,L|156:228,1,93.7500035762788,8|0,0:0|0:0,0:0:0:0:
449,156,86024,2,0,L|356:156,1,93.7500035762788
232,288,86388,2,0,L|313:241,1,93.7500035762788,8|0,0:0|0:0,0:0:0:0:
349,192,86661,1,0,0:0:0:0:
349,192,86752,6,0,B|316:148|316:148|264:148,1,93.7500035762788
256,192,87024,1,0,0:0:0:0:
234,236,87115,2,0,B|196:236|196:236|162:192,1,93.7500035762788,8|0,0:0|0:0,0:0:0:0:
172,144,87388,1,0,0:0:0:0:
220,140,87479,2,0,B|220:101|220:101|264:67,1,93.7500035762788
256,192,87752,1,0,0:0:0:0:
292,244,87843,2,0,B|292:282|292:282|248:316,1,93.7500035762788,8|0,0:0|0:0,0:0:0:0:
132,304,88206,5,0,0:0:0:0:
380,80,88388,1,0,0:0:0:0:
132,80,88570,1,0,0:0:0:0:
456,192,88752,1,0,0:0:0:0:
56,192,88933,1,0,0:0:0:0:
380,304,89297,1,0,0:0:0:0:
308,244,89479,6,0,L|256:192,1,46.8750017881394,0|0,0:0|0:0,1:0:0:0:
232,164,89661,2,0,P|216:128|196:224,1,250,4|8,0:0|0:0,0:0:0:0:
244,300,90206,2,0,P|144:224|40:280,1,250
264,196,90752,1,8,0:0:0:0:
388,212,90933,1,0,0:0:0:0:
404,152,91024,1,0,0:0:0:0:
416,96,91115,6,0,B|400:84|400:84|388:48|388:48|356:88|320:116|264:108|264:108|228:148,1,250,4|8,0:0|0:0,0:0:0:0:
140,64,91661,2,0,L|28:140,1,125
64,192,91933,1,0,0:0:0:0:
36,249,92024,2,0,L|140:320,1,125,0|8,0:0|0:0,0:0:0:0:
164,256,92297,1,0,0:0:0:0:
140,192,92388,1,0,0:0:0:0:
164,128,92479,1,0,0:0:0:0:
228,152,92570,2,0,P|320:192|228:232,1,250,4|8,0:0|0:0,0:0:0:0:
230,234,93115,1,0,0:0:0:0:
420,88,93297,6,0,L|456:184,1,62.5
380,140,93479,2,0,L|392:240,1,62.5
368,260,93661,1,8,0:0:0:0:
320,300,93752,1,0,0:0:0:0:
260,320,93843,1,0,0:0:0:0:
200,324,93933,1,0,0:0:0:0:
156,208,94024,2,0,L|200:272,1,62.5
210,146,94206,2,0,L|224:208,1,62.5
301,146,94388,2,0,L|288:208,1,62.5,8|0,0:0|0:0,0:0:0:0:
356,208,94570,2,0,L|320:259,1,62.5
256,260,94752,2,0,L|256:104,2,125,0|8|8,0:0|0:0|0:0,0:0:0:0:
144,80,95297,1,0,0:0:0:0:
368,80,95479,6,0,B|416:96|416:96|456:144|420:200,1,125,4|0,0:0|0:0,0:0:0:0:
312,136,95843,1,8,0:0:0:0:
384,336,96024,2,0,B|312:336|312:336|312:288|284:212|208:192,1,250
180,316,96570,1,8,0:0:0:0:
260,80,96752,1,0,0:0:0:0:
204,104,96843,1,0,0:0:0:0:
148,136,96933,2,0,P|84:180|200:232,1,250,4|8,0:0|0:0,0:0:0:0:
408,84,97479,2,0,L|288:156,1,125
408,300,97843,2,0,L|288:228,1,125,8|8,0:0|0:0,0:0:0:0:
120,64,98206,6,0,L|36:64,2,62.5,0|0|4,0:0|0:0|0:0,0:0:0:0:
104,124,98479,1,0,0:0:0:0:
112,188,98570,1,0,0:0:0:0:
152,236,98661,1,0,0:0:0:0:
184,148,98752,5,8,0:0:0:0:
220,200,98843,1,0,0:0:0:0:
276,228,98933,1,0,0:0:0:0:
340,236,99024,1,0,0:0:0:0:
372,148,99115,5,0,0:0:0:0:
428,180,99206,1,0,0:0:0:0:
448,240,99297,1,0,0:0:0:0:
428,300,99388,1,0,0:0:0:0:
376,332,99479,2,0,L|340:256,1,62.5,8|0,0:0|0:0,0:0:0:0:
276,228,99661,2,0,L|300:168,1,62.5
260,120,99843,2,0,B|184:136|148:248|248:304|248:304|204:356|136:320|120:268,1,375
100,272,100479,1,0,0:0:0:0:
64,244,100570,1,0,0:0:0:0:
260,240,100752,1,0,0:0:0:0:
104,136,100933,1,8,0:0:0:0:
168,312,101115,1,0,0:0:0:0:
228,132,101297,6,0,B|296:180|348:140|348:140|440:140,1,212.500004053116,4|2,0:1|0:0,0:0:0:0:
432,308,101843,2,0,B|349:308|349:308|297:268|229:316,1,212.500004053116
368,224,102388,1,2,0:0:0:0:
252,224,102570,1,0,0:0:0:0:
180,132,102752,2,0,L|121:220,1,106.250002026558
15,220,103115,2,0,L|121:220,1,106.250002026558,2|0,0:0|0:0,0:0:0:0:
172,314,103479,2,0,L|121:220,1,106.250002026558
180,132,103843,2,0,L|121:220,1,106.250002026558,2|0,0:0|0:0,0:0:0:0:
121,219,104115,1,2,0:0:0:0:
121,219,104206,5,0,0:0:0:0:
444,332,104570,1,2,0:0:0:0:
256,52,104933,1,0,0:0:0:0:
68,332,105297,1,2,0:0:0:0:
389,98,105661,2,0,P|409:154|473:178,1,106.250002026558
256,221,106024,2,0,L|256:328,1,106.250002026558,2|0,0:0|0:0,0:0:0:0:
117,98,106388,2,0,P|102:147|58:176,2,106.250002026558,0|0|2,0:0|0:0|0:0,0:0:0:0:
168,84,106843,1,0,0:0:0:0:
220,76,106933,1,0,0:0:0:0:
272,84,107024,1,2,0:0:0:0:
320,96,107115,6,0,B|368:112|376:148|368:192|336:208|336:208|384:304,1,250,4|0,0:1|0:0,0:0:0:0:
128,302,107661,2,0,B|176:208|176:208|144:192|136:148|144:112|192:96,1,250
256,204,108206,1,2,0:0:0:0:
256,80,108388,1,0,0:0:0:0:
340,204,108570,2,0,B|316:300|208:280|208:280|136:360,1,250,0|2,0:0|0:0,0:0:0:0:
355,337,109115,2,0,B|304:280|304:280|196:300|172:204,1,250,0|0,0:0|0:0,0:0:0:0:
256,76,109661,2,0,L|256:236,1,125,2|0,0:0|0:0,0:0:0:0:
432,116,110024,5,0,0:0:0:0:
72,336,110388,1,2,0:0:0:0:
392,248,110752,1,0,0:0:0:0:
168,140,111115,2,0,P|128:124|72:56,1,125,2|0,0:0|0:0,0:0:0:0:
200,52,111479,5,4,1:0:0:0:
224,88,111570,1,0,1:0:0:0:
268,88,111661,1,0,1:0:0:0:
280,132,111752,1,0,1:0:0:0:
324,132,111843,1,4,1:2:0:0:
332,176,111933,1,0,1:0:0:0:
376,180,112024,1,0,1:0:0:0:
384,224,112115,1,0,1:0:0:0:
428,212,112206,5,4,1:1:0:0:
436,220,112388,5,4,1:1:0:0:
440,232,112570,5,4,1:1:0:0:
444,244,112752,5,4,1:1:0:0:
444,256,112933,5,4,1:1:0:0:
88,132,118752,6,0,P|132:200|200:204,1,125
256,288,119115,2,0,P|212:220|144:216,1,125,8|0,0:0|0:0,0:0:0:0:
344,208,119479,2,0,P|400:186|426:131,1,125
341,209,119843,2,0,P|285:231|258:287,1,125,8|0,0:0|0:0,0:0:0:0:
88,132,120206,5,0,0:0:0:0:
340,288,120388,1,0,0:0:0:0:
172,288,120570,1,8,0:0:0:0:
424,132,120752,1,0,0:0:0:0:
144,76,120933,2,0,B|92:24,2,62.5
368,76,121297,2,0,B|424:20,2,62.5,8|0|0,0:0|0:0|0:0,0:0:0:0:
336,76,121570,1,8,0:0:0:0:
304,76,121661,6,0,B|264:52|264:52|168:52,1,125
432,212,122024,1,8,0:0:0:0:
432,212,122206,1,0,0:0:0:0:
208,308,122388,2,0,B|248:332|248:332|326:332,1,125
80,172,122752,1,8,0:0:0:0:
80,172,122933,1,0,0:0:0:0:
204,192,123115,5,4,0:0:0:0:
228,192,123479,5,4,0:0:0:0:
252,192,123843,5,4,0:0:0:0:
276,192,124206,6,0,L|348:192,3,62.5,4|0|0|0,0:0|0:0|0:0|0:0,0:0:0:0:
364,192,124570,6,0,B|416:168|416:168|448:96,2,125
332,248,125024,1,0,0:0:0:0:
292,296,125115,1,0,0:0:0:0:
240,328,125206,1,0,0:0:0:0:
176,336,125297,2,0,P|104:308|72:268,1,125
136,252,125570,1,0,0:0:0:0:
164,196,125661,1,0,0:0:0:0:
144,136,125752,1,0,0:0:0:0:
84,120,125843,1,0,0:0:0:0:
36,160,125933,1,0,0:0:0:0:
40,224,126024,6,0,L|192:148,1,125
348,80,126388,2,0,L|296:144,1,62.5
256,36,126570,2,0,L|256:100,1,62.5
164,80,126752,2,0,L|203:128,1,62.5
256,164,126933,2,0,L|256:248,5,62.5
256,226,127479,6,0,B|324:256|324:256|396:236,1,125
336,192,127752,1,0,0:0:0:0:
296,144,127843,2,0,B|345:130|345:130|413:159,1,125
460,200,128115,1,0,0:0:0:0:
472,260,128206,2,0,B|456:320|456:320|376:352,1,125
336,332,128479,1,0,0:0:0:0:
276,312,128570,2,0,B|208:282|208:282|136:302,1,125
120,244,128843,1,0,0:0:0:0:
88,192,128933,6,0,L|160:192,1,62.5
280,192,129115,2,0,L|217:192,1,62.5,0|0,0:0|0:0,0:0:0:0:
132,124,129297,2,0,L|204:124,1,62.5
324,124,129479,2,0,L|261:124,1,62.5,0|0,0:0|0:0,0:0:0:0:
176,56,129661,2,0,L|248:56,1,62.5
368,56,129843,2,0,L|305:56,1,62.5,0|0,0:0|0:0,0:0:0:0:
212,260,130024,2,0,L|284:260,1,62.5
404,260,130206,2,0,L|341:260,1,62.5,0|0,0:0|0:0,0:0:0:0:
324,320,130388,6,0,L|168:320,1,125
132,284,130661,1,0,0:0:0:0:
200,252,130752,2,0,L|328:252,1,125
408,220,131024,1,0,0:0:0:0:
328,184,131115,2,0,L|204:184,1,125
108,148,131388,1,0,0:0:0:0:
204,116,131479,2,0,L|332:116,1,125
336,52,131752,6,0,P|376:72|392:112,1,62.5,0|0,0:0|0:0,0:0:0:0:
332,116,131933,2,0,L|300:176,1,62.5,0|0,0:0|0:0,0:0:0:0:
180,116,132115,2,0,L|212:176,1,62.5
256,328,132388,5,0,0:0:0:0:
256,328,132479,1,0,0:0:0:0:
256,328,132570,1,0,0:0:0:0:
256,328,132661,1,0,0:0:0:0:
256,328,132752,1,0,0:0:0:0:
256,328,132843,1,0,0:0:0:0:
284,272,132933,1,0,0:0:0:0:
236,232,133024,1,0,0:0:0:0:
284,192,133115,1,0,0:0:0:0:
236,152,133206,1,0,0:0:0:0:
256,92,133297,6,0,L|256:20,3,62.5
204,64,133661,2,0,P|176:40|136:32,1,62.5
148,96,133843,2,0,P|111:89|73:102,1,62.5
112,152,134024,2,0,P|77:164|50:194,1,62.5
112,216,134206,1,0,0:0:0:0:
148,268,134297,1,0,0:0:0:0:
200,304,134388,1,0,0:0:0:0:
256,316,134479,1,0,0:0:0:0:
316,268,134570,6,0,L|356:196,1,78.125
384,140,134752,1,0,0:0:0:0:
412,84,134843,1,0,0:0:0:0:
356,60,134933,1,0,0:0:0:0:
328,116,135024,1,0,0:0:0:0:
297,175,135115,2,0,L|259:243,1,78.125
212,180,135297,2,0,L|174:248,1,78.125
132,116,135479,2,0,B|168:96|168:96|188:60,1,78.125
326,63,135661,2,0,B|344:96|344:96|380:116,1,78.125
380,268,135843,2,0,B|344:288|344:288|326:320,1,78.125
185,320,136024,2,0,B|168:288|168:288|132:268,1,78.125
44,192,136206,5,4,0:1:0:0:
368,108,136388,1,0,0:0:0:0:
144,276,136570,1,0,0:0:0:0:
368,276,136752,1,0,0:0:0:0:
144,108,136933,1,0,0:0:0:0:
256,32,137115,1,0,0:0:0:0:
468,192,137297,1,0,0:0:0:0:
256,351,137479,1,0,0:0:0:0:
180,284,137661,5,0,0:0:0:0:
32,172,137843,1,0,0:0:0:0:
228,252,138024,1,0,0:0:0:0:
160,28,138206,1,0,0:0:0:0:
284,252,138388,1,0,0:0:0:0:
352,28,138570,1,0,0:0:0:0:
480,172,138752,1,0,0:0:0:0:
332,284,138933,1,0,0:0:0:0:
76,308,139115,5,0,0:0:0:0:
172,108,139297,1,0,0:0:0:0:
332,284,139479,1,0,0:0:0:0:
428,84,139661,1,0,0:0:0:0:
104,196,139843,1,0,0:0:0:0:
436,308,140024,1,0,0:0:0:0:
256,32,140206,1,0,0:0:0:0:
76,308,140388,1,0,0:0:0:0:
436,308,140570,5,0,0:0:0:0:
340,108,140752,1,0,0:0:0:0:
180,284,140933,1,0,0:0:0:0:
84,84,141115,1,0,0:0:0:0:
408,196,141297,1,0,0:0:0:0:
76,308,141479,1,0,0:0:0:0:
256,32,141661,1,0,0:0:0:0:
436,308,141843,1,0,0:0:0:0:
192,216,142024,5,0,0:0:0:0:
40,152,142206,1,0,0:0:0:0:
256,192,142388,1,0,0:0:0:0:
256,28,142570,1,0,0:0:0:0:
320,216,142752,1,0,0:0:0:0:
472,152,142933,1,0,0:0:0:0:
256,332,143115,1,0,0:0:0:0:
40,152,143297,1,0,0:0:0:0:
188,324,143479,5,0,0:0:0:0:
256,52,143661,1,0,0:0:0:0:
256,284,143843,1,0,0:0:0:0:
256,52,144024,1,0,0:0:0:0:
324,324,144206,1,0,0:0:0:0:
256,52,144388,1,0,0:0:0:0:
112,160,144570,1,0,0:0:0:0:
400,160,144752,1,0,0:0:0:0:
104,336,144933,5,0,0:0:0:0:
104,96,145115,1,0,0:0:0:0:
204,300,145297,1,0,0:0:0:0:
112,92,145479,1,0,0:0:0:0:
288,240,145661,1,0,0:0:0:0:
120,84,145843,1,0,0:0:0:0:
356,164,146024,1,0,0:0:0:0:
124,76,146206,1,0,0:0:0:0:
408,336,146388,5,0,0:0:0:0:
408,96,146570,1,0,0:0:0:0:
308,300,146752,1,0,0:0:0:0:
400,92,146933,1,0,0:0:0:0:
224,240,147115,1,0,0:0:0:0:
392,84,147297,1,0,0:0:0:0:
156,164,147479,1,0,0:0:0:0:
388,76,147661,1,0,0:0:0:0:
424,196,147843,6,0,P|372:152|316:172,1,125
364,212,148115,1,0,0:0:0:0:
424,196,148206,2,0,P|436:128|390:90,1,125
380,152,148479,1,0,0:0:0:0:
360,210,148570,2,0,P|320:165|336:108,1,125
132,68,148933,1,0,0:0:0:0:
120,96,149024,1,0,0:0:0:0:
108,124,149115,1,0,0:0:0:0:
164,236,149297,6,0,P|236:232|256:164,1,125
196,180,149570,1,0,0:0:0:0:
244,296,149661,2,0,P|300:256|316:196,1,125
300,144,149933,1,0,0:0:0:0:
354,146,150024,2,0,P|319:195|260:192,1,125,0|0,0:0|0:0,0:0:0:0:
132,68,150388,1,0,0:0:0:0:
120,96,150479,1,0,0:0:0:0:
108,124,150570,1,0,0:0:0:0:
176,329,150752,5,0,0:0:0:0:
118,112,150933,1,0,0:0:0:0:
335,54,151115,1,0,0:0:0:0:
393,271,151297,1,0,0:0:0:0:
268,264,151479,2,0,P|208:244|148:176,1,125
136,148,151752,1,0,0:0:0:0:
160,88,151843,1,0,0:0:0:0:
220,68,151933,1,0,0:0:0:0:
272,100,152024,1,0,0:0:0:0:
276,164,152115,1,0,0:0:0:0:
232,208,152206,6,0,L|148:324,1,125
256,88,152570,1,0,0:0:0:0:
353,309,152752,1,0,0:0:0:0:
256,192,152933,1,0,0:0:0:0:
336,144,153115,2,0,P|319:118|315:87,1,62.5
174,146,153297,2,0,P|160:174|135:193,1,62.5
257,285,153479,2,0,P|288:283|317:295,1,62.5
376,268,153661,5,4,0:0:0:0:
128,228,153843,2,0,L|72:256,2,62.5
384,156,154206,2,0,L|440:128,2,62.5
136,116,154570,1,0,0:0:0:0:
316,64,154752,1,0,0:0:0:0:
332,88,154843,1,0,0:0:0:0:
348,112,154933,1,0,0:0:0:0:
448,184,155115,6,0,L|384:320,1,125
336,316,155388,1,0,0:0:0:0:
304,260,155479,2,0,L|357:146,1,125
416,128,155752,1,0,0:0:0:0:
448,184,155843,2,0,L|312:120,1,125
300,160,156115,1,0,0:0:0:0:
256,168,156206,1,0,0:0:0:0:
212,160,156297,1,0,0:0:0:0:
176,132,156388,1,0,0:0:0:0:
256,80,156570,5,0,0:0:0:0:
152,272,156752,1,0,0:0:0:0:
416,176,156933,1,0,0:0:0:0:
96,176,157115,1,0,0:0:0:0:
360,272,157297,1,0,0:0:0:0:
152,272,157479,1,0,0:0:0:0:
196,228,157570,1,0,0:0:0:0:
256,216,157661,1,0,0:0:0:0:
316,228,157752,1,0,0:0:0:0:
360,272,157843,1,0,0:0:0:0:
256,192,158024,12,0,159479,0:0:0:0:
323,292,159661,2,0,L|252:292,1,71.8750013709069
252,292,159843,2,0,P|307:248|321:179,1,143.750002741814
268,132,160115,1,0,0:0:0:0:
247,199,160206,2,0,P|296:249|365:242,1,143.750002741814
276,72,160570,2,0,L|204:72,1,71.8750013709069
132,136,160752,2,0,L|204:136,1,71.8750013709069
132,71,160933,6,0,P|81:120|75:190,1,143.750002741814
123,247,161206,1,0,0:0:0:0:
187,211,161297,2,0,P|255:191|335:219,1,143.750002741814
387,247,161570,1,0,0:0:0:0:
436,190,161661,2,0,P|430:120|379:71,1,143.750002741814
256,264,162024,2,0,L|256:184,3,71.8750013709069
188,164,162388,6,0,L|48:104,1,143.750002741814
324,164,162752,2,0,L|464:104,1,143.750002741814
256,48,163115,2,0,L|256:191,1,143.750002741814
216,252,163388,2,0,L|176:336,1,71.8750013709069
256,336,163570,1,0,0:0:0:0:
326,316,163661,2,0,L|295:251,1,71.8750013709069
256,191,163843,5,0,0:0:0:0:
57,255,164024,1,0,0:0:0:0:
180,86,164206,1,0,0:0:0:0:
180,296,164388,1,0,0:0:0:0:
57,126,164570,2,0,P|128:168|232:156,1,143.750002741814
244,148,164843,1,0,0:0:0:0:
288,112,164933,1,0,0:0:0:0:
272,56,165024,1,0,0:0:0:0:
216,56,165115,1,0,0:0:0:0:
200,112,165206,1,0,0:0:0:0:
244,148,165297,6,0,L|352:252,1,143.750002741814,4|0,0:0|0:0,0:0:0:0:
408,212,165570,1,0,0:0:0:0:
384,148,165661,2,0,L|208:148,1,143.750002741814
180,188,165933,2,0,L|96:188,1,71.8750013709069
256,324,166206,1,0,0:0:0:0:
108,188,166388,2,0,L|48:88,1,71.8750013709069
108,188,166570,2,0,L|48:256,2,71.8750013709069
332,188,166933,6,0,L|404:188,1,71.8750013709069
404,188,167115,2,0,P|376:252|288:240,1,143.750002741814
256,208,167388,1,0,0:0:0:0:
202,256,167479,2,0,P|134:251|108:188,1,143.750002741814
192,72,167843,1,0,0:0:0:0:
256,44,167933,1,0,0:0:0:0:
320,72,168024,1,0,0:0:0:0:
172,276,168206,5,0,0:0:0:0:
340,276,168388,1,0,0:0:0:0:
129,168,168570,1,0,0:0:0:0:
382,168,168752,1,0,0:0:0:0:
256,312,168933,1,0,0:0:0:0:
256,116,169115,2,0,L|256:36,1,71.8750013709069
220,176,169297,2,0,L|160:228,1,71.8750013709069
292,176,169479,2,0,L|352:228,1,71.8750013709069
368,152,169661,5,4,0:0:0:0:
368,152,170024,5,4,0:0:0:0:
368,152,170388,5,4,0:0:0:0:
368,152,170479,1,0,0:0:0:0:
368,152,170570,1,0,0:0:0:0:
368,152,170661,1,0,0:0:0:0:
368,152,170752,1,4,0:0:0:0:
368,152,170843,1,4,0:0:0:0:
368,152,170933,1,4,0:0:0:0:
368,152,171024,1,4,0:0:0:0:
368,152,171115,6,0,B|368:236|368:236|284:308,1,162.499992561341
256,224,171388,1,0,0:0:0:0:
203,287,171479,2,0,B|144:236|144:236|144:152,1,162.499992561341
100,84,171752,1,0,0:0:0:0:
180,76,171843,2,0,B|256:48|256:48|332:76,1,162.499992561341
332,240,172206,1,0,0:0:0:0:
296,312,172297,1,0,0:0:0:0:
216,312,172388,1,0,0:0:0:0:
180,240,172479,1,0,0:0:0:0:
256,208,172570,6,0,B|200:160|200:160|176:72,1,162.499992561341
256,48,172843,1,0,0:0:0:0:
335,74,172933,2,0,B|312:160|312:160|256:208,1,162.499992561341
256,208,173206,2,0,L|256:120,1,81.2499962806703
256,292,173479,1,0,0:0:0:0:
220,132,173661,2,0,L|132:132,1,81.2499962806703
292,132,173843,2,0,L|380:132,1,81.2499962806703
428,192,174024,5,0,0:0:0:0:
168,272,174206,1,0,0:0:0:0:
344,272,174388,1,0,0:0:0:0:
84,192,174570,1,0,0:0:0:0:
256,172,174752,1,0,0:0:0:0:
192,128,174933,2,0,L|124:76,1,81.2499962806703
256,248,175115,2,0,L|256:329,1,81.2499962806703
320,128,175297,2,0,L|384:78,1,81.2499962806703
404,160,175479,5,0,0:0:0:0:
301,344,175661,1,0,0:0:0:0:
116,242,175843,1,0,0:0:0:0:
219,57,176024,1,0,0:0:0:0:
296,200,176206,2,0,P|276:292|176:348,1,162.499992561341
164,348,176479,1,0,0:0:0:0:
100,332,176570,1,0,0:0:0:0:
56,284,176661,1,0,0:0:0:0:
36,224,176752,1,0,0:0:0:0:
48,160,176843,1,0,0:0:0:0:
101,120,176933,6,0,L|197:120,1,81.2499962806703
177,264,177115,2,0,L|258:264,1,81.2499962806703
140,192,177297,2,0,L|221:192,1,81.2499962806703
216,336,177479,2,0,L|297:336,1,81.2499962806703
412,268,177661,6,0,L|316:268,1,81.2499962806703
336,124,177843,2,0,L|254:124,1,81.2499962806703
373,196,178025,2,0,L|291:196,1,81.2499962806703
297,52,178207,2,0,L|215:52,1,81.2499962806703
160,112,178388,6,0,L|116:180,2,81.2499962806703
252,112,178661,2,0,L|216:40,1,81.2499962806703
208,192,178843,2,0,L|288:196,1,81.2499962806703
272,340,179024,1,0,0:0:0:0:
272,340,179115,2,0,L|236:268,1,81.2499962806703
376,208,179297,2,0,L|332:276,1,81.2499962806703
404,316,179479,5,0,0:0:0:0:
440,244,179570,1,0,0:0:0:0:
400,172,179661,1,0,0:0:0:0:
436,100,179752,1,0,0:0:0:0:
356,104,179843,6,0,B|308:104|308:104|260:128,1,81.2499962806703
130,168,180024,2,0,B|212:168,1,81.2499962806703
268,228,180206,1,0,0:0:0:0:
240,304,180297,2,0,B|198:304|198:304|144:328,1,81.2499962806703
80,316,180479,1,0,0:0:0:0:
36,248,180570,2,0,B|66:231|66:231|90:191,1,81.2499962806703
160,232,180752,1,0,0:0:0:0:
232,192,180843,1,0,0:0:0:0:
304,228,180933,2,0,L|361:285,1,81.2499962806703
328,148,181115,2,0,L|270:90,1,81.2499962806703
184,56,181297,6,0,L|52:188,1,187.500007152558,4|0,0:0|0:0,0:0:0:0:
338,317,181661,6,0,L|460:196,1,171.250004834175,4|0,0:0|0:0,0:0:0:0:
200,88,182024,6,0,L|76:212,1,156.25,4|0,0:0|0:0,0:0:0:0:
324,284,182388,6,0,L|424:184,1,140.000001708984,4|0,0:0|0:0,0:0:0:0:
256,192,182752,5,4,0:1:0:0:
190,305,183115,5,2,0:0:0:0:
190,78,183297,1,0,0:0:0:0:
321,305,183479,1,0,0:0:0:0:
321,78,183661,1,0,0:0:0:0:
88,192,183843,1,2,0:0:0:0:
424,192,184024,1,0,0:0:0:0:
318,273,184206,6,0,L|440:332,1,93.7500035762788
174,254,184570,2,0,L|112:376,1,93.7500035762788,2|0,0:0|0:0,0:0:0:0:
193,110,184933,2,0,L|72:48,1,93.7500035762788
337,129,185297,2,0,L|400:8,1,93.7500035762788,2|0,0:0|0:0,0:0:0:0:
324,64,185570,1,2,0:0:0:0:
296,112,185661,6,0,B|264:132|224:128|200:96|200:96|80:120,1,187.500007152558,0|2,0:0|0:0,0:0:0:0:
184,328,186206,1,0,0:0:0:0:
256,56,186388,1,0,0:0:0:0:
328,328,186570,1,0,0:0:0:0:
304,192,186752,2,0,L|368:120,1,93.7500035762788,2|0,0:0|0:0,0:0:0:0:
416,96,187024,1,2,0:0:0:0:
396,148,187115,6,0,B|368:160|368:216|396:240|396:240|396:340,1,187.500007152558,0|2,0:0|0:0,0:0:0:0:
256,264,187661,1,0,0:0:0:0:
440,192,187843,1,0,0:0:0:0:
256,52,188024,1,0,0:0:0:0:
64,192,188206,1,2,0:0:0:0:
256,340,188388,1,2,0:0:0:0:
256,192,188570,1,4,0:1:0:0:
120,136,188752,5,0,0:0:0:0:
108,172,188843,1,0,0:0:0:0:
96,208,188933,1,2,0:0:0:0:
132,96,189115,2,0,L|320:96,1,187.500007152558
356,132,189570,1,0,0:0:0:0:
320,160,189661,2,0,L|220:160,1,93.7500035762788,2|0,0:0|0:0,0:0:0:0:
176,240,190024,5,0,0:0:0:0:
204,52,190206,1,0,0:0:0:0:
428,164,190388,1,2,0:0:0:0:
100,328,190752,1,0,0:0:0:0:
172,156,191115,2,0,P|140:116|56:112,1,140.625005364418,2|0,0:0|0:0,0:0:0:0:
56,112,191479,2,0,B|88:160|156:160|200:144|208:128|220:64|344:80,1,281.250010728836
308,80,192115,2,0,B|296:144|256:192|156:220,1,187.500007152558
172,228,192570,1,2,0:0:0:0:
156,244,192661,1,0,0:0:0:0:
140,260,192752,1,0,0:0:0:0:
124,276,192843,1,0,0:0:0:0:
108,292,192933,5,4,0:0:0:0:
404,292,193115,1,0,0:0:0:0:
136,192,193297,1,4,0:0:0:0:
376,192,193479,1,0,0:0:0:0:
160,92,193661,1,4,0:0:0:0:
344,92,193843,1,0,0:0:0:0:
184,328,194024,1,4,0:0:0:0:
328,328,194206,1,0,0:0:0:0:
256,192,194388,5,4,0:0:0:0:
180,92,194570,2,0,L|48:92,1,125
292,132,194933,1,0,0:0:0:0:
144,152,195115,2,0,L|19:152,1,125
368,232,195479,2,0,L|493:232,1,125
472,280,195752,1,0,0:0:0:0:
440,320,195843,6,0,L|304:352,1,125
72,320,196206,2,0,L|208:352,1,125
256,268,196570,1,0,0:0:0:0:
256,104,196752,1,0,0:0:0:0:
256,308,196933,1,0,0:0:0:0:
256,64,197115,2,0,L|256:168,1,62.5
208,112,197297,2,0,P|256:204|304:112,1,250
144,316,197843,5,0,0:0:0:0:
320,52,198024,1,0,0:0:0:0:
88,204,198206,1,0,0:0:0:0:
212,216,198388,2,0,L|343:263,1,125
376,236,198661,1,0,0:0:0:0:
348,192,198752,6,0,P|421:206|329:250,1,250
128,216,199297,1,0,0:0:0:0:
419,143,199479,1,0,0:0:0:0:
169,71,199661,1,0,0:0:0:0:
377,287,199843,1,0,0:0:0:0:
314,35,200024,1,0,0:0:0:0:
232,323,200206,6,0,B|120:360|68:272|68:272|116:236|104:160|40:152,1,312.5,4|0,0:0|0:0,0:0:0:0:
32,216,200752,2,0,L|304:216,1,250
172,156,201297,2,0,P|160:216|176:284,1,125
372,216,201661,1,0,0:0:0:0:
132,148,201843,1,0,0:0:0:0:
356,124,202024,2,0,L|442:213,1,125
256,316,202388,2,0,L|256:156,1,125
156,124,202752,2,0,L|36:248,1,125
40,164,203024,1,0,0:0:0:0:
72,116,203115,6,0,P|256:216|440:116,1,437.5
400,76,203843,2,0,P|256:128|112:76,1,312.5
92,80,204388,1,0,0:0:0:0:
72,84,204479,1,0,0:0:0:0:
52,88,204570,5,4,0:0:0:0:
104,204,204752,1,0,0:0:0:0:
152,320,204933,1,4,0:0:0:0:
204,112,205115,1,0,0:0:0:0:
256,272,205297,1,4,0:0:0:0:
308,112,205479,1,0,0:0:0:0:
360,220,205661,1,4,0:0:0:0:
412,328,205843,1,0,0:0:0:0:
460,172,206024,1,4,0:0:0:0:
256,192,206115,12,0,208933,0:0:0:0:
316,152,211843,5,0,0:0:0:0:
316,152,212024,1,0,0:0:0:0:
316,152,212206,2,0,L|420:152,1,93.7500035762788,2|0,0:0|0:0,0:0:0:0:
224,184,212570,2,0,L|348:184,1,93.7500035762788
132,216,212933,2,0,L|248:216,1,93.7500035762788,2|0,0:0|0:0,0:0:0:0:
124,316,213297,5,0,0:0:0:0:
124,316,213479,1,0,0:0:0:0:
188,140,213661,2,0,L|104:200,1,93.7500035762788,2|0,0:0|0:0,0:0:0:0:
368,176,214024,2,0,L|444:121,1,93.7500035762788
280,156,214388,2,0,L|280:268,1,93.7500035762788,2|0,0:0|0:0,0:0:0:0:
440,192,214752,5,0,0:0:0:0:
440,192,214934,1,0,0:0:0:0:
440,192,215115,2,0,L|328:192,1,93.7500035762788,2|0,0:0|0:0,0:0:0:0:
72,192,215479,2,0,L|184:192,1,93.7500035762788
412,216,215843,2,0,L|300:216,1,93.7500035762788,2|0,0:0|0:0,0:0:0:0:
212,112,216206,37,0,0:0:0:0:
212,112,216388,1,0,0:0:0:0:
212,112,216570,2,0,L|144:180,1,93.7500035762788,2|0,0:0|0:0,0:0:0:0:
236,196,216933,5,0,1:0:0:0:
272,204,217024,1,0,1:0:0:0:
308,204,217115,1,0,1:0:0:0:
344,196,217206,1,0,1:0:0:0:
380,184,217297,1,0,1:0:0:0:
412,168,217388,1,0,1:0:0:0:
440,144,217479,1,0,1:0:0:0:
464,116,217570,1,0,1:0:0:0:
476,76,217661,6,0,L|332:76,1,125,4|0,0:1|0:0,0:0:0:0:
36,76,218024,2,0,L|180:76,1,125,2|0,0:0|0:0,0:0:0:0:
388,156,218388,1,0,0:0:0:0:
124,156,218570,1,0,0:0:0:0:
388,228,218752,1,2,0:0:0:0:
124,228,218934,1,0,0:0:0:0:
120,352,219115,6,0,L|192:236,1,125
326,245,219479,2,0,L|392:352,1,125,2|0,0:0|0:0,0:0:0:0:
208,148,219843,1,0,0:0:0:0:
142,41,220024,1,0,0:0:0:0:
369,41,220206,1,2,0:0:0:0:
304,148,220387,1,0,0:0:0:0:
284,188,220479,1,2,0:0:0:0:
256,224,220570,6,0,P|216:256|112:264,1,125
168,148,220933,2,0,P|208:116|312:108,1,125,2|0,0:0|0:0,0:0:0:0:
92,344,221297,2,0,P|56:280|80:208,1,125
332,28,221661,2,0,P|368:92|344:164,1,125,2|0,0:0|0:0,0:0:0:0:
152,140,222024,6,0,P|146:79|180:27,1,125,0|0,0:0|0:0,0:0:0:0:
447,232,222388,2,0,P|453:293|420:344,1,125,2|0,0:0|0:0,0:0:0:0:
372,272,222752,1,0,0:0:0:0:
216,96,222933,1,0,0:0:0:0:
296,96,223115,1,2,0:0:0:0:
140,272,223297,1,0,0:0:0:0:
140,272,223388,1,2,0:0:0:0:
140,272,223479,6,0,L|304:272,1,125,4|0,1:1|0:0,0:0:0:0:
372,192,223843,1,2,1:2:0:0:
140,192,224024,1,0,1:2:0:0:
372,112,224207,2,0,L|247:112,1,125,0|0,0:1|0:0,0:0:0:0:
140,112,224570,1,2,1:2:0:0:
372,272,224752,1,0,1:0:0:0:
276,192,224933,5,0,0:0:0:0:
120,296,225115,1,0,0:0:0:0:
248,124,225297,2,0,P|196:168|112:144,1,125,2|0,1:2|1:0,0:0:0:0:
180,104,225570,2,0,L|156:40,1,62.5,0|0,1:0|1:0,0:0:0:0:
224,228,225752,2,0,L|248:296,1,62.5,0|0,1:0|1:0,0:0:0:0:
272,344,225933,1,0,0:0:0:0:
304,288,226024,2,0,L|352:152,1,125,2|0,1:2|0:0,1:0:0:0:
388,140,226297,1,2,1:2:0:0:
408,188,226388,6,0,L|368:308,1,125,0|0,1:0|0:0,0:0:0:0:
256,76,226752,1,2,1:2:0:0:
104,188,226933,2,0,L|143:306,1,125,0|0,1:0|0:0,0:0:0:0:
316,144,227297,1,0,1:0:0:0:
191,144,227479,2,0,L|316:144,1,125,2|0,1:2|1:0,0:0:0:0:
112,212,227843,5,0,1:0:0:0:
68,328,228025,1,0,0:0:0:0:
256,240,228207,1,2,1:2:0:0:
444,328,228388,1,0,1:0:0:0:
400,212,228571,2,0,L|445:95,1,125,0|0,0:0|1:0,0:0:0:0:
66,95,228933,1,2,1:2:0:0:
76,124,229024,1,0,1:2:0:0:
88,152,229115,1,0,1:2:0:0:
100,180,229206,1,2,1:2:0:0:
112,212,229297,5,0,0:0:0:0:
436,124,229661,1,2,0:0:0:0:
76,124,230024,1,0,0:0:0:0:
400,212,230388,1,2,0:0:0:0:
164,292,230752,5,0,0:0:0:0:
164,292,230933,1,0,0:0:0:0:
164,292,231115,2,0,P|200:236|276:216,1,125,0|0,0:0|0:0,0:0:0:0:
296,300,231388,2,0,L|376:300,1,62.5
408,220,231570,2,0,L|324:220,1,62.5
300,136,231752,2,0,P|232:128|172:172,1,125,0|0,0:0|0:0,0:0:0:0:
92,168,232024,2,0,L|92:240,1,62.5,0|0,0:0|0:0,0:0:0:0:
76,324,232206,5,0,0:0:0:0:
436,324,232570,1,2,0:0:0:0:
436,60,232933,1,0,0:0:0:0:
76,60,233297,1,2,0:0:0:0:
320,116,233661,5,0,0:0:0:0:
320,116,233843,1,0,0:0:0:0:
320,116,234024,2,0,P|268:172|192:188,1,125
256,64,234388,2,0,P|308:32|384:64,1,125
272,264,234752,2,0,P|200:276|144:232,1,125
100,60,235115,5,0,0:0:0:0:
412,60,235479,1,2,0:0:0:0:
100,324,235843,1,0,0:0:0:0:
412,324,236206,1,2,0:0:0:0:
40,192,236570,1,0,0:0:0:0:
472,192,236933,1,2,0:0:0:0:
144,264,237297,5,0,0:0:0:0:
368,216,237479,1,0,0:0:0:0:
144,168,237661,1,2,0:0:0:0:
368,120,237843,1,0,0:0:0:0:
56,336,238024,6,0,P|104:280|88:216,1,125,0|0,1:0|0:0,0:0:0:0:
152,44,238388,2,0,P|200:100|184:164,1,125,2|0,1:2|0:0,0:0:0:0:
360,43,238752,2,0,P|316:86|317:146,1,125,0|0,1:0|0:0,0:0:0:0:
456,336,239116,2,0,P|412:293|413:233,1,125,2|0,1:2|0:0,0:0:0:0:
256,100,239479,5,0,0:0:0:0:
319,127,239570,1,0,0:0:0:0:
345,190,239661,1,0,0:0:0:0:
318,253,239752,1,0,0:0:0:0:
256,280,239843,1,0,0:0:0:0:
193,253,239934,1,0,0:0:0:0:
166,189,240025,1,0,0:0:0:0:
192,127,240116,1,0,0:0:0:0:
256,117,240206,5,0,0:0:0:0:
202,138,240297,1,0,0:0:0:0:
182,191,240388,1,0,0:0:0:0:
203,242,240479,1,0,0:0:0:0:
256,263,240570,1,0,0:0:0:0:
306,242,240661,1,0,0:0:0:0:
327,190,240752,1,0,0:0:0:0:
307,138,240843,1,0,0:0:0:0:
256,192,240933,5,4,0:1:0:0:
