osu file format v12

[General]
AudioFilename: Alpha Century 4 o(2jam music).mp3
AudioLeadIn: 0
PreviewTime: 182423
Countdown: 0
SampleSet: Soft
StackLeniency: 0.7
Mode: 0
LetterboxInBreaks: 1
WidescreenStoryboard: 1

[Editor]
Bookmarks: 2752,66388,78024,112933,124570,208933,211843,240933
DistanceSpacing: 1
BeatDivisor: 4
GridSize: 4

[Metadata]
Title:Alpha Century IV
TitleUnicode:Alpha Century IV
Artist:NemesisTheory
ArtistUnicode:NemesisTheory
Creator:NinjaTertel
Version:Insane
Source:O2Jam
Tags:o2mania techno
BeatmapID:352616
BeatmapSetID:129722

[Difficulty]
HPDrainRate:6
CircleSize:4
OverallDifficulty:6
ApproachRate:8
SliderMultiplier:2
SliderTickRate:2

[Events]
//Background and Video events
0,0,"BG.jpg",0,0
//Break Periods
2,66588,77274
2,113133,123820
2,209133,211093
//Storyboard Layer 0 (Background)
//Storyboard Layer 1 (Fail)
//Storyboard Layer 2 (Pass)
//Storyboard Layer 3 (Foreground)
//Storyboard Sound Samples
//Background Colour Transformations
3,100,163,162,255

[TimingPoints]
2752,363.636363636364,4,2,0,50,1,0
2752,-200,4,2,0,50,0,0
3843,363.636363636364,4,2,0,50,1,0
3843,-133.333333333333,4,2,0,50,0,0
9661,-133.333333333333,4,1,0,40,0,0
15479,-100,4,1,0,40,0,0
27115,-153.846153846154,4,2,0,50,0,0
32933,-133.333333333333,4,1,0,40,0,0
38752,-133.333333333333,4,2,0,50,0,0
44570,-80,4,1,0,40,0,1
50388,-100,4,1,0,40,0,0
62024,-133.333333333333,4,1,0,40,0,0
88206,-133.333333333333,4,2,0,40,0,0
89479,-100,4,1,0,40,0,1
101297,-117.647058823529,4,2,0,50,0,1
107115,-100,4,2,0,50,0,1
112933,-100,4,2,0,50,0,0
118752,-100,4,1,0,40,0,0
134570,-80,4,1,0,40,0,0
136206,-133.333333333333,4,2,0,50,0,0
136297,-133.333333333333,4,2,0,25,0,0
147843,-100,4,1,0,40,0,0
159479,-86.9565217391304,4,1,0,40,0,1
170752,-86.9565217391304,4,1,0,40,0,0
171115,-76.9230769230769,4,1,0,40,0,1
181297,-66.6666666666667,4,1,0,40,0,1
181661,-72.992700729927,4,1,0,40,0,1
182024,-80,4,1,0,40,0,1
182388,-89.2857142857143,4,1,0,40,0,1
182752,-133.333333333333,4,2,0,50,0,0
191343,-133.333333333333,4,2,0,5,0,0
191433,-133.333333333333,4,2,0,50,0,0
191979,-133.333333333333,4,2,0,5,0,0
192070,-133.333333333333,4,2,0,50,0,0
192933,-100,4,1,0,40,0,0
206024,-100,4,1,0,40,0,0
206115,-100,4,2,0,5,0,0
209024,-133.333333333333,4,2,0,25,0,0
217661,-100,4,2,0,50,0,0
230752,-100,4,1,0,40,0,0
232206,-100,4,2,0,50,0,0
233661,-100,4,1,0,40,0,0
235115,-100,4,2,0,50,0,0
239479,-100,4,3,0,60,0,0
240206,-100,4,1,0,50,0,0

[Colours]
Combo1 : 255,159,207
Combo2 : 252,255,206
Combo3 : 255,128,64
Combo4 : 255,255,72
Combo5 : 255,128,128

[HitObjects]
256,192,2752,12,0,3843,0:0:0:0:
348,252,4024,5,0,0:0:0:0:
348,252,4206,1,2,0:0:0:0:
300,312,4388,2,0,P|272:336|208:344,1,75.000002861023,0|0,0:0|0:0,0:0:0:0:
172,308,4752,2,0,P|200:284|264:276,1,75.000002861023,0|2,0:0|0:0,0:0:0:0:
236,348,5115,1,0,0:0:0:0:
168,216,5297,5,0,0:0:0:0:
168,216,5479,1,0,0:0:0:0:
116,98,5661,2,0,P|123:134|108:168,1,75.0000028610231,2|0,0:0|0:0,0:0:0:0:
48,124,6024,2,0,P|40:87|56:54,1,75.0000028610231
188,80,6388,2,0,L|116:98,1,75.0000028610231,2|0,0:0|0:0,0:0:0:0:
68,244,6752,5,0,0:0:0:0:
68,244,6934,1,0,0:0:0:0:
136,276,7115,2,0,P|184:292|232:280,1,75.0000028610231,2|0,0:0|0:0,0:0:0:0:
335,253,7479,2,0,P|301:239|264:240,1,75.0000028610231
352,180,7843,2,0,L|336:253,1,75.0000028610231,2|0,0:0|0:0,0:0:0:0:
428,80,8206,5,0,0:0:0:0:
428,80,8388,1,0,0:0:0:0:
376,136,8570,2,0,P|336:156|276:164,1,75.0000028610231,2|0,0:0|0:0,0:0:0:0:
220,72,8933,2,0,P|256:64|296:72,1,75.0000028610231
205,162,9297,2,0,P|169:153|136:136,1,75.0000028610231
72,96,9661,5,0,0:0:0:0:
116,240,10024,1,8,0:2:0:0:
96,312,10206,1,0,0:0:0:0:
168,296,10388,2,0,P|240:304|308:248,1,150.000005722046,0|8,0:0|0:2,0:0:0:0:
232,228,10933,1,0,0:0:0:0:
316,352,11115,2,0,P|368:300|376:216,1,150.000005722046,0|8,0:0|0:2,0:0:0:0:
336,164,11661,1,0,0:0:0:0:
268,76,11843,6,0,L|168:76,1,75.0000028610231
116,160,12206,2,0,L|191:160,1,75.0000028610231,8|0,0:2|0:0,0:0:0:0:
212,192,12479,1,8,0:2:0:0:
196,224,12570,6,0,B|148:280|148:280|60:328,1,150.000005722046,0|8,0:0|0:2,0:0:0:0:
36,256,13115,1,0,0:0:0:0:
96,212,13297,2,0,L|192:340,1,150.000005722046,0|8,0:0|0:2,0:0:0:0:
186,332,13843,1,0,0:0:0:0:
296,312,14024,6,4,P|384:292|424:228,3,150.000005722046
380,140,15297,1,0,0:0:0:0:
364,112,15388,1,0,0:0:0:0:
344,76,15479,6,0,P|296:56|232:84,1,100,4|0,0:0|0:0,0:0:0:0:
288,160,15843,2,0,P|188:192|100:156,1,200
116,256,16388,1,0,0:0:0:0:
208,120,16570,2,0,L|208:220,1,100
240,244,16843,1,0,0:0:0:0:
272,220,16933,6,0,L|272:104,1,100
220,36,17297,2,0,P|136:76|148:180,1,200
44,140,17843,2,0,L|12:36,2,100
68,172,18297,1,0,0:0:0:0:
92,204,18388,6,0,L|128:308,1,100
24,288,18752,2,0,P|112:252|228:260,1,200
260,344,19297,1,0,0:0:0:0:
324,268,19479,2,0,B|358:206|358:206|440:208|452:108,1,200
368,128,20024,1,0,0:0:0:0:
412,268,20206,2,0,B|377:206|377:206|296:208|284:108,1,200
368,128,20752,1,0,0:0:0:0:
232,188,20933,1,0,0:0:0:0:
192,184,21024,1,0,0:0:0:0:
156,168,21115,1,0,0:0:0:0:
120,152,21206,1,0,0:0:0:0:
88,128,21297,6,0,B|124:92|124:92|216:92,1,100,4|0,0:0|0:0,0:0:0:0:
212,104,21570,1,0,0:0:0:0:
248,120,21661,2,0,L|356:120,1,100
380,88,21933,1,0,0:0:0:0:
408,52,22024,2,0,L|284:52,1,100
260,72,22297,1,0,0:0:0:0:
248,120,22388,2,0,L|248:252,1,100
332,276,22752,6,0,P|352:232|412:196,1,100
424,296,23115,2,0,P|360:368|248:320,1,200
236,252,23661,1,0,0:0:0:0:
156,312,23843,2,0,B|112:352|112:352|48:352,1,100
48,320,24115,1,0,0:0:0:0:
32,284,24206,6,0,L|72:180,1,100
192,68,24570,2,0,L|116:269,1,200
112,156,25115,2,0,L|236:156,1,100
256,248,25479,1,0,0:0:0:0:
394,128,25661,6,0,B|340:128|340:128|308:160,1,100,4|0,0:0|0:0,0:0:0:0:
384,224,26024,1,4,0:0:0:0:
292,260,26206,1,0,0:0:0:0:
214,136,26388,2,0,B|268:136|268:136|308:160,1,100,4|0,0:0|0:0,0:0:0:0:
224,216,26752,2,0,L|156:264,2,50,4|0|0,0:0|0:0|0:0,0:0:0:0:
112,188,27115,5,0,0:0:0:0:
112,188,27479,1,2,0:0:0:0:
112,188,27843,1,0,0:0:0:0:
112,188,28206,1,2,0:0:0:0:
196,288,28570,5,0,0:0:0:0:
196,288,28752,1,0,0:0:0:0:
256,336,28933,2,0,L|332:336,1,64.9999970245363,2|0,0:0|0:0,0:0:0:0:
400,188,29297,2,0,L|335:188,1,64.9999970245363
300,260,29661,2,0,L|365:260,1,64.9999970245363,2|0,0:0|0:0,0:0:0:0:
400,188,30024,5,0,0:0:0:0:
400,188,30388,1,2,0:0:0:0:
400,188,30752,1,0,0:0:0:0:
400,188,31115,1,2,0:0:0:0:
316,96,31479,5,0,0:0:0:0:
316,96,31661,1,0,0:0:0:0:
256,48,31842,2,0,L|188:80,1,64.9999970245363,2|0,0:0|0:0,0:0:0:0:
172,172,32206,2,0,L|236:140,1,64.9999970245363
136,116,32570,2,0,L|88:144,3,32.4999985122681,2|0|0|2,0:0|0:0|0:0|0:0,0:0:0:0:
72,176,32933,6,0,P|92:228|128:256,1,75.0000028610231
180,244,33297,2,0,P|170:208|147:178,1,75.0000028610231,8|0,0:2|0:0,0:0:0:0:
104,240,33661,2,0,L|80:328,1,75.0000028610231
148,180,34024,2,0,L|172:92,1,75.0000028610231,8|0,0:2|0:0,0:0:0:0:
236,140,34388,5,0,0:0:0:0:
236,140,34570,2,0,L|320:200,1,75.0000028610231,0|8,0:0|0:2,0:0:0:0:
348,128,34933,2,0,L|348:88,4,37.5000014305115,0|0|0|0|0,0:0|0:0|0:0|0:0|0:0,0:0:0:0:
412,52,35479,2,0,L|456:136,1,75.0000028610231,8|0,0:2|0:0,0:0:0:0:
468,152,35752,1,8,0:2:0:0:
448,184,35843,6,0,L|416:280,1,75.0000028610231
360,216,36206,2,0,L|328:312,1,75.0000028610231,8|0,0:2|0:0,0:0:0:0:
268,316,36570,1,0,0:0:0:0:
192,312,36752,1,0,0:0:0:0:
259,180,36933,2,0,L|236:252,1,75.0000028610231,8|0,0:2|0:0,0:0:0:0:
156,172,37297,5,4,0:0:0:0:
156,172,37661,1,4,0:0:0:0:
156,172,38024,2,4,P|124:140|64:128,1,75.0000028610231,0|4,0:0|0:0,0:0:0:0:
248,144,38388,2,4,P|273:171|307:186,1,75.0000028610231,0|4,0:0|0:0,0:0:0:0:
320,112,38752,5,4,0:1:0:0:
320,112,38933,1,0,0:0:0:0:
384,152,39115,2,0,B|400:176|400:176|416:232,1,75.0000028610231,2|0,0:0|0:0,0:0:0:0:
376,284,39479,2,0,L|268:260,1,75.0000028610231
320,196,39843,1,2,0:0:0:0:
268,336,40024,1,0,0:0:0:0:
208,240,40206,5,0,0:0:0:0:
208,240,40388,1,0,0:0:0:0:
140,272,40570,2,0,B|120:312|120:312|94:328,1,75.0000028610231,2|0,0:0|0:0,0:0:0:0:
108,180,40933,2,0,P|152:156|204:168,1,75.0000028610231
299,184,41297,2,0,P|268:205|232:208,1,75.0000028610231,2|0,0:0|0:0,0:0:0:0:
208,192,41570,1,2,0:0:0:0:
200,164,41661,6,0,L|288:104,1,75.0000028610231,4|0,0:1|0:0,0:0:0:0:
328,88,42024,1,2,0:0:0:0:
376,144,42206,1,0,0:0:0:0:
396,216,42388,2,0,L|324:260,1,75.0000028610231
396,296,42752,2,0,L|459:256,1,75.0000028610231,2|0,0:0|0:0,0:0:0:0:
328,328,43115,5,0,0:0:0:0:
328,328,43297,1,0,0:0:0:0:
256,348,43479,2,0,L|160:368,1,75.0000028610231,2|0,0:0|0:0,0:0:0:0:
136,228,43843,2,0,L|209:212,1,75.0000028610231
196,288,44206,1,2,0:0:0:0:
68,72,44570,6,0,B|132:72|132:72|168:120|168:120|200:72|200:72|320:72,1,250
392,84,45115,1,0,0:0:0:0:
340,200,45297,2,0,B|276:200|276:200|240:152|240:152|208:200|208:200|88:200,1,250
68,128,45843,1,0,0:0:0:0:
100,92,45933,1,0,0:0:0:0:
140,60,46024,2,0,L|396:60,1,250
432,152,46570,1,0,0:0:0:0:
420,200,46661,1,0,0:0:0:0:
404,248,46752,2,0,L|256:248,2,125
404,248,47297,1,0,0:0:0:0:
328,180,47479,6,0,L|344:96,4,62.5
300,160,47933,1,0,0:0:0:0:
256,140,48024,1,0,0:0:0:0:
212,160,48115,1,0,0:0:0:0:
184,180,48206,2,0,L|168:96,4,62.5
228,208,48661,1,0,0:0:0:0:
228,208,48752,1,0,0:0:0:0:
228,208,48843,1,0,0:0:0:0:
228,208,48933,6,0,P|188:256|108:268,1,125,4|0,0:0|0:0,0:0:0:0:
144,172,49297,2,0,P|81:177|16:129,1,125,4|0,0:0|0:0,0:0:0:0:
108,84,49661,2,0,P|170:78|235:126,1,125,4|0,0:0|0:0,0:0:0:0:
228,208,50024,2,0,P|268:256|348:268,1,125,4|0,0:0|0:0,0:0:0:0:
368,244,50297,1,0,0:0:0:0:
392,212,50388,6,0,L|392:92,1,100,4|0,0:0|0:0,0:0:0:0:
480,156,50752,2,0,P|392:200|288:140,1,200
352,76,51297,1,0,0:0:0:0:
264,256,51479,2,0,P|204:184|208:136,1,100
208,144,51752,1,0,0:0:0:0:
224,108,51843,6,0,P|176:148|112:160,1,100
40,156,52206,2,0,P|132:156|256:196,1,200
152,240,52752,1,0,0:0:0:0:
180,88,52933,2,0,P|140:112|108:156,1,100
100,192,53206,1,0,0:0:0:0:
92,232,53297,6,0,L|192:332,1,100
260,336,53661,2,0,B|324:336|344:288|344:288|364:336|432:336,1,200
272,248,54206,1,0,0:0:0:0:
416,244,54388,2,0,P|376:176|300:156,1,150
268,176,54752,5,0,0:0:0:0:
72,168,54933,1,0,0:0:0:0:
160,116,55115,2,0,P|168:196|72:268,1,200
176,304,55661,1,0,0:0:0:0:
72,168,55843,1,0,0:0:0:0:
184,44,56024,1,0,0:0:0:0:
216,64,56115,1,0,0:0:0:0:
252,84,56206,6,0,L|360:84,1,100
388,64,56479,1,0,0:0:0:0:
376,104,56570,2,0,L|376:216,1,100
392,240,56843,1,0,0:0:0:0:
352,228,56933,2,0,L|228:228,1,100
264,188,57206,1,0,0:0:0:0:
300,168,57297,2,0,L|300:308,1,100
212,320,57661,5,0,0:0:0:0:
36,256,57843,1,0,0:0:0:0:
136,256,58024,2,0,P|232:272|328:328,1,200
300,224,58570,1,0,0:0:0:0:
384,276,58752,2,0,B|424:244|424:244|444:192,1,100
448,160,59024,1,0,0:0:0:0:
452,120,59115,6,0,L|340:64,1,100
201,137,59479,2,0,B|256:220|256:220|312:136,1,200
149,75,60024,2,0,L|60:120,2,100
128,172,60570,5,4,0:0:0:0:
128,172,60661,1,0,0:0:0:0:
128,172,60752,1,0,0:0:0:0:
260,240,60933,1,4,0:0:0:0:
260,240,61024,1,0,0:0:0:0:
260,240,61115,1,0,0:0:0:0:
136,324,61297,6,0,B|88:312|88:312|56:268,2,100,4|0|4,0:0|0:0|0:0,0:0:0:0:
176,332,61752,1,0,0:0:0:0:
216,332,61843,1,0,0:0:0:0:
256,324,61933,1,0,0:0:0:0:
284,312,62024,6,0,P|320:248|416:244,1,150.000005722046,4|0,0:0|0:0,0:0:0:0:
368,316,62570,1,0,0:0:0:0:
468,204,62752,1,8,0:2:0:0:
324,164,62933,1,0,0:0:0:0:
256,196,63115,6,0,P|212:216|160:224,1,75.0000028610231
196,148,63479,2,0,P|260:200|360:216,1,150.000005722046
400,220,64024,1,0,0:0:0:0:
352,76,64206,1,8,0:2:0:0:
204,44,64388,1,0,0:0:0:0:
300,104,64570,2,0,P|264:120|212:128,1,75.0000028610231
116,128,64933,6,0,L|56:144,3,37.5000014305115,0|0|0|0,2:0|2:0|2:0|2:0,0:0:0:0:
104,188,65297,2,0,L|44:204,3,37.5000014305115,0|0|0|0,2:0|2:0|2:0|2:0,0:0:0:0:
84,232,65661,5,0,0:0:0:0:
116,256,65752,1,0,0:0:0:0:
152,272,65843,1,0,0:0:0:0:
188,276,65933,1,0,0:0:0:0:
224,276,66024,1,0,0:0:0:0:
260,264,66115,1,0,0:0:0:0:
292,244,66206,1,0,0:0:0:0:
320,220,66297,1,0,0:0:0:0:
344,188,66388,5,4,0:0:0:0:
100,152,78024,6,0,B|160:204|160:204|264:216,1,150.000005722046,0|8,0:0|0:0,0:0:0:0:
216,136,78570,1,0,0:0:0:0:
180,284,78752,2,0,B|256:288|256:288|324:232,1,150.000005722046,0|8,0:0|0:0,0:0:0:0:
332,168,79297,1,0,0:0:0:0:
344,96,79479,6,0,P|296:104|272:128,1,75.0000028610231
256,192,79843,2,0,B|228:208|228:208|160:204,1,75.0000028610231,8|0,0:0|0:0,0:0:0:0:
56,116,80206,1,0,0:0:0:0:
104,56,80388,1,0,0:0:0:0:
132,124,80570,2,0,L|112:228,1,75.0000028610231,8|0,0:0|0:0,0:0:0:0:
112,228,80843,1,8,0:0:0:0:
108,256,80933,6,0,P|152:296|236:268,1,150.000005722046,0|8,0:0|0:0,0:0:0:0:
176,224,81479,1,0,0:0:0:0:
232,348,81661,2,0,P|285:327|300:240,1,150.000005722046,0|8,0:0|0:0,0:0:0:0:
244,196,82206,1,0,0:0:0:0:
312,224,82388,5,0,0:0:0:0:
380,252,82570,1,0,0:0:0:0:
448,280,82752,1,8,0:0:0:0:
448,104,82933,1,0,0:0:0:0:
376,120,83115,1,0,0:0:0:0:
304,136,83297,2,8,L|224:136,1,75.0000028610231,0|8,0:0|0:0,0:0:0:0:
160,108,83661,1,0,0:0:0:0:
136,88,83752,1,8,0:0:0:0:
112,68,83843,6,0,L|52:232,1,150.000005722046,4|8,0:0|0:0,0:0:0:0:
164,140,84388,1,0,0:0:0:0:
84,348,84570,2,0,L|136:208,1,150.000005722046,0|8,0:0|0:0,0:0:0:0:
212,196,85115,6,0,L|312:168,1,75.0000028610231
280,252,85479,2,0,L|372:252,1,75.0000028610231,0|8,0:0|0:0,0:0:0:0:
207,311,85843,2,0,L|280:332,1,75.0000028610231
368,340,86206,1,0,0:0:0:0:
364,172,86388,1,8,0:0:0:0:
392,252,86570,1,0,0:0:0:0:
436,152,86752,6,0,P|395:157|352:180,1,75.0000028610231
320,112,87115,2,0,P|295:144|280:191,1,75.0000028610231,8|0,0:0|0:0,0:0:0:0:
208,164,87479,2,0,P|213:204|236:248,1,75.0000028610231
168,280,87843,2,0,P|200:304|247:319,1,75.0000028610231,8|0,0:0|0:0,0:0:0:0:
316,332,88206,5,0,0:0:0:0:
424,154,88388,1,0,0:0:0:0:
300,124,88570,1,0,0:0:0:0:
433,283,88752,1,0,0:0:0:0:
232,231,88933,1,0,0:0:0:0:
232,230,89297,1,0,0:0:0:0:
232,228,89661,6,0,B|148:220|148:220|112:244|64:240|40:204,1,200,4|8,0:0|0:0,0:0:0:0:
152,104,90206,2,0,B|183:124|187:172|163:208|163:208|171:292,1,200
100,160,90752,1,8,0:0:0:0:
104,308,90933,1,0,0:0:0:0:
232,228,91115,6,0,P|328:220|376:116,1,200,0|8,0:0|0:0,0:0:0:0:
412,44,91661,2,0,P|376:156|388:264,1,200
452,168,92206,1,8,0:0:0:0:
296,292,92388,1,0,0:0:0:0:
396,304,92570,2,0,P|380:240|272:144,1,200,0|8,0:0|0:0,0:0:0:0:
286,149,93115,1,0,0:0:0:0:
192,180,93297,6,0,L|120:192,3,50
140,112,93661,2,0,L|80:104,3,50,8|0|0|0,0:0|0:0|0:0|0:0,0:0:0:0:
128,40,94024,5,0,0:0:0:0:
168,48,94115,1,0,0:0:0:0:
200,68,94206,1,0,0:0:0:0:
212,108,94297,1,0,0:0:0:0:
208,148,94388,1,8,0:0:0:0:
188,184,94479,1,0,0:0:0:0:
196,224,94570,1,0,0:0:0:0:
220,256,94661,1,0,0:0:0:0:
260,268,94752,1,0,0:0:0:0:
352,228,94933,2,0,L|432:164,2,100,8|8|0,0:0|0:0|0:0,0:0:0:0:
256,196,95479,6,0,P|156:160|56:160,1,200,4|8,0:0|0:0,0:0:0:0:
124,236,96024,2,0,P|224:272|324:272,1,200
312,172,96570,1,8,0:0:0:0:
256,88,96752,1,0,0:0:0:0:
184,156,96933,2,0,P|148:256|148:356,1,200,0|8,0:0|0:0,0:0:0:0:
220,280,97479,2,0,P|256:180|256:80,1,200
184,156,98024,2,0,P|248:180|320:176,1,100,8|0,0:0|0:0,0:0:0:0:
324,164,98297,1,0,0:0:0:0:
368,136,98388,6,0,L|424:124,3,50
360,208,98752,2,0,L|420:220,3,50,8|0|0|0,0:0|0:0|0:0|0:0,0:0:0:0:
332,280,99115,2,0,L|272:256,3,50
244,236,99479,1,8,0:0:0:0:
208,200,99570,1,0,0:0:0:0:
184,156,99661,1,0,0:0:0:0:
180,108,99752,1,0,0:0:0:0:
256,192,99843,12,0,100933,0:0:0:0:
280,260,101297,6,0,P|360:232|432:168,1,170.000003242493,4|2,0:1|0:0,0:0:0:0:
352,132,101843,2,0,P|292:168|288:276,1,170.000003242493
352,216,102388,2,0,L|244:160,1,85.0000016212464,2|0,0:0|0:0,0:0:0:0:
196,212,102752,5,0,0:0:0:0:
116,240,102933,1,0,0:0:0:0:
60,176,103115,1,2,0:0:0:0:
84,96,103297,1,0,0:0:0:0:
168,76,103479,2,0,P|164:124|124:168,1,85.0000016212464
60,176,103843,2,0,L|156:152,1,85.0000016212464,2|0,0:0|0:0,0:0:0:0:
224,136,104206,5,0,0:0:0:0:
353,314,104570,1,2,0:0:0:0:
353,93,104933,1,0,0:0:0:0:
223,271,105297,1,2,0:0:0:0:
433,203,105661,2,0,P|392:208|328:192,1,85.0000016212464
324,280,106024,2,0,P|291:254|257:197,1,85.0000016212464,2|0,0:0|0:0,0:0:0:0:
192,260,106388,2,0,P|187:219|203:155,1,85.0000016212464
351,134,106752,2,0,P|310:127|268:132,1,85.0000016212464,2|0,0:0|0:0,0:0:0:0:
188,72,107115,6,0,P|152:156|52:176,1,200,4|2,0:1|0:0,0:0:0:0:
88,80,107661,2,0,L|224:264,1,200
328,312,108206,1,2,0:0:0:0:
184,312,108388,1,0,0:0:0:0:
305,240,108570,2,0,L|424:80,1,200,0|2,0:0|0:0,0:0:0:0:
323,72,109116,2,0,P|364:159|458:176,1,200
424,80,109661,2,0,P|380:52|316:52,1,100,2|0,0:0|0:0,0:0:0:0:
236,68,110024,5,0,0:0:0:0:
144,104,110388,1,2,0:0:0:0:
100,192,110752,1,0,0:0:0:0:
144,284,111115,1,2,0:0:0:0:
240,316,111479,5,0,1:0:0:0:
280,308,111570,1,0,1:0:0:0:
316,292,111661,1,0,1:0:0:0:
344,264,111752,1,0,1:0:0:0:
368,232,111843,1,0,1:0:0:0:
380,196,111933,1,0,1:0:0:0:
384,156,112024,1,0,1:0:0:0:
380,116,112115,1,0,1:0:0:0:
364,80,112206,5,4,1:1:0:0:
328,92,112388,5,4,1:1:0:0:
292,104,112570,5,4,1:1:0:0:
256,116,112752,5,4,1:1:0:0:
220,128,112933,5,4,1:1:0:0:
108,232,124570,6,0,L|204:200,1,100
280,264,124933,2,0,P|204:292|108:232,1,200
204,200,125479,2,0,L|168:332,2,100
228,168,125933,1,0,0:0:0:0:
252,136,126024,6,0,L|280:32,1,100
356,28,126388,2,0,B|344:80|344:80|400:100|416:160|388:212,1,200
324,160,126933,1,0,0:0:0:0:
256,260,127115,1,0,0:0:0:0:
192,156,127297,1,0,0:0:0:0:
156,172,127388,1,0,0:0:0:0:
120,188,127479,6,0,P|80:160|44:100,1,100
120,80,127843,2,0,P|120:188|84:304,1,200
172,256,128388,2,0,P|208:232|296:232,1,100
240,300,128752,1,0,0:0:0:0:
204,144,128933,6,0,P|260:140|320:116,1,100
376,192,129297,2,0,P|396:92|324:28,1,200
248,84,129843,2,0,P|192:88|136:48,1,100
72,124,130206,1,0,0:0:0:0:
60,164,130297,1,0,0:0:0:0:
48,200,130388,6,0,L|128:272,1,100,4|0,0:0|0:0,0:0:0:0:
140,232,130661,1,0,0:0:0:0:
160,196,130752,2,0,L|240:268,1,100
252,220,131024,1,0,0:0:0:0:
268,176,131115,2,0,L|348:248,1,100
372,200,131388,1,0,0:0:0:0:
400,156,131479,2,0,L|480:228,1,100
396,288,131843,6,0,B|360:320|360:320|268:340,1,100
224,280,132206,2,0,P|144:264|124:148,1,200
200,192,132752,1,0,0:0:0:0:
284,140,132933,1,0,0:0:0:0:
336,56,133115,1,0,0:0:0:0:
296,44,133206,1,0,0:0:0:0:
256,44,133297,6,0,P|212:68|144:72,1,100
68,36,133661,2,0,P|152:68|240:160,1,200
132,172,134206,2,0,P|168:224|240:248,1,100
304,172,134570,5,0,0:0:0:0:
324,204,134661,1,0,0:0:0:0:
344,236,134752,2,0,P|304:280|216:316,1,125
200,324,135024,1,0,0:0:0:0:
152,320,135115,2,0,P|96:291|54:246,1,125
92,152,135479,2,0,L|72:88,3,62.5
124,104,135843,1,0,0:0:0:0:
172,104,135933,1,0,0:0:0:0:
220,96,136024,1,0,0:0:0:0:
264,76,136115,1,0,0:0:0:0:
304,52,136206,5,4,0:1:0:0:
368,92,136388,1,0,0:0:0:0:
380,164,136570,1,0,0:0:0:0:
336,224,136752,1,0,0:0:0:0:
260,232,136933,1,0,0:0:0:0:
292,164,137115,2,0,L|344:236,1,75.0000028610231
376,288,137479,1,0,0:0:0:0:
308,320,137661,5,0,0:0:0:0:
232,332,137843,1,0,0:0:0:0:
160,312,138024,1,0,0:0:0:0:
108,256,138206,1,0,0:0:0:0:
96,180,138388,2,0,P|136:156|184:164,1,75.0000028610231
268,196,138752,2,0,P|228:220|180:212,1,75.0000028610231
212,148,139115,5,0,0:0:0:0:
244,80,139297,1,0,0:0:0:0:
276,156,139479,1,0,0:0:0:0:
300,56,139661,1,0,0:0:0:0:
340,168,139843,1,0,0:0:0:0:
432,244,140024,1,0,0:0:0:0:
460,128,140206,2,0,P|424:104|364:104,1,75.0000028610231
396,176,140570,5,0,0:0:0:0:
308,196,140752,1,0,0:0:0:0:
376,276,140933,1,0,0:0:0:0:
260,248,141115,1,0,0:0:0:0:
356,340,141297,1,0,0:0:0:0:
224,308,141479,1,0,0:0:0:0:
196,176,141661,2,0,P|160:184|112:232,1,75.0000028610231
188,252,142024,5,0,0:0:0:0:
156,320,142206,1,0,0:0:0:0:
112,264,142388,1,0,0:0:0:0:
80,332,142570,1,0,0:0:0:0:
32,276,142752,1,0,0:0:0:0:
64,208,142933,2,0,L|152:192,2,75.0000028610231
84,136,143479,6,0,L|176:120,1,75.0000028610231
116,60,143843,2,0,L|208:44,1,75.0000028610231
240,104,144206,1,0,0:0:0:0:
295,156,144388,2,0,P|313:123|313:86,1,75.0000028610231
224,176,144752,1,0,0:0:0:0:
204,248,144933,6,0,L|156:180,1,75.0000028610231
308,248,145297,2,0,L|356:180,1,75.0000028610231
188,276,145661,2,0,L|125:187,1,75.0000028610231
324,276,146025,2,0,L|386:187,1,75.0000028610231
412,156,146388,5,0,0:0:0:0:
312,204,146570,1,0,0:0:0:0:
256,72,146752,1,0,0:0:0:0:
200,204,146933,1,0,0:0:0:0:
100,156,147115,1,0,0:0:0:0:
256,236,147297,1,0,0:0:0:0:
256,72,147479,2,0,L|256:148,1,75.0000028610231
328,232,147843,6,0,P|236:308|128:284,1,200,4|0,0:0|0:0,0:0:0:0:
96,224,148388,2,0,L|212:224,2,100
40,140,148933,1,0,0:0:0:0:
124,84,149115,1,0,0:0:0:0:
176,168,149297,6,0,B|248:192|248:192|408:192,1,200
320,108,149843,1,0,0:0:0:0:
452,252,150024,2,0,B|412:276|412:276|344:280,1,100
268,240,150388,1,0,0:0:0:0:
284,340,150570,1,0,0:0:0:0:
196,292,150752,6,0,L|80:292,1,100
160,216,151115,2,0,L|44:216,1,100
128,144,151479,2,0,L|236:144,1,100
276,124,151752,1,0,0:0:0:0:
288,86,151843,1,0,0:0:0:0:
256,62,151933,1,0,0:0:0:0:
223,86,152024,1,0,0:0:0:0:
236,124,152115,1,0,0:0:0:0:
284,144,152206,6,0,L|384:144,1,100
452,216,152570,2,0,L|352:216,1,100
416,292,152933,2,0,L|192:292,1,200
176,284,153388,1,0,0:0:0:0:
140,272,153479,1,0,0:0:0:0:
108,248,153570,1,0,0:0:0:0:
84,216,153661,6,0,P|72:136|168:68,1,200
216,240,154206,1,0,0:0:0:0:
164,164,154388,2,0,P|212:148|264:164,1,100
236,64,154752,1,0,0:0:0:0:
324,196,154933,1,0,0:0:0:0:
324,64,155115,6,0,B|328:120|328:120|376:124|420:176|388:240,1,200
320,292,155661,2,0,L|228:236,2,100
464,248,156206,1,0,0:0:0:0:
324,196,156388,1,0,0:0:0:0:
224,208,156570,6,0,P|168:200|120:164,1,100
204,108,156933,2,0,P|159:73|135:17,1,100
240,24,157297,2,0,P|284:60|292:120,1,100
272,136,157570,1,0,0:0:0:0:
248,168,157661,1,0,0:0:0:0:
236,208,157752,1,0,0:0:0:0:
248,244,157843,1,0,0:0:0:0:
280,268,157933,1,0,0:0:0:0:
256,192,158024,12,4,159479,0:0:0:0:
408,184,159843,6,0,P|368:240|288:280,1,115.000002193451
248,184,160206,2,0,P|180:195|95:167,1,115.000002193451
192,84,160570,1,0,0:0:0:0:
308,84,160752,1,0,0:0:0:0:
352,100,160843,1,0,0:0:0:0:
396,116,160933,6,0,B|360:180|368:272|420:332,1,230.000004386902
460,224,161479,1,0,0:0:0:0:
316,312,161661,2,0,P|264:336|180:332,1,115.000002193451
128,252,162024,2,0,P|180:228|264:232,1,115.000002193451
236,272,162297,1,0,0:0:0:0:
200,300,162388,6,0,L|168:172,1,115.000002193451
128,172,162661,1,0,0:0:0:0:
84,160,162752,2,0,L|56:48,1,115.000002193451
80,8,163024,1,0,0:0:0:0:
120,32,163115,2,0,L|148:148,1,115.000002193451
232,220,163479,2,0,P|259:170|254:114,1,115.000002193451
144,144,163843,6,0,L|268:168,1,115.000002193451
300,176,164115,1,0,0:0:0:0:
344,188,164206,2,0,L|504:220,1,115.000002193451
496,184,164479,1,0,0:0:0:0:
476,144,164570,2,0,L|363:121,1,115.000002193451
248,116,164933,2,0,P|260:176|304:224,1,115.000002193451
388,284,165297,6,0,B|284:296|284:296|296:312|296:312|176:324,1,230.000004386902,4|0,0:0|0:0,0:0:0:0:
80,292,165843,1,0,0:0:0:0:
188,260,166024,2,0,L|64:236,1,115.000002193451
160,160,166388,2,0,P|216:160|272:200,1,115.000002193451
292,228,166661,1,0,0:0:0:0:
308,272,166752,6,0,P|268:188|276:48,1,230.000004386902
344,144,167297,1,0,0:0:0:0:
192,188,167479,2,0,L|56:228,1,115.000002193451
8,132,167843,2,0,L|144:92,1,115.000002193451
164,88,168115,1,0,0:0:0:0:
208,76,168206,6,0,B|256:104|256:104|292:180,1,115.000002193451
276,204,168479,1,0,0:0:0:0:
240,236,168570,2,0,B|184:236|184:236|108:276,1,115.000002193451
160,300,168843,1,0,0:0:0:0:
204,312,168933,2,0,L|168:164,1,115.000002193451
76,144,169297,2,0,L|105:255,1,115.000002193451
164,156,169661,5,4,0:0:0:0:
164,156,170024,5,4,0:0:0:0:
164,156,170388,6,0,L|136:92,3,57.5000010967255,4|0|0|0,0:0|0:0|0:0|0:0,0:0:0:0:
228,116,170752,6,0,L|256:180,3,57.5000010967255,4|0|0|0,0:0|0:0|0:0|0:0,0:0:0:0:
304,132,171115,6,0,P|340:188|256:344,1,259.999988098145
208,224,171661,1,0,0:0:0:0:
192,352,171843,2,0,P|124:324|92:272,1,129.999994049073
108,148,172206,2,0,P|176:180|208:224,1,129.999994049073
240,264,172479,1,0,0:0:0:0:
284,292,172570,6,0,B|360:264|360:264|440:104,1,259.999988098145
340,24,173115,1,0,0:0:0:0:
320,152,173297,2,0,L|448:100,1,129.999994049073
388,224,173661,2,0,P|324:252|240:200,1,129.999994049073
228,200,173933,1,0,0:0:0:0:
188,164,174024,6,0,L|44:164,1,129.999994049073
32,208,174297,1,0,0:0:0:0:
56,256,174388,2,0,L|200:256,1,129.999994049073
224,292,174661,1,0,0:0:0:0:
260,328,174752,2,0,L|412:328,1,129.999994049073
468,224,175115,2,0,L|316:224,1,129.999994049073
208,228,175479,6,0,L|108:124,1,129.999994049073
124,80,175752,1,0,0:0:0:0:
176,80,175843,2,0,L|266:173,1,129.999994049073
292,128,176115,1,0,0:0:0:0:
308,80,176206,2,0,L|148:80,1,129.999994049073
52,120,176570,2,0,P|92:184|192:208,1,129.999994049073
124,336,176933,6,0,L|256:336,1,129.999994049073
406,248,177297,2,0,L|276:248,1,129.999994049073
236,216,177570,1,0,0:0:0:0:
272,180,177661,2,0,L|402:180,1,129.999994049073
256,76,178024,2,0,L|126:76,1,129.999994049073
72,68,178297,1,0,0:0:0:0:
32,36,178388,6,0,P|128:80|196:232,1,259.999988098145
184,344,178933,1,0,0:0:0:0:
124,228,179115,2,0,P|196:212|272:248,1,129.999994049073
332,128,179479,1,0,0:0:0:0:
332,128,179570,1,0,0:0:0:0:
332,128,179661,1,0,0:0:0:0:
332,128,179752,1,0,0:0:0:0:
332,128,179843,6,0,P|336:192|396:248,1,129.999994049073
448,132,180206,2,0,P|444:68|402:20,1,129.999994049073
332,128,180570,2,0,P|388:156|448:132,1,129.999994049073
376,240,180933,2,0,P|319:211|260:235,1,129.999994049073
244,84,181297,6,0,L|208:16,3,75.0000028610231,4|0|0|0,0:0|0:0|0:0|0:0,0:0:0:0:
180,80,181661,6,0,L|112:36,3,68.5000019336701,4|0|0|0,0:0|0:0|0:0|0:0,0:0:0:0:
124,104,182024,6,0,L|56:92,3,62.5,4|0|0|0,0:0|0:0|0:0|0:0,0:0:0:0:
76,148,182388,6,0,P|124:176|224:148,1,112.000001367188,4|0,0:0|0:0,0:0:0:0:
240,132,182752,6,0,P|408:128|236:236,1,525.000020027161,4|0,0:1|0:0,0:0:0:0:
236,204,184115,1,0,0:0:0:0:
264,180,184206,2,0,P|304:240|184:204,1,300.000011444092
164,120,185115,1,0,0:0:0:0:
112,212,185297,1,0,0:0:0:0:
208,168,185479,1,0,0:0:0:0:
104,148,185661,6,0,P|124:68|192:64,1,150.000005722046
232,116,186206,1,0,0:0:0:0:
268,8,186388,1,0,0:0:0:0:
340,60,186570,2,0,P|348:108|380:144,1,75.0000028610231
436,144,186933,1,0,0:0:0:0:
412,72,187115,6,0,P|332:56|288:120,1,150.000005722046
288,176,187661,1,0,0:0:0:0:
216,68,187843,1,0,0:0:0:0:
212,196,188024,1,0,0:0:0:0:
292,100,188206,1,0,0:0:0:0:
168,132,188388,1,0,0:0:0:0:
288,176,188570,6,0,L|368:240,2,75.0000028610231,4|0|0,0:1|0:0|0:0,0:0:0:0:
168,132,189115,2,0,B|140:192|140:192|140:304,1,150.000005722046
192,328,189661,2,0,B|212:300|212:300|212:232,1,75.0000028610231
140,276,190024,5,0,0:0:0:0:
228,192,190206,1,0,0:0:0:0:
312,276,190388,1,0,0:0:0:0:
128,192,190752,1,0,0:0:0:0:
320,188,191115,2,0,P|384:164|424:112,1,112.500004291535
432,100,191479,2,0,P|348:84|228:148,1,225.000008583069
248,180,192115,2,0,P|236:248|136:328,1,187.500007152558
150,324,192661,1,0,0:0:0:0:
150,324,192752,1,0,0:0:0:0:
150,324,192843,1,0,0:0:0:0:
164,224,192933,6,0,P|216:244|252:312,1,100,4|0,0:0|0:0,0:0:0:0:
308,200,193297,2,0,P|343:243|340:320,1,100,4|0,0:0|0:0,0:0:0:0:
440,244,193661,2,0,P|449:292|433:339,1,100,4|0,0:0|0:0,0:0:0:0:
352,288,194024,2,0,P|308:323|231:320,1,100,4|0,0:0|0:0,0:0:0:0:
176,284,194388,6,0,B|208:228|208:228|224:88,1,200,4|0,0:0|0:0,0:0:0:0:
124,112,194933,1,0,0:0:0:0:
48,176,195115,2,0,B|124:112|124:112|224:92,1,200
324,92,195661,1,0,0:0:0:0:
412,140,195843,6,0,P|360:188|292:188,1,100
364,288,196206,2,0,P|293:285|245:237,1,100
224,360,196570,2,0,P|175:307|176:239,1,100
76,312,196933,2,0,P|78:241|126:193,1,100
128,200,197206,1,0,0:0:0:0:
164,184,197297,6,0,P|232:180|328:84,1,200
364,180,197843,1,0,0:0:0:0:
224,100,198024,1,0,0:0:0:0:
288,244,198206,1,0,0:0:0:0:
192,268,198388,2,0,P|248:268|320:308,1,100
372,340,198752,6,0,L|208:168,1,200
148,248,199297,1,0,0:0:0:0:
56,208,199479,1,0,0:0:0:0:
56,108,199661,2,0,L|156:160,1,100
236,196,200024,1,0,0:0:0:0:
336,192,200206,6,0,L|120:192,1,200,4|0,0:0|0:0,0:0:0:0:
40,228,200752,2,0,P|128:196|212:100,1,200
100,132,201297,2,0,L|172:256,1,100
324,272,201661,5,0,0:0:0:0:
144,288,201843,1,0,0:0:0:0:
300,200,202024,2,0,L|372:76,1,100
400,256,202388,1,0,0:0:0:0:
260,60,202752,1,0,0:0:0:0:
216,296,203115,6,0,P|140:284|72:156,1,200
256,100,203661,1,0,0:0:0:0:
172,152,203843,2,0,P|256:200|340:152,1,200
256,100,204388,1,0,0:0:0:0:
439,188,204570,2,4,P|390:272|296:296,2,200
324,124,205479,1,0,0:0:0:0:
256,236,205661,1,4,0:0:0:0:
188,124,205843,1,0,0:0:0:0:
256,192,206024,12,0,208933,0:0:0:0:
228,168,211843,6,0,P|188:152|152:112,1,75.0000028610231
164,132,212206,1,2,0:0:0:0:
212,72,212388,2,0,P|240:48|304:40,1,75.000002861023,0|0,0:0|0:0,0:0:0:0:
340,76,212752,2,0,P|312:100|248:108,1,75.000002861023,0|2,0:0|0:0,0:0:0:0:
276,36,213115,1,0,0:0:0:0:
344,168,213297,5,0,0:0:0:0:
344,168,213479,1,0,0:0:0:0:
396,286,213661,2,0,P|389:250|404:216,1,75.0000028610231,2|0,0:0|0:0,0:0:0:0:
464,260,214024,2,0,P|472:297|456:330,1,75.0000028610231
324,304,214388,2,0,L|396:286,1,75.0000028610231,2|0,0:0|0:0,0:0:0:0:
444,140,214752,5,0,0:0:0:0:
444,140,214934,1,0,0:0:0:0:
376,108,215115,2,0,P|328:92|280:104,1,75.0000028610231,2|0,0:0|0:0,0:0:0:0:
177,131,215479,2,0,P|211:145|248:144,1,75.0000028610231
160,204,215843,2,0,L|176:131,1,75.0000028610231,2|0,0:0|0:0,0:0:0:0:
84,304,216206,5,0,0:0:0:0:
84,304,216388,1,0,0:0:0:0:
136,248,216570,2,0,P|176:228|236:220,1,75.0000028610231,2|0,0:0|0:0,0:0:0:0:
280,204,216933,2,0,L|332:176,3,37.5000014305115
324,244,217297,2,0,L|376:240,3,37.5000014305115,2|0|0|0,0:0|0:0|0:0|0:0,0:0:0:0:
408,180,217661,5,4,0:1:0:0:
408,180,217843,1,0,0:0:0:0:
336,112,218024,2,0,P|292:156|240:164,1,100,2|0,0:0|0:0,0:0:0:0:
244,64,218388,2,0,P|181:64|139:32,1,100,0|0,0:0|0:0,0:0:0:0:
180,140,218752,2,0,P|133:155|100:192,1,100,2|0,0:0|0:0,0:0:0:0:
228,272,219115,5,0,0:0:0:0:
228,272,219297,1,0,0:0:0:0:
304,204,219479,2,0,L|228:272,1,100,2|0,0:0|0:0,0:0:0:0:
160,196,219843,2,0,P|212:188|240:132,1,100
152,100,220206,2,0,P|103:105|73:144,1,100,2|0,0:0|0:0,0:0:0:0:
88,296,220570,5,0,0:0:0:0:
88,296,220752,1,0,0:0:0:0:
184,324,220933,2,0,L|300:324,1,100,2|0,0:0|0:0,0:0:0:0:
396,156,221297,2,0,L|296:156,1,100
240,240,221661,2,0,L|340:240,1,100,2|0,0:0|0:0,0:0:0:0:
228,136,222024,5,0,0:0:0:0:
228,136,222206,1,0,0:0:0:0:
144,192,222388,2,0,L|47:217,1,100,2|0,0:0|0:0,0:0:0:0:
96,128,222752,2,0,L|25:56,1,100
198,23,223115,2,0,L|172:120,1,100,2|0,0:0|0:0,0:0:0:0:
224,208,223479,6,0,B|264:232|264:232|356:232,1,100
416,232,223843,1,2,0:0:0:0:
368,144,224024,2,0,P|320:232|208:312,1,200
147,260,224570,2,0,P|143:309|165:353,1,100,2|0,0:0|0:0,0:0:0:0:
56,296,224933,6,0,P|60:246|38:202,1,100
88,116,225297,2,0,P|137:120|181:98,1,100,2|0,0:0|0:0,0:0:0:0:
212,72,225570,1,0,0:0:0:0:
252,64,225661,1,0,0:0:0:0:
288,80,225752,1,0,0:0:0:0:
312,112,225843,2,0,L|256:208,2,100,0|2|0,0:0|0:0|0:0,0:0:0:0:
352,108,226297,1,2,0:0:0:0:
392,116,226388,6,0,L|424:248,1,100
380,284,226752,1,2,0:0:0:0:
380,284,226933,1,0,0:0:0:0:
304,308,227115,2,0,L|184:308,1,100
128,280,227479,2,0,P|168:232|248:240,1,100,2|0,0:0|0:0,0:0:0:0:
92,124,227843,5,0,0:0:0:0:
92,124,228024,1,0,0:0:0:0:
172,64,228206,2,0,L|248:140,1,100,2|0,0:0|0:0,0:0:0:0:
144,128,228570,2,0,L|248:44,1,100
316,100,228933,2,0,L|376:92,4,50,2|0|0|2|0,0:0|0:0|0:0|0:0|0:0,0:0:0:0:
384,288,229661,5,0,0:0:0:0:
197,356,230024,1,0,0:0:0:0:
128,168,230388,1,0,0:0:0:0:
280,200,230752,5,0,0:0:0:0:
280,200,230933,1,0,0:0:0:0:
212,272,231115,2,0,L|104:288,1,100
68,260,231388,1,0,0:0:0:0:
36,224,231479,1,0,0:0:0:0:
36,172,231570,2,0,L|120:96,2,100
84,188,232024,1,0,0:0:0:0:
132,184,232115,1,0,0:0:0:0:
176,160,232206,5,0,0:0:0:0:
433,191,232570,1,0,0:0:0:0:
207,317,232933,1,0,0:0:0:0:
316,82,233297,1,0,0:0:0:0:
365,336,233661,5,0,0:0:0:0:
365,336,233843,1,0,0:0:0:0:
308,252,234024,2,0,P|256:272|208:316,1,100
244,200,234388,2,0,L|244:96,1,100
164,160,234752,2,0,P|124:190|77:207,1,100
88,108,235115,5,0,0:0:0:0:
136,276,235479,1,0,0:0:0:0:
188,108,235843,1,0,0:0:0:0:
236,276,236206,1,0,0:0:0:0:
288,108,236570,1,0,0:0:0:0:
336,276,236933,1,0,0:0:0:0:
388,108,237297,5,0,0:0:0:0:
436,240,237479,1,0,0:0:0:0:
320,164,237661,1,0,0:0:0:0:
460,156,237843,1,0,0:0:0:0:
348,240,238024,6,0,P|292:240|248:196,1,100
228,120,238388,2,0,P|194:86|174:21,1,100
272,16,238752,2,0,P|305:49|325:114,1,100
352,196,239115,2,0,P|306:216|257:216,1,100
160,192,239479,5,0,0:0:0:0:
128,168,239570,1,0,0:0:0:0:
112,132,239661,1,0,0:0:0:0:
116,92,239752,1,0,0:0:0:0:
80,112,239843,1,0,0:0:0:0:
60,144,239933,1,0,0:0:0:0:
56,184,240024,1,0,0:0:0:0:
68,220,240115,1,0,0:0:0:0:
256,192,240206,12,4,240933,0:0:0:0:
