osu file format v12

[General]
AudioFilename: Alpha Century 4 o(2jam music).mp3
AudioLeadIn: 0
PreviewTime: 182423
Countdown: 0
SampleSet: Soft
StackLeniency: 0.7
Mode: 0
LetterboxInBreaks: 1
WidescreenStoryboard: 1

[Editor]
Bookmarks: 118752,208933
DistanceSpacing: 1
BeatDivisor: 4
GridSize: 4

[Metadata]
Title:Alpha Century IV
TitleUnicode:Alpha Century IV
Artist:NemesisTheory
ArtistUnicode:NemesisTheory
Creator:NinjaTertel
Version:Hard
Source:O2Jam
Tags:o2mania techno
BeatmapID:350458
BeatmapSetID:129722

[Difficulty]
HPDrainRate:4
CircleSize:3
OverallDifficulty:4
ApproachRate:5
SliderMultiplier:1.5
SliderTickRate:2

[Events]
//Background and Video events
0,0,"BG.jpg",0,0
//Break Periods
2,136406,146643
//Storyboard Layer 0 (Background)
//Storyboard Layer 1 (Fail)
//Storyboard Layer 2 (Pass)
//Storyboard Layer 3 (Foreground)
//Storyboard Sound Samples
//Background Colour Transformations
3,100,163,162,255

[TimingPoints]
2752,363.636363636364,4,2,0,50,1,0
2752,-200,4,2,0,50,0,0
3843,363.636363636364,4,2,0,50,1,0
3843,-133.333333333333,4,2,0,50,0,0
9661,-133.333333333333,4,1,0,40,0,0
15479,-100,4,1,0,40,0,0
27115,-153.846153846154,4,2,0,50,0,0
32933,-133.333333333333,4,1,0,40,0,0
38752,-133.333333333333,4,2,0,50,0,0
44570,-80,4,1,0,40,0,1
50388,-100,4,1,0,40,0,0
62024,-133.333333333333,4,1,0,40,0,0
88206,-133.333333333333,4,2,0,40,0,0
89479,-100,4,1,0,40,0,1
101297,-117.647058823529,4,2,0,50,0,1
107115,-100,4,2,0,50,0,1
112933,-100,4,2,0,50,0,0
118752,-100,4,1,0,40,0,0
134570,-80,4,1,0,40,0,0
136206,-133.333333333333,4,2,0,50,0,0
136297,-133.333333333333,4,2,0,25,0,0
147843,-100,4,1,0,40,0,0
159479,-86.9565217391304,4,1,0,40,0,1
170752,-86.9565217391304,4,1,0,40,0,0
171115,-76.9230769230769,4,1,0,40,0,1
181297,-66.6666666666667,4,1,0,40,0,1
181661,-72.992700729927,4,1,0,40,0,1
182024,-80,4,1,0,40,0,1
182388,-89.2857142857143,4,1,0,40,0,1
182752,-133.333333333333,4,2,0,50,0,0
191343,-133.333333333333,4,2,0,5,0,0
191433,-133.333333333333,4,2,0,50,0,0
191979,-133.333333333333,4,2,0,5,0,0
192070,-133.333333333333,4,2,0,50,0,0
192933,-100,4,1,0,40,0,0
206024,-100,4,1,0,40,0,0
206115,-100,4,2,0,5,0,0
209024,-133.333333333333,4,2,0,25,0,0
217661,-100,4,2,0,50,0,0
230752,-100,4,1,0,40,0,0
232206,-100,4,2,0,50,0,0
233661,-100,4,1,0,40,0,0
235115,-100,4,2,0,50,0,0
239479,-100,4,3,0,60,0,0
240206,-100,4,1,0,50,0,0

[Colours]
Combo1 : 255,159,207
Combo2 : 252,255,206
Combo3 : 255,128,64
Combo4 : 255,255,72
Combo5 : 255,128,128

[HitObjects]
284,120,118752,5,0,0:0:0:0:
432,148,119115,1,0,0:0:0:0:
300,220,119479,2,0,P|248:220|216:248,2,75
276,292,120024,1,0,0:0:0:0:
208,328,120206,6,0,B|140:328|140:328|120:340|120:340|52:340,1,150
148,216,120933,2,0,P|184:184|196:128,1,75
120,140,121297,1,0,0:0:0:0:
156,72,121479,2,0,L|200:16,2,37.5
228,52,121843,6,0,L|304:128,1,75
420,168,122388,1,0,0:0:0:0:
368,224,122570,2,0,B|332:244|332:244|264:244,1,75
236,204,122933,1,0,0:0:0:0:
304,168,123115,5,4,0:0:0:0:
180,84,123479,1,4,0:0:0:0:
96,208,123843,1,4,0:0:0:0:
220,292,124206,2,0,L|116:292,1,75,4|0,0:0|0:0,0:0:0:0:
160,216,124570,5,4,0:0:0:0:
212,160,124752,2,0,B|252:148|252:148|312:148,1,75
344,288,125297,1,0,0:0:0:0:
392,232,125479,2,0,B|412:204|412:204|412:132,1,75
372,100,125843,6,0,L|328:100,2,37.5
316,48,126206,1,0,0:0:0:0:
316,48,126388,2,0,L|144:48,1,150
124,112,126933,2,0,L|220:112,2,75
48,112,127479,1,0,0:0:0:0:
84,176,127661,6,0,L|40:228,2,37.5
160,236,128024,2,0,L|140:296,2,37.5
260,236,128388,2,0,L|271:271,2,37.5
336,176,128752,6,0,L|388:232,2,75
364,104,129297,1,0,0:0:0:0:
228,164,129661,1,0,0:0:0:0:
188,228,129843,2,0,B|152:248|152:248|108:220,1,75
72,176,130206,2,0,L|72:124,2,37.5,0|0|4,0:0|0:0|0:0,0:0:0:0:
44,284,130570,6,0,L|96:284,2,37.5
192,320,130933,2,0,L|244:320,2,37.5,0|0|0,0:0|0:0|0:0,0:0:0:0:
300,216,131297,2,0,L|352:216,2,37.5,0|0|0,0:0|0:0|0:0,0:0:0:0:
428,192,131661,6,0,B|456:164|456:164|456:100,1,75,0|0,0:0|0:0,0:0:0:0:
408,72,132024,2,0,B|380:100|380:100|380:164,1,75
400,284,132570,1,0,0:0:0:0:
336,248,132752,2,0,L|232:248,1,75
192,216,133115,1,0,0:0:0:0:
184,140,133297,6,0,P|152:120|132:68,2,75
208,68,133843,2,0,L|208:16,2,37.5
264,116,134206,1,0,0:0:0:0:
320,164,134388,2,0,L|373:217,1,75
256,192,134752,12,4,136206,0:1:0:0:
112,272,147843,6,0,B|172:304|172:304|284:304,1,150
308,252,148388,1,0,0:0:0:0:
268,188,148570,1,0,0:0:0:0:
292,116,148752,2,0,P|244:116|200:224,1,150
268,188,149297,6,0,L|344:188,1,75
276,52,149843,1,0,0:0:0:0:
212,92,150024,1,0,0:0:0:0:
148,56,150206,2,0,L|56:56,2,75
148,128,150752,6,0,L|216:196,1,75
200,260,151115,2,0,P|164:276|136:336,1,75
216,340,151479,1,0,0:0:0:0:
216,340,151661,2,0,L|384:340,1,150
424,296,152206,5,0,0:0:0:0:
480,244,152388,1,0,0:0:0:0:
424,192,152570,1,0,0:0:0:0:
368,244,152752,1,0,0:0:0:0:
296,264,152933,2,0,B|248:268|224:232,1,75
284,188,153297,2,0,L|312:144,4,37.5,0|0|0|0|4,0:0|0:0|0:0|0:0|0:0,0:0:0:0:
204,108,153843,6,0,L|148:68,2,37.5
128,192,154206,2,0,L|48:192,2,75
204,276,154752,2,0,L|173:298,2,37.5
235,345,155115,6,0,P|279:288|256:220,1,150
200,172,155661,1,0,0:0:0:0:
268,144,155843,2,0,L|356:144,1,75
372,212,156206,2,0,P|332:204|280:220,1,75
332,280,156570,6,0,P|408:284|448:204,1,150
440,156,157115,1,0,0:0:0:0:
400,92,157297,1,0,0:0:0:0:
324,100,157479,2,0,P|296:136|256:144,1,75
252,68,157843,1,0,0:0:0:0:
256,192,158024,12,4,159479,0:0:0:0:
96,268,159843,6,0,B|124:300|124:300|188:324,1,86.2500016450882
176,228,160206,2,0,B|218:230|218:230|280:202,1,86.2500016450882
204,148,160570,2,0,B|236:120|236:120|260:55,1,86.2500016450882
164,72,160933,6,0,P|256:80|344:132,1,172.500003290176
392,60,161479,1,0,0:0:0:0:
412,144,161661,1,0,0:0:0:0:
348,204,161843,1,0,0:0:0:0:
302,277,162024,2,0,P|343:291|384:280,1,86.2500016450882
432,208,162388,6,0,P|364:160|260:168,1,172.500003290176
236,236,162933,1,0,0:0:0:0:
232,324,163115,2,0,P|156:276|160:196,1,172.500003290176
188,120,163661,1,0,0:0:0:0:
264,76,163843,6,0,P|276:128|260:168,1,86.2500016450882
348,184,164206,2,0,P|319:229|280:246,1,86.2500016450882,0|0,0:0|0:0,0:0:0:0:
208,224,164570,2,0,P|204:148|264:76,2,172.500003290176,0|0|4,0:0|0:0|0:0,0:0:0:0:
144,284,165479,6,0,L|80:312,2,43.1250008225441
80,192,165843,2,0,L|128:192,2,43.1250008225441
144,100,166206,2,0,L|64:64,2,86.2500016450882
216,148,166752,2,0,P|284:184|412:184,1,172.500003290176
348,112,167297,2,0,L|364:72,2,43.1250008225441
432,128,167661,2,0,P|460:168|440:236,2,86.2500016450882
376,192,168206,5,0,0:0:0:0:
332,264,168388,1,0,0:0:0:0:
256,300,168570,1,0,0:0:0:0:
168,300,168752,1,0,0:0:0:0:
92,264,168933,2,0,P|164:248|180:144,1,172.500003290176
112,124,169479,1,0,0:0:0:0:
64,192,169661,5,4,0:0:0:0:
256,320,170024,1,4,0:0:0:0:
448,192,170388,1,4,0:0:0:0:
256,160,170752,2,0,L|256:220,4,43.1250008225441,4|0|0|0|4,0:0|0:0|0:0|0:0|0:0,0:0:0:0:
160,132,171297,6,0,B|200:100|200:100|252:88,1,97.4999955368044
328,144,171661,2,0,B|335:194|335:194|320:245,1,97.4999955368044
236,280,172024,2,0,B|188:261|188:261|151:222,2,97.4999955368044
320,328,172570,6,0,P|392:280|404:144,1,194.999991073609
380,88,173115,1,0,0:0:0:0:
328,172,173297,2,0,P|292:236|172:204,1,194.999991073609
124,144,173843,1,0,0:0:0:0:
192,76,174024,6,0,L|242:159,1,97.4999955368044
304,84,174388,2,0,L|253:0,1,97.4999955368044
384,72,174752,2,0,P|436:164|360:256,1,194.999991073609
340,160,175297,1,0,0:0:0:0:
272,232,175479,6,0,P|228:260|168:260,1,97.4999955368044
204,168,175843,2,0,P|152:148|124:108,1,97.4999955368044
216,76,176206,2,0,P|288:148|272:232,1,194.999991073609
232,320,176752,1,0,0:0:0:0:
140,296,176933,6,0,L|36:296,1,97.4999955368044,4|0,0:0|0:0,0:0:0:0:
96,212,177297,2,0,L|208:212,1,97.4999955368044
244,128,177661,2,0,L|112:128,1,97.4999955368044
196,44,178024,2,0,L|304:44,1,97.4999955368044
348,124,178388,5,0,0:0:0:0:
280,192,178570,1,0,0:0:0:0:
348,260,178752,1,0,0:0:0:0:
280,328,178933,1,0,0:0:0:0:
212,260,179115,2,0,P|180:188|264:96,1,194.999991073609
328,52,179661,1,0,0:0:0:0:
412,100,179843,6,0,P|384:148|312:184,1,97.4999955368044
408,252,180206,2,0,P|354:266|277:240,1,97.4999955368044
292,356,180570,2,0,P|243:328|207:256,1,97.4999955368044
140,348,180933,2,0,P|125:294|151:217,1,97.4999955368044
116,140,181297,6,0,L|268:140,1,112.500004291535,4|0,0:0|0:0,0:0:0:0:
136,184,181661,6,0,L|264:184,1,102.750002900505,4|0,0:0|0:0,0:0:0:0:
156,228,182024,6,0,L|280:228,1,93.75,4|0,0:0|0:0,0:0:0:0:
176,272,182388,6,0,L|280:272,1,84.0000010253906,4|0,0:0|0:0,0:0:0:0:
304,236,182752,6,0,P|368:228|272:96,1,337.500012874604
240,140,184024,1,0,0:0:0:0:
232,196,184206,2,0,P|156:272|52:224,1,225.000008583069
92,188,185115,1,0,0:0:0:0:
128,144,185297,1,0,0:0:0:0:
164,100,185479,1,0,0:0:0:0:
200,56,185661,6,0,L|328:56,1,112.500004291535
296,108,186206,1,0,0:0:0:0:
296,164,186388,1,0,0:0:0:0:
340,200,186570,1,0,0:0:0:0:
392,184,186752,6,0,L|392:120,1,56.2500021457673
440,156,187115,2,0,L|440:292,1,112.500004291535
400,308,187661,2,0,L|324:308,1,56.2500021457673
263,256,188024,2,0,L|320:256,1,56.2500021457673
236,304,188388,2,0,L|160:304,1,56.2500021457673,0|4,0:0|0:1,0:0:0:0:
124,304,188752,5,0,0:0:0:0:
124,304,188933,1,0,0:0:0:0:
68,304,189115,2,0,P|36:264|72:216,1,112.500004291535
108,184,189661,1,0,0:0:0:0:
156,152,189843,1,0,0:0:0:0:
204,124,190024,6,0,L|204:64,2,56.2500021457673
256,224,190752,1,0,0:0:0:0:
308,124,191115,2,0,P|340:88|396:84,1,84.3750032186509
400,92,191479,2,0,P|432:184|376:244,1,168.750006437302
368,244,192115,2,0,P|308:244|232:292,1,140.625005364418
184,300,192752,1,0,0:0:0:0:
124,260,192933,6,0,L|48:184,1,75
104,140,193297,2,0,L|168:204,1,75
228,220,193661,1,0,0:0:0:0:
292,184,193843,1,0,0:0:0:0:
360,212,194024,2,0,L|448:192,1,75
408,124,194388,1,4,0:0:0:0:
268,76,194752,6,0,L|188:76,1,75
152,140,195115,2,0,L|60:140,1,75
92,212,195479,2,0,L|192:212,1,75
228,164,195843,2,0,P|328:160|372:216,1,150
352,276,196388,1,0,0:0:0:0:
280,252,196570,2,0,L|324:88,1,150
252,76,197115,1,0,0:0:0:0:
176,84,197297,6,0,B|112:128|112:128|180:192|112:252|112:252|176:296,1,300
252,296,198206,1,0,0:0:0:0:
324,276,198388,2,0,L|392:228,1,75
420,164,198752,2,0,B|372:132|296:196|268:224,1,150
216,232,199297,1,0,0:0:0:0:
188,160,199479,2,0,L|160:84,1,75
88,92,199843,2,0,L|116:172,1,75
140,232,200206,1,4,0:0:0:0:
264,316,200570,6,0,P|344:292|340:104,1,300
300,168,201479,1,0,0:0:0:0:
264,100,201661,2,0,B|240:60|200:60,1,75
192,136,202024,2,0,L|32:160,2,150
104,256,203115,6,0,L|260:288,1,150
328,288,203661,1,0,0:0:0:0:
328,288,203843,2,0,B|408:256|408:256|428:168,1,150
348,180,204388,1,0,0:0:0:0:
400,124,204570,6,0,P|256:84|112:124,1,300
160,180,205479,1,0,0:0:0:0:
232,204,205661,1,0,0:0:0:0:
308,200,205843,1,0,0:0:0:0:
256,192,206024,12,0,208933,0:0:0:0:
