osu file format v12

[General]
AudioFilename: Alpha Century 4 o(2jam music).mp3
AudioLeadIn: 0
PreviewTime: 182423
Countdown: 1
SampleSet: Soft
StackLeniency: 0.7
Mode: 0
LetterboxInBreaks: 1
WidescreenStoryboard: 1

[Editor]
Bookmarks: 118752,208933
DistanceSpacing: 0.7
BeatDivisor: 4
GridSize: 4

[Metadata]
Title:Alpha Century IV
TitleUnicode:Alpha Century IV
Artist:NemesisTheory
ArtistUnicode:NemesisTheory
Creator:NinjaTertel
Version:Easy
Source:O2Jam
Tags:o2mania techno
BeatmapID:351788
BeatmapSetID:129722

[Difficulty]
HPDrainRate:2
CircleSize:2
OverallDifficulty:2
ApproachRate:2
SliderMultiplier:1
SliderTickRate:2

[Events]
//Background and Video events
0,0,"BG.jpg",0,0
//Break Periods
2,136406,146283
//Storyboard Layer 0 (Background)
//Storyboard Layer 1 (Fail)
//Storyboard Layer 2 (Pass)
//Storyboard Layer 3 (Foreground)
//Storyboard Sound Samples
//Background Colour Transformations
3,100,163,162,255

[TimingPoints]
2752,363.636363636364,4,2,0,50,1,0
2752,-200,4,2,0,50,0,0
3843,363.636363636364,4,2,0,50,1,0
3843,-133.333333333333,4,2,0,50,0,0
9661,-133.333333333333,4,1,0,40,0,0
15479,-100,4,1,0,40,0,0
27115,-153.846153846154,4,2,0,50,0,0
32933,-133.333333333333,4,1,0,40,0,0
38752,-133.333333333333,4,2,0,50,0,0
44570,-80,4,1,0,40,0,1
50388,-100,4,1,0,40,0,0
62024,-133.333333333333,4,1,0,40,0,0
88206,-133.333333333333,4,2,0,40,0,0
89479,-100,4,1,0,40,0,1
101297,-117.647058823529,4,2,0,50,0,1
107115,-100,4,2,0,50,0,1
112933,-100,4,2,0,50,0,0
118752,-100,4,1,0,40,0,0
134570,-80,4,1,0,40,0,0
136206,-133.333333333333,4,2,0,50,0,0
136297,-133.333333333333,4,2,0,25,0,0
147843,-100,4,1,0,40,0,0
159479,-86.9565217391304,4,1,0,40,0,1
170752,-86.9565217391304,4,1,0,40,0,0
171115,-76.9230769230769,4,1,0,40,0,1
181297,-76.9230769230769,4,1,0,40,0,1
181661,-76.9230769230769,4,1,0,40,0,1
182024,-76.9230769230769,4,1,0,40,0,1
182388,-76.9230769230769,4,1,0,40,0,1
182752,-133.333333333333,4,2,0,50,0,0
191343,-133.333333333333,4,2,0,5,0,0
191433,-133.333333333333,4,2,0,50,0,0
191979,-133.333333333333,4,2,0,5,0,0
192070,-133.333333333333,4,2,0,50,0,0
192933,-100,4,1,0,40,0,0
206024,-100,4,1,0,40,0,0
206115,-100,4,2,0,5,0,0
209024,-133.333333333333,4,2,0,25,0,0
217661,-100,4,2,0,50,0,0
230752,-100,4,1,0,40,0,0
232206,-100,4,2,0,50,0,0
233661,-100,4,1,0,40,0,0
235115,-100,4,2,0,50,0,0
239479,-100,4,3,0,60,0,0
240206,-100,4,1,0,50,0,0

[Colours]
Combo1 : 255,159,207
Combo2 : 252,255,206
Combo3 : 255,128,64
Combo4 : 255,255,72
Combo5 : 255,128,128

[HitObjects]
112,124,118752,1,0,0:0:0:0:
252,124,119479,1,0,0:0:0:0:
140,212,120206,1,0,0:0:0:0:
280,208,120933,2,0,P|340:124|280:40,1,200
184,132,122388,5,0,0:0:0:0:
44,144,123115,2,0,P|132:268|376:280,1,400,0|4,0:0|0:0,0:0:0:0:
352,148,125297,5,0,0:0:0:0:
224,204,126024,2,0,P|176:180|144:132,2,100
88,244,127479,5,0,0:0:0:0:
212,308,128206,1,0,0:0:0:0:
348,284,128933,2,0,P|336:184|240:128,2,200,0|0|4,0:0|0:0|0:0,0:0:0:0:
224,216,131115,5,0,0:0:0:0:
100,152,131843,2,0,L|100:52,2,100
180,268,133297,5,0,0:0:0:0:
256,152,134024,1,0,0:0:0:0:
256,192,134570,12,4,136206,0:1:0:0:
400,288,147843,5,0,0:0:0:0:
328,168,148570,1,0,0:0:0:0:
256,288,149297,2,0,L|136:288,2,100
152,192,150752,5,0,0:0:0:0:
96,64,151479,1,0,0:0:0:0:
236,76,152206,2,0,P|280:96|312:148,2,100
236,148,153297,1,0,0:0:0:0:
236,220,153661,5,4,0:0:0:0:
360,156,154388,1,0,0:0:0:0:
320,292,155115,2,0,B|276:320|276:320|216:320,2,100
236,180,156570,5,0,0:0:0:0:
140,280,157297,1,0,0:0:0:0:
84,152,158024,2,0,P|256:60|432:160,1,400,0|4,0:0|0:0,0:0:0:0:
388,220,159843,5,0,0:0:0:0:
356,292,160206,1,0,0:0:0:0:
200,332,160933,2,0,P|140:240|212:156,1,230.000004386902
56,220,162388,5,0,0:0:0:0:
164,100,163115,1,0,0:0:0:0:
232,244,163843,2,0,L|348:244,2,115.000002193451
184,180,164933,1,0,0:0:0:0:
164,100,165297,5,4,0:0:0:0:
316,48,166024,1,0,0:0:0:0:
424,164,166752,2,0,B|376:196|376:196|316:196,2,115.000002193451
276,96,168206,5,0,0:0:0:0:
232,252,168933,1,0,0:0:0:0:
392,280,169661,2,0,P|208:332|80:252,1,345.000006580353,4|4,0:0|0:0,0:0:0:0:
100,180,171115,6,0,P|144:88|312:44,1,259.999988098145,4|0,0:0|0:0,0:0:0:0:
444,128,172570,1,0,0:0:0:0:
448,220,172933,1,0,0:0:0:0:
388,288,173297,2,0,L|124:288,1,259.999988098145
288,200,174752,5,0,0:0:0:0:
144,92,175479,2,0,L|272:56,2,129.999994049073
92,168,176570,1,0,0:0:0:0:
52,248,176933,6,0,B|136:280|136:280|328:280,1,259.999988098145
372,216,178024,1,0,0:0:0:0:
412,136,178388,2,0,B|324:92|324:92|140:92,1,259.999988098145
92,152,179479,1,0,0:0:0:0:
176,184,179843,6,0,L|312:184,1,129.999994049073
392,216,180570,2,0,L|284:324,1,129.999994049073
224,260,181297,2,4,L|324:160,2,129.999994049073
136,256,182388,1,4,0:0:0:0:
136,168,182752,6,0,P|232:100|392:104,1,262.500010013581
392,116,184206,2,0,B|392:240|392:240|344:328,1,225.000008583069
304,296,185661,1,0,0:0:0:0:
320,192,186388,5,0,0:0:0:0:
216,208,187115,2,0,P|124:204|64:164,2,150.000005722046,0|0|4,0:0|0:0|0:1,0:0:0:0:
208,260,188933,5,0,0:0:0:0:
168,296,189297,2,0,L|148:136,1,150.000005722046
172,100,190388,2,0,L|264:100,1,75.0000028610231
300,100,191115,1,0,0:0:0:0:
348,116,191479,6,0,P|336:184|256:208,2,150.000005722046,0|0|4,0:0|0:0|0:0,0:0:0:0:
280,132,193297,1,4,0:0:0:0:
212,148,193661,1,4,0:0:0:0:
144,164,194024,1,4,0:0:0:0:
76,180,194388,6,0,B|120:232|120:232|176:268|260:232,1,200,4|0,0:0|0:0,0:0:0:0:
388,240,195843,2,0,L|324:328,2,100
384,172,196933,1,0,0:0:0:0:
356,108,197297,6,0,L|152:108,1,200
76,224,198752,2,0,L|284:224,1,200
308,284,199843,1,0,0:0:0:0:
356,336,200206,6,0,P|456:268|472:188,2,200,4|0|0,0:0|0:0|0:0,0:0:0:0:
220,312,202388,1,0,0:0:0:0:
152,300,202752,1,0,0:0:0:0:
96,260,203115,2,0,L|96:52,1,200
236,68,204570,6,4,P|293:105|248:228,1,200,4|4,0:0|0:0,0:0:0:0:
204,248,205661,1,4,0:0:0:0:
256,192,206024,12,0,208933,0:2:0:0:
