osu file format v5

[General]
AudioFilename: Nemesis Theory- Rose at Twilight FD.mp3
AudioLeadIn: 0
PreviewTime: -1
Countdown: 1
SampleSet: Normal
StackLeniency: 0.7
Mode: 0
LetterboxInBreaks: 1

[Editor]
DistanceSpacing: 0.800000011920929
BeatDivisor: 2
GridSize: 16

[Metadata]
Title:Rose at Twilight
Artist:Nemesis Theory
Creator:John12346
Version:Twilight
Source:
Tags:

[Difficulty]
HPDrainRate:5
CircleSize:4
OverallDifficulty:4
SliderMultiplier:1.3
SliderTickRate:2

[Events]
//Background and Video events
//Break Periods
2,74266,91693
2,106993,110066
2,125366,127291
//Storyboard Layer 0 (Background)
//Storyboard Layer 1 (Fail)
//Storyboard Layer 2 (Pass)
//Storyboard Layer 3 (Foreground)
Sprite,Foreground,Centre,"Foreground.png",320,240 F,0,18365,18954,1,0 F,0,18954,22981,0 F,0,22981,23001,0,1 F,0,23001,23561,1,0 F,0,23561,27563,0 F,0,27563,27572,0,1 F,0,27572,28140,1,0 F,0,28140,28711,0 F,0,28711,28731,0,1 F,0,28731,29271,1,0 F,0,29271,29841,0 F,0,29841,29851,0,1 F,0,29851,30425,1,0 F,0,30425,32156,0 F,0,32156,32182,0,1 F,0,32182,32710,1,0 F,0,32710,36167,0 F,0,36167,36177,0,1 F,0,36177,36743,1,0 F,0,36743,36755,0,1 F,0,36755,37317,1,0 F,0,37317,41380,0 F,0,41380,41391,0,1 F,0,41391,41921,1,0 F,0,41921,43609,0,0.003999996 F,0,43609,43619,0.003999996,1 F,0,43619,44208,1,0 F,0,44208,45938,0 F,0,45938,45947,0,1 F,0,45947,46509,1,0 F,0,46509,48246,0 F,0,48246,48256,0,1 F,0,48256,48814,1,0 F,0,48814,50509,0 F,0,50509,50554,0,1 F,0,50554,51089,1,0 F,0,51089,52825,0 F,0,52825,52835,0,1 F,0,52835,53399,1,0 F,0,53399,53969,0 F,0,53969,53979,0,1 F,0,53979,54544,1,0 F,0,54544,55107,0 F,0,55107,55119,0,1 F,0,55119,55699,1,0 F,0,55699,56259,0 F,0,56259,56269,0,1 F,0,56269,60305,1,0 F,0,60305,60848,0 F,0,60848,60867,0,1 F,0,60867,65179,1,0 F,0,65179,65454,0 F,0,65454,65461,0,1 F,0,65461,69772,1,0 F,0,69772,70039,0 F,0,70039,70057,0,1 F,0,70057,74079,1,0 F,0,74079,74095,0,1 F,0,74095,79235,1,0 F,0,79235,106784,0 F,0,106784,106804,0,1 F,0,106804,110264,1,0 F,0,110264,111387,0 F,0,111387,111397,0,1 F,0,111397,112249,1,0 F,0,112249,116532,0 F,0,116532,116548,0,1 F,0,116548,117422,1,0 F,0,117422,120566,0 F,0,120566,120582,0,1 F,0,120582,124929,1,0 F,0,124929,125161,0 F,0,125161,125183,0,1 F,0,125183,126016,1,0 F,0,126016,128605,0 F,0,128605,128623,0,1 F,0,128623,129186,1,0 F,0,129186,132060,0 F,0,132060,132071,0,1 F,0,132071,132630,1,0 F,0,132630,134930,0 F,0,134930,134952,0,1 F,0,134952,135515,1,0 F,0,135515,138940,0 F,0,138940,138950,0,1 F,0,138950,139525,1,0 F,0,139525,143541,0 F,0,143541,143561,0,1 F,0,143561,144106,1,0 F,0,144106,148125,0 F,0,148125,148132,0,1 F,0,148132,149283,1,0 F,0,149283,152716,0 F,0,152716,152726,0,1 F,0,152726,157023,1,0 F,0,157023,157321,0 F,0,157321,157331,0,1 F,0,157331,157890,1,0 F,0,157890,158465,0 F,0,158465,158475,0,1 F,0,158475,159045,1,0 F,0,159045,159620,0 F,0,159620,159630,0,1 F,0,159630,160185,1,0 F,0,160185,160760,0 F,0,160760,160770,0,1 F,0,160770,161343,1,0 F,0,161343,166498,0 F,0,166498,166519,0,1 F,0,166519,169373,1,0
//Storyboard Sound Samples
//Background Colour Transformations
3,100,0,0,0

[TimingPoints]
0,574.162679425837,4,1,0,39,1,0
18362,-100,4,1,0,39,0,1
36717,-100,4,1,0,39,0,0
148115,-100,4,1,0,39,0,1
166665,-100,4,1,0,39,0,0

[Colours]
Combo1 : 128,0,0
Combo2 : 0,128,0
Combo3 : 0,0,128

[HitObjects]
256,208,18373,1,0
144,208,18947,1,0
208,128,19521,1,2
256,96,19808,1,2
304,128,20095,1,2
368,208,20669,5,0
256,208,21244,1,0
304,304,21818,1,2
256,336,22105,1,2
208,304,22392,1,2
160,208,22966,5,0
256,208,23540,1,0
352,256,24114,1,2
384,208,24401,1,2
352,160,24688,1,2
256,112,25263,5,0
256,208,25837,1,0
160,256,26411,1,2
128,208,26698,1,2
160,160,26985,1,2
208,256,27559,5,0
176,208,27846,1,0
208,160,28133,1,8
256,256,28708,5,0
224,208,28995,1,0
256,160,29282,1,8
304,256,29856,5,0
272,304,30143,1,0
224,304,30430,1,8
192,256,30717,1,0
176,208,31004,1,0
192,160,31291,1,0
224,112,31578,1,8
320,160,32153,5,0
336,208,32440,1,0
320,256,32727,1,8
208,256,33301,1,0
176,208,33588,1,0
208,160,33875,1,8
272,48,34449,5,0
288,96,34736,1,0
272,144,35023,1,8
288,192,35311,1,0
272,240,35598,1,0
288,288,35885,1,0
272,336,36172,1,8
256,208,36746,5,0
144,208,37320,1,8
32,208,37894,1,0
32,160,38181,1,0
32,112,38468,1,8
128,112,39043,5,0
224,112,39617,1,8
320,112,40191,1,0
368,112,40478,1,0
416,112,40765,1,8
416,208,41339,5,0
416,304,41913,1,8
304,304,42488,1,0
256,304,42775,1,0
208,304,43062,1,8
96,304,43636,5,0
96,192,44210,1,8
192,192,44784,1,0
240,192,45071,1,0
288,192,45358,1,8
384,192,45933,5,0
384,80,46507,1,8
272,80,47081,1,0
224,80,47368,1,0
176,80,47655,1,8
64,80,48229,5,0
64,176,48803,1,8
64,272,49377,1,0
112,240,49665,1,0
160,208,49952,1,8
256,208,50526,5,0
304,240,50813,1,0
352,272,51100,1,8
352,160,51674,1,0
352,112,51961,1,0
352,64,52248,1,8
240,64,52822,5,0
240,112,53110,1,0
240,160,53397,1,8
128,160,53971,5,0
128,208,54258,1,0
128,256,54545,1,0
128,304,54832,1,0
128,352,55119,1,4
272,208,56267,5,0
224,208,56555,1,0
224,160,56842,2,0,B|80:160|80:160|80:320|80:320|432:320|432:320|432:176,1,780,0|8
432,96,60861,5,0
384,96,61148,1,0
336,96,61435,2,0,B|96:96|96:96|336:192|336:192|96:192|96:192|208:240,1,845,0|8
240,240,65454,6,0,B|464:352|464:352|48:352|48:352|256:208|256:208|256:144,1,975,0|8
208,160,70047,6,0,B|32:160|32:160|144:16|144:16|208:112|208:112|320:0|320:0|432:144,1,780,0|8
448,160,73779,1,8
464,208,74066,1,2
256,208,93014,5,0
144,208,93588,1,0
32,208,94162,1,0
32,160,94449,1,0
32,112,94736,1,8
128,112,95311,5,0
128,208,95885,1,0
224,208,96459,1,0
224,160,96746,1,0
224,112,97033,1,8
320,112,97607,5,0
320,208,98181,1,0
416,208,98755,1,0
416,160,99043,1,0
416,112,99330,1,8
304,112,99904,5,0
192,112,100478,1,0
80,112,101052,1,0
80,160,101339,1,0
80,208,101626,1,8
176,208,102200,5,0
224,208,102488,1,0
272,208,102775,1,8
368,208,103349,5,0
416,208,103636,1,0
464,208,103923,1,8
464,96,104497,5,0
416,64,104784,1,0
368,96,105071,1,8
320,64,105358,1,0
272,96,105645,1,0
224,64,105933,1,0
176,96,106220,1,8
176,192,106794,5,0
240,176,111387,5,0
128,176,111961,1,0
240,176,112535,1,0
352,176,113110,1,0
240,176,113684,1,0
240,64,114258,1,0
208,160,114832,1,0
224,208,115119,1,0
208,256,115406,1,0
192,304,115693,1,2
208,352,115980,1,2
304,352,116555,5,0
304,240,117129,1,0
304,192,117416,1,0
304,144,117703,1,0
240,64,118277,1,0
240,112,118564,1,0
240,160,118851,1,0
240,208,119138,1,0
240,256,119425,1,0
240,304,119712,1,2
240,352,120000,1,2
320,272,120574,6,0,B|496:272|496:272|496:176|496:176|16:176|16:176|16:80|16:80|160:80,1,975,0|8
192,80,125167,1,8
256,208,128612,5,0
208,208,128899,1,0
160,208,129186,1,0
160,160,129473,1,2
160,112,129760,1,2
256,112,130334,1,0
256,208,130909,1,0
256,304,131483,1,0
256,208,132057,5,0
352,208,132631,1,0
256,208,133205,1,2
208,208,133492,1,2
160,208,133779,1,2
112,208,134066,1,2
64,208,134354,1,2
160,208,134928,5,0
256,208,135502,1,0
352,208,136076,1,0
352,96,136650,1,0
304,96,136937,1,0
256,96,137224,1,8
144,96,137799,1,0
96,96,138086,1,0
48,96,138373,1,8
48,192,138947,5,0
48,288,139521,1,8
144,288,140095,1,0
240,288,140669,1,8
336,288,141244,1,0
432,288,141818,1,8
432,176,142392,1,0
384,176,142679,1,0
336,176,142966,1,8
224,176,143540,5,0
112,176,144114,1,8
32,96,144688,1,0
128,96,145263,1,8
224,96,145837,1,0
320,96,146411,1,8
416,96,146985,1,0
416,144,147272,1,0
416,192,147559,1,4
304,192,148133,5,0
192,192,148708,1,8
80,192,149282,1,0
32,288,149856,1,8
128,288,150430,1,0
176,288,150717,1,0
224,288,151004,1,8
256,192,151578,1,0
256,80,152153,1,8
176,144,152727,2,0,B|144:32|144:32|304:32|304:32|144:352|144:352|304:352|304:352|272:224,1,910,0|2
352,176,157320,6,0,B|496:176,8,130,2|8|0|8|0|8|0|8|0
256,208,162488,1,8
144,208,163062,1,0
128,160,163349,1,0
128,112,163636,1,8
224,112,164210,1,0
320,112,164784,1,8
416,112,165358,5,0
368,144,165645,1,0
320,176,165933,1,0
272,208,166220,1,8
224,240,166507,1,4
