osu file format v5

[General]
AudioFilename: Nemesis Theory- Rose at Twilight FD.mp3
AudioLeadIn: 0
PreviewTime: -1
Countdown: 1
SampleSet: Normal
StackLeniency: 0.7
Mode: 0
LetterboxInBreaks: 1

[Editor]
DistanceSpacing: 0.800000011920929
BeatDivisor: 4
GridSize: 16

[Metadata]
Title:Rose at Twilight
Artist:Nemesis Theory
Creator:John12346
Version:Nightfall
Source:
Tags:

[Difficulty]
HPDrainRate:5
CircleSize:5
OverallDifficulty:5
SliderMultiplier:1.9
SliderTickRate:2

[Events]
//Background and Video events
//Break Periods
2,74266,91693
2,106993,110066
//Storyboard Layer 0 (Background)
Sprite,Background,Centre,"Background.png",320,240 M,0,0,,320,240 S,0,0,,1.344 F,0,0,11470,0,1 F,0,11470,163956,1 F,0,163956,163960,1 F,0,11470,166510,1 F,0,163960,166510,1,0 F,0,166510,166516,1,0 F,0,166516,,0
//Storyboard Layer 1 (Fail)
//Storyboard Layer 2 (Pass)
//Storyboard Layer 3 (Foreground)
Sprite,Foreground,Centre,"Background.png",320,240 F,0,8130,12460,0 S,0,8130,18330,1.008 F,0,12460,18330,0 F,0,18330,18720,0,0.472 S,0,18330,19190,1.008,1.32 F,0,18720,19190,0.472,0 S,0,19190,19278,1.32,0.9832745 F,0,19190,22408,0 S,0,19278,22408,0.9832745,1.015274 F,0,22408,22677,0,0.2559997 S,0,22408,23255,1.015274,1.335274 F,0,22677,23255,0.2559997,0 S,0,23255,23382,1.335274,0.9912744 F,0,23255,28088,0 S,0,23382,28088,0.9912744,0.9561516 F,0,28088,28468,0,0.3359999 S,0,28088,29038,0.9561516,1.343275 F,0,28468,29038,0.3359999,0 S,0,29038,29168,1.343275,0.9192746 F,0,29038,36758,0 S,0,29168,36758,0.9192746,0.9294915 F,0,36758,37158,0,0.292 S,0,36758,37648,0.9294915,1.279275 F,0,37158,37648,0.292,0 F,0,37648,,0 S,0,37648,37768,1.279275,0.9032745 F,0,37648,43663,0 S,0,37768,43663,0.9032745,0.9112745 F,0,43663,44013,0,0.24 S,0,43663,44543,0.9112745,1.311275 F,0,44013,44543,0.24,0 S,0,44543,44723,1.311275,0.9352745 F,0,44543,55143,0 S,0,44723,55143,0.9352745,0.9432745 F,0,55143,55503,0,0.34 S,0,55143,56003,0.9432745,1.223274 S,0,56003,56873,1.223274,0.9992744 S,0,56873,57703,0.9992744,1.327275 S,0,57703,58583,1.327275,0.9992746 S,0,58583,59423,0.9992746,1.359275 S,0,59423,60353,1.359275,1.015275 S,0,60353,61133,1.015275,1.311275 S,0,61133,62033,1.311275,1.015275 S,0,62033,63003,1.015275,1.287275 S,0,63003,63753,1.287275,0.9912747 S,0,63753,64593,0.9912747,1.327275 S,0,64593,65413,1.327275,1.007275 S,0,65413,66343,1.007275,1.359275 S,0,66343,67193,1.359275,1.015275 S,0,67193,68013,1.015275,1.375274 S,0,68013,68903,1.375274,1.015274 S,0,68903,69773,1.015274,1.335274 S,0,69773,70643,1.335274,0.9832741 S,0,70643,71443,0.9832741,1.455274 S,0,71443,72393,1.455274,1.055274 S,0,72393,73183,1.055274,1.399274 S,0,73183,74073,1.399274,0.8933452 F,0,55503,74185,0.34,0.2000002 F,0,74185,74715,0.2000002,0 S,0,74073,75133,0.8933452,1.693345 F,0,74715,106791,0 S,0,75133,106791,1.693345,0.981345 F,0,106791,107941,0,0.2399998 S,0,106791,107941,0.981345,1.501345 F,0,107941,108631,0.2399998,0 S,0,107941,109101,1.501345,1.141345 F,0,108631,166639,0 S,0,109101,166639,1.141345,0.954279 F,0,166639,167679,0,0.4040002 S,0,166639,168829,0.954279,1.661345 F,0,167679,168829,0.4040002,0
Sprite,Foreground,Centre,"Foreground.png",320,240 F,0,18337,18347,0,0.7920001 F,0,18347,18683,0.7920001,0 F,0,18683,22396,0 F,0,22396,22406,0,0.644 F,0,22406,22705,0.644,0 F,0,22705,24695,0 F,0,24695,24705,0,0.8120001 F,0,24705,25568,0.8120001,0 F,0,25568,27531,0 F,0,27531,27541,0,0.8079998 F,0,27541,28152,0.8079998,0 F,0,28152,29846,0 F,0,29846,29856,0,0.796 F,0,29856,30429,0.796,0 F,0,30429,32134,0 F,0,32134,32144,0,0.8520001 F,0,32144,32740,0.8520001,0 F,0,32740,34458,0 F,0,34458,34468,0,0.896 F,0,34468,35027,0.896,0 F,0,35027,36730,0 F,0,36730,36740,0,0.8080001 F,0,36740,37082,0.8080001,0 F,0,37082,40767,0 F,0,40767,40777,0,0.6280001 F,0,40777,41589,0.6280001,0 F,0,41589,43659,0 F,0,43659,43669,0,0.616 F,0,43669,44091,0.616,0 F,0,44091,45926,0 F,0,45926,45936,0,0.7000002 F,0,45936,46501,0.7000002,0 F,0,46501,48247,0 F,0,48247,48257,0,0.516 F,0,48257,48828,0.516,0 F,0,48828,50513,0 F,0,50513,50523,0,0.7800001 F,0,50523,51085,0.7800001,0 F,0,51085,52250,0 F,0,52250,52260,0,0.7879999 F,0,52260,53107,0.7879999,0 F,0,53107,55117,0 F,0,55117,55127,0 F,0,55127,56260,0 F,0,56260,56270,0,0.712 F,0,56270,57413,0.712,0 F,0,57413,65458,0 F,0,65458,65468,0,0.6520001 F,0,65468,66598,0.6520001,0 F,0,66598,74058,0 F,0,74058,74068,0,1 F,0,74068,76389,1,0 F,0,76389,92980,0 F,0,92980,93847,0 F,0,93847,93857,0,0.832 F,0,93857,94366,0.832,0 F,0,94366,95064,0 F,0,95064,95074,0,0.8080001 F,0,95074,95588,0.8080001,0 F,0,95588,96129,0 F,0,96129,96139,0 F,0,96139,96159,0,0.744 F,0,96159,96733,0.744,0 F,0,96733,97318,0 F,0,97318,97328,0,0.72 F,0,97328,97915,0.72,0 F,0,97915,98455,0 F,0,98455,98465,0,0.6720001 F,0,98465,99040,0.6720001,0 F,0,99040,99620,0 F,0,99620,99640,0,0.9000001 F,0,99640,100189,0.9000001,0 F,0,100189,100806,0 F,0,100806,100816,0,0.9080001 F,0,100816,101323,0.9080001,0 F,0,101323,101943,0 F,0,101943,101953,0,1 F,0,101953,102503,1,0 F,0,102503,103083,0 F,0,103083,103093,0,0.8480001 F,0,103093,103659,0.8480001,0 F,0,103659,104219,0 F,0,104219,104229,0,0.896 F,0,104229,104769,0.896,0 F,0,104769,105340,0 F,0,105340,105360,0,0.888 F,0,105360,105964,0.888,0 F,0,105964,106226,0 F,0,106226,106236,0,0.4359999 F,0,106236,106536,0.4359999,0 F,0,106536,106546,0,0.684 F,0,106546,106788,0.684,0 F,0,106788,106798,0,0.8000001 F,0,106798,107972,0.8000001,0 F,0,107972,111400,0 F,0,111400,111410,0,0.86 F,0,111410,112521,0.86,0 F,0,112521,115969,0 F,0,115969,115979,0,0.7079999 F,0,115979,117123,0.7079999,0 F,0,117123,120564,0 F,0,120564,120574,0,0.764 F,0,120574,121744,0.764,0 F,0,121744,125154,0 F,0,125154,125164,0,0.8199999 F,0,125164,126311,0.8199999,0 F,0,126311,129746,0 F,0,129746,129756,0,0.632 F,0,129756,130334,0.632,0 F,0,130334,134040,0 F,0,134040,134050,0,0.5919999 F,0,134050,134204,0.5919999,0 F,0,134204,134214,0,0.6840001 F,0,134214,134339,0.6840001,0 F,0,134339,134359,0,0.8240001 F,0,134359,135530,0.8240001,0 F,0,135530,138952,0 F,0,138952,138962,0,0.684 F,0,138962,140111,0.684,0 F,0,140111,152744,0 F,0,152744,152754,0,0.9119999 F,0,152754,153844,0.9119999,0 F,0,153844,157308,0 F,0,157308,157318,0,0.7680002 F,0,157318,158498,0.7680002,0 F,0,158498,161903,0 F,0,161903,161948,0,0.816 F,0,161948,163049,0.816,0 F,0,163049,166518,0 F,0,166518,166559,0,1 F,0,166559,166868,1 F,0,166868,167960,1,0
//Storyboard Sound Samples
//Background Colour Transformations
3,100,0,0,0

[TimingPoints]
0,574.162679425837,4,1,0,39,1,0
18362,-100,4,1,0,39,0,1
36717,-100,4,1,0,39,0,0
148115,-100,4,1,0,39,0,1
166665,-100,4,1,0,39,0,0

[Colours]
Combo1 : 128,0,0
Combo2 : 0,128,0
Combo3 : 0,0,128

[HitObjects]
256,208,18373,1,0
96,208,18947,1,0
96,48,19521,1,0
176,48,19808,1,0
208,48,19952,1,0
288,48,20239,1,8
384,96,20669,1,0
384,176,20956,1,0
384,208,21100,1,0
384,288,21387,1,0
352,320,21531,1,8
128,320,22392,5,0
112,288,22535,1,0
112,256,22679,1,0
112,224,22822,1,0
112,192,22966,1,0
192,192,23253,1,0
256,160,23540,1,0
288,192,23684,1,0
320,160,23827,1,0
352,192,23971,1,0
352,272,24258,1,0
352,304,24401,1,2
272,304,24688,5,0
240,304,24832,1,0
208,304,24976,1,0
128,304,25263,1,0
64,208,25693,1,0
160,144,26124,1,0
256,208,26555,1,0
352,160,26985,1,0
368,192,27129,1,0
352,224,27272,1,0
368,256,27416,1,0
352,288,27559,1,4
240,336,27990,5,0
256,224,28421,1,8
240,112,28851,1,0
160,32,29282,1,8
112,80,29569,1,8
64,128,29856,1,2
64,240,30287,5,0
160,304,30717,1,0
256,240,31148,1,0
352,304,31578,1,8
384,240,31866,1,8
416,176,32153,1,2
416,64,32583,1,2
304,64,33014,1,2
192,64,33444,1,2
80,64,33875,1,8
96,96,34019,1,8
80,128,34162,1,8
96,160,34306,1,8
80,192,34449,1,4
144,240,34736,5,0
208,288,35023,1,0
240,256,35167,1,0
272,288,35311,1,0
304,256,35454,1,2
368,288,35741,1,2
400,224,36028,1,2
384,192,36172,1,2
400,160,36315,1,2
384,128,36459,1,2
400,96,36602,1,2
384,64,36746,5,0
224,80,37320,1,8
64,80,37894,1,0
64,160,38181,1,0
64,192,38325,1,0
64,272,38612,1,2
160,336,39043,1,8
240,336,39330,1,8
272,336,39473,1,8
352,336,39760,1,8
384,336,39904,1,2
336,112,40765,5,0
304,96,40909,1,0
272,112,41052,1,0
240,96,41196,1,0
208,112,41339,1,0
128,112,41626,1,0
128,192,41913,1,0
112,224,42057,1,0
128,256,42200,1,0
112,288,42344,1,2
176,336,42631,1,2
208,320,42775,1,2
288,336,43062,1,0
320,320,43205,1,0
352,336,43349,1,4
400,288,43636,5,0
400,176,44066,1,0
288,176,44497,1,0
176,176,44928,1,0
128,272,45358,1,0
160,288,45502,1,0
192,272,45645,1,0
224,288,45789,1,0
256,272,45933,5,2
368,288,46363,1,2
384,176,46794,1,2
352,64,47224,1,0
240,64,47655,1,8
160,64,47942,1,8
80,64,48229,5,2
48,176,48660,1,2
80,288,49090,1,2
192,288,49521,1,0
304,288,49952,1,8
336,224,50239,1,8
304,160,50526,1,2
192,160,50956,1,2
192,272,51387,1,2
304,272,51818,1,2
320,160,52248,5,0
288,160,52392,1,0
256,160,52535,1,0
224,160,52679,1,0
192,160,52822,1,2
112,160,53110,1,2
112,240,53397,1,0
144,256,53540,1,0
176,240,53684,1,0
208,256,53827,1,0
288,256,54114,1,0
352,224,54401,5,0
368,192,54545,1,0
352,160,54688,1,0
368,128,54832,1,0
352,96,54976,1,0
368,64,55119,2,0,B|64:64|64:64|64:80,1,285,4|0
80,112,56124,1,0
80,144,56267,2,0,B|240:288|240:288|320:208,1,285,2|0
320,208,57272,1,0
336,192,57416,2,0,B|176:48|176:48|112:112,1,285,2|0
128,128,58421,5,0
128,160,58564,2,0,B|128:352|128:352|256:352,1,285,2|0
256,352,59569,1,0
304,352,59712,2,0,B|304:160|304:160|192:160,1,285,2|0
176,128,60717,1,0
160,96,60861,2,0,B|448:96,1,285,2|0
432,128,61866,1,0
400,160,62009,2,0,B|96:160,1,285,2|0
80,176,63014,1,0
64,208,63157,2,0,B|256:352|256:352|448:208|448:208|256:208,1,665,2|4
176,208,65454,6,0,B|16:80|16:80|128:80,1,285
128,80,66459,1,0
160,80,66602,2,0,B|464:80,1,285,2|0
432,112,67607,1,0
416,144,67751,2,0,B|208:368,1,285,2|0
176,352,68755,1,0
144,352,68899,2,0,B|16:352|16:352|16:272|16:272|128:272,1,285,2|0
128,272,69904,1,0
160,272,70047,2,0,B|160:192|160:192|16:192|16:192|16:128,1,285,2|0
80,96,71196,2,0,B|240:96|240:96|240:256,1,285
240,288,72344,2,0,B|400:208|400:208|240:128,1,332.5
192,144,73636,1,2
160,144,73779,1,2
160,176,73923,1,2
160,208,74066,1,6
256,208,93014,5,0
176,208,93301,1,0
96,208,93588,1,0
96,128,93875,1,2
96,48,94162,1,0
176,48,94449,1,0
256,48,94736,1,0
256,128,95023,1,2
256,208,95311,5,0
336,208,95598,1,0
416,208,95885,1,0
416,128,96172,1,2
416,48,96459,1,0
336,48,96746,1,0
256,48,97033,1,0
256,128,97320,1,2
256,208,97607,5,0
336,208,97894,1,0
416,208,98181,1,0
416,288,98468,1,2
416,368,98755,1,0
336,368,99043,1,0
256,368,99330,1,0
256,288,99617,1,2
256,208,99904,5,0
176,208,100191,1,0
96,208,100478,1,0
96,288,100765,1,2
96,368,101052,1,0
176,368,101339,1,0
256,368,101626,1,0
256,288,101913,1,2
256,208,102200,5,0
208,256,102488,1,0
160,304,102775,1,0
160,224,103062,1,2
160,144,103349,1,0
160,64,103636,1,0
208,112,103923,1,0
256,160,104210,1,2
304,208,104497,5,0
352,256,104784,1,0
400,304,105071,1,0
400,224,105358,1,2
400,144,105645,1,0
400,64,105933,1,0
352,112,106220,1,2
304,160,106507,1,2
256,208,106794,5,6
48,208,111387,5,0
144,96,111961,1,0
256,208,112535,1,0
368,320,113110,1,0
464,208,113684,1,0
368,96,114258,1,8
208,96,114832,1,8
144,128,115119,1,8
208,160,115406,1,8
272,192,115693,1,2
208,224,115980,5,2
48,224,116555,1,0
160,320,117129,1,0
272,224,117703,1,0
384,320,118277,1,0
496,224,118851,1,8
384,112,119425,1,8
304,112,119712,1,8
224,112,120000,1,8
144,112,120287,1,2
64,112,120574,5,2
64,256,121148,1,0
208,256,121722,1,0
208,96,122296,1,0
48,96,122870,1,0
48,240,123444,1,8
192,240,124019,1,8
272,240,124306,1,8
352,240,124593,1,8
432,240,124880,1,2
432,160,125167,5,2
336,32,125741,1,0
192,80,126315,1,0
336,128,126889,1,0
192,192,127464,1,0
336,240,128038,1,8
192,256,128612,1,8
256,304,128899,1,8
320,256,129186,1,8
256,208,129473,1,2
320,160,129760,2,0,B|176:304,7,190,2|0|0|0|0|0|0|0
192,224,134066,5,2
208,176,134210,1,2
256,192,134354,2,0,B|144:304|144:304|32:192|32:192|176:48|176:48|400:272|400:272|496:176|496:176|384:64|384:64|304:144|304:144|160:0,1,1425,2|2
144,32,138803,1,2
128,64,138947,2,0,B|288:240|464:48,3,380,2|0|0|0
480,176,142822,1,2
400,256,143253,1,2
256,192,143540,12,0,148133
368,208,148564,5,8
256,208,148995,1,8
176,208,149282,1,8
176,96,149712,1,8
288,96,150143,1,8
368,96,150430,1,8
448,176,150861,1,8
384,80,151291,1,8
320,128,151578,1,8
288,128,151722,1,8
256,128,151866,1,2
224,128,152009,1,2
192,128,152153,1,2
112,128,152440,5,2
96,160,152583,1,2
96,192,152727,1,2
96,336,153157,1,8
208,336,153588,1,8
288,336,153875,1,8
368,240,154306,1,8
256,240,154736,1,8
176,240,155023,1,8
112,144,155454,1,8
224,128,155885,1,8
304,128,156172,1,2
320,160,156315,1,2
352,160,156459,1,2
384,160,156602,1,2
416,160,156746,1,2
448,160,156889,1,2
464,192,157033,1,2
464,224,157177,1,2
432,240,157320,5,0
320,240,157751,1,8
208,240,158181,1,8
128,240,158468,1,2
48,160,158899,1,2
128,80,159330,1,8
208,96,159617,1,8
320,96,160047,1,2
432,96,160478,1,2
432,176,160765,1,2
432,288,161196,1,2
320,288,161626,1,8
240,288,161913,5,8
144,208,162344,1,8
256,208,162775,1,8
336,208,163062,1,8
400,112,163492,1,2
288,112,163923,1,8
208,112,164210,1,8
96,112,164641,1,8
96,224,165071,1,8
144,288,165358,1,2
176,272,165502,1,2
208,256,165645,1,2
240,240,165789,1,2
272,224,165933,1,2
304,208,166076,1,2
336,192,166220,1,2
368,176,166363,1,2
400,160,166507,1,14
