osu file format v14

[General]
AudioFilename: [Kagamine Rin, Len x GUMI] First Love Academy - School of True Love.mp3
AudioLeadIn: 0
PreviewTime: 57735
Countdown: 0
SampleSet: Soft
StackLeniency: 0.7
Mode: 0
LetterboxInBreaks: 0
WidescreenStoryboard: 0

[Editor]
Bookmarks: 12480,23841,35202,46563,57924,69285,80646,89522,100528,111889,123250,134611,143131,163368,175084,188575,199936,209167,219818,231001
DistanceSpacing: 1
BeatDivisor: 4
GridSize: 4
TimelineZoom: 1.3

[Metadata]
Title:First Love Academy * School of True Love
TitleUnicode:初恋学園・純愛科
Artist:Nem
ArtistUnicode:Nem
Creator:Xierra
Version:Tryhard Love
Source:
Tags:Vocaloid Vocaloid2 Kagamine Rin Len Megpoid GUMI Matoryoshika Skydevil Frans_Niko Niko-nyan
BeatmapID:220921
BeatmapSetID:53101

[Difficulty]
HPDrainRate:5
CircleSize:4
OverallDifficulty:5
ApproachRate:7
SliderMultiplier:1.7
SliderTickRate:2

[Events]
//Background and Video events
Video,0,"Video.avi"
0,0,"BG.jpg",0,0
//Break Periods
2,80846,88622
2,163213,172764
//Storyboard Layer 0 (Background)
//Storyboard Layer 1 (Fail)
//Storyboard Layer 2 (Pass)
//Storyboard Layer 3 (Foreground)
//Storyboard Sound Samples

[TimingPoints]
1120,355.029585798817,4,1,0,80,1,0
11770,-100,4,1,0,80,0,0
17628,-149.253731343284,4,1,0,80,0,0
18516,-100,4,1,0,80,0,0
24196,-100,4,2,0,80,0,0
46563,-133.333333333333,4,2,0,80,0,0
47806,-100,4,2,0,80,0,0
49226,-133.333333333333,4,2,0,80,0,0
53486,-100,4,2,0,80,0,0
55084,-133.333333333333,4,2,0,80,0,0
56682,-100,4,2,0,80,0,0
57924,-100,4,1,0,80,0,1
77806,-100,4,1,0,80,0,0
80646,-100,4,1,0,5,0,0
89522,-100,4,2,0,80,0,0
111889,-133.333333333333,4,2,0,80,0,0
113131,-100,4,2,0,80,0,0
114551,-133.333333333333,4,2,0,80,0,0
118812,-100,4,2,0,80,0,0
120409,-133.333333333333,4,2,0,80,0,0
122007,-100,4,2,0,80,0,0
123250,-100,4,1,0,80,0,1
143131,-100,4,1,0,80,0,0
143309,-100,4,1,0,50,0,0
174374,-100,4,1,0,80,0,0
174906,-100,4,2,0,80,0,0
187155,-100,4,2,0,50,0,0
187333,-100,4,2,0,70,0,0
187865,-100,4,2,0,100,0,0
188220,-100,4,2,0,80,0,0
188575,-100,4,1,0,80,0,1
207747,-100,4,1,0,80,0,1
208279,-100,4,1,0,80,0,0
208457,-100,4,1,0,80,0,1
228338,-100,4,1,0,80,0,0

[Colours]
Combo1 : 200,200,200
Combo2 : 240,210,10
Combo3 : 255,129,45
Combo4 : 95,192,89
Combo5 : 29,118,40
Combo6 : 255,180,240
Combo7 : 255,170,85
Combo8 : 125,125,125

[HitObjects]
88,192,11770,102,0,L|36:192,4,42.5
176,316,12480,6,0,P|256:336|340:316,1,170,4|8,0:0|0:0,0:0:0:0:
408,268,13013,1,0,0:0:0:0:
448,192,13191,1,0,0:0:0:0:
408,116,13368,2,0,L|356:44,1,85,0|8,0:0|0:0,0:0:0:0:
280,76,13723,2,0,P|284:140|192:160,2,170,2|2|2,0:0|0:0|0:0,0:0:0:0:
88,292,14788,101,0,0:0:0:0:
148,352,14966,1,8,0:0:0:0:
208,292,15143,1,0,0:0:0:0:
148,232,15321,2,0,L|148:132,1,85
208,88,15676,1,8,0:0:0:0:
268,148,15853,2,0,P|332:196|396:144,1,170
468,104,16386,1,8,0:0:0:0:
468,104,16563,2,0,P|404:57|336:100,2,170,2|2|2,0:0|0:0|0:0,0:0:0:0:
448,264,17628,6,2,B|432:256|432:256|416:264|416:264|400:256|400:256|384:264|384:264|364:256|364:256|348:264|348:264|332:256|332:256|312:264|312:264|296:256|296:256|280:264,1,170.849991918412,2|6,0:0|0:0,0:0:0:0:
156,192,18516,102,0,L|96:264,2,85,8|0|0,0:0|0:0|0:0,0:0:0:0:
204,120,19048,2,0,L|260:52,1,85,0|8,0:0|0:0,0:0:0:0:
328,104,19404,2,0,P|324:184|240:200,2,170,2|2|2,0:0|0:0|0:0,0:0:0:0:
176,176,20469,21,0,0:0:0:0:
132,104,20646,1,8,0:0:0:0:
172,28,20824,1,0,0:0:0:0:
269,262,21179,21,0,0:0:0:0:
224,332,21356,1,8,0:0:0:0:
140,348,21534,1,0,0:0:0:0:
298,131,21889,21,0,0:0:0:0:
384,130,22066,1,8,0:0:0:0:
440,194,22244,1,0,0:0:0:0:
256,192,22421,12,4,23841,0:0:0:0:
100,192,24196,53,2,0:0:0:0:
196,332,24551,2,0,P|256:276|256:176,1,170,0|2,0:0|0:0,0:0:0:0:
348,192,25084,2,0,P|354:275|414:331,2,170,0|2|0,0:0|0:0|0:0,0:0:0:0:
288,128,25972,1,0,0:0:0:0:
212,88,26149,1,0,0:0:0:0:
136,128,26327,5,2,0:0:0:0:
68,180,26504,2,0,P|32:244|108:248,1,170
184,280,27037,101,2,0:0:0:0:
240,216,27214,2,0,P|276:152|200:148,1,170
128,120,27747,5,2,0:0:0:0:
128,120,27924,2,0,L|188:304,1,170
252,328,28457,1,2,0:0:0:0:
336,328,28634,1,0,0:0:0:0:
428,184,28989,2,0,L|452:88,2,85,0|2|2,0:0|0:0|0:0,0:0:0:0:
408,268,29522,1,4,0:0:0:0:
120,88,29877,102,0,L|170:156,1,85,2|0,0:0|0:0,0:0:0:0:
172,240,30232,2,0,L|96:320,2,85,0|0|2,0:0|0:0|0:0,0:0:0:0:
248,200,30764,2,0,L|420:200,2,170,0|2|0,0:0|0:0|0:0,0:0:0:0:
160,200,31652,1,0,0:0:0:0:
88,336,32007,5,2,0:0:0:0:
88,336,32185,2,0,P|168:356|264:328,1,170
416,336,32717,101,2,0:0:0:0:
415,335,32895,2,0,P|335:315|239:343,1,170
216,268,33427,5,2,0:0:0:0:
200,184,33605,1,0,0:0:0:0:
152,116,33782,1,0,0:0:0:0:
92,56,33960,2,0,P|48:48|4:56,2,85,0|2|0,0:0|0:0|0:0,0:0:0:0:
260,64,34670,69,0,0:0:0:0:
324,120,34847,1,8,0:0:0:0:
328,124,34936,1,8,0:0:0:0:
332,128,35025,1,8,0:0:0:0:
336,132,35114,1,8,0:0:0:0:
340,136,35202,1,4,0:0:0:0:
424,284,35557,21,8,0:0:0:0:
360,340,35735,1,0,0:0:0:0:
296,284,35912,2,0,L|180:284,1,85
148,340,36267,1,8,0:0:0:0:
84,284,36445,2,0,P|52:208|92:116,1,170
144,72,36977,1,8,0:0:0:0:
208,128,37155,2,0,P|235:207|203:283,1,170,8|0,0:0|0:0,0:0:0:0:
280,320,37688,5,8,0:0:0:0:
360,292,37865,2,0,P|436:256|436:164,1,170
380,124,38398,1,8,0:0:0:0:
364,208,38575,2,0,P|288:244|288:336,1,170
196,304,39108,101,8,0:0:0:0:
120,292,39285,2,0,P|72:280|40:232,1,85
120,212,39640,1,0,0:0:0:0:
152,132,39818,1,8,0:0:0:0:
100,64,39995,2,0,P|176:44|232:120,1,170,8|0,0:0|0:0,0:0:0:0:
276,180,40528,1,8,0:0:0:0:
316,104,40705,1,8,0:0:0:0:
356,28,40883,1,4,0:0:0:0:
396,192,41238,6,0,P|444:168|444:128,2,85,8|0|0,0:0|0:0|0:0,0:0:0:0:
360,268,41770,2,0,P|312:292|312:332,1,85,0|8,0:0|0:0,0:0:0:0:
224,316,42125,2,0,L|48:316,1,170
84,236,42658,1,8,0:0:0:0:
52,156,42835,2,0,L|222:156,1,170,8|0,0:0|0:0,0:0:0:0:
300,196,43368,101,8,0:0:0:0:
344,124,43546,2,0,P|408:128|468:28,1,170
384,52,44078,1,8,0:0:0:0:
424,128,44256,2,0,P|456:208|412:300,1,170
368,328,44788,1,8,0:0:0:0:
312,276,44966,2,0,P|284:200|316:120,1,170
284,52,45498,86,0,L|188:52,1,85,8|0,0:0|0:0,0:0:0:0:
152,124,45853,2,0,L|237:124,1,85,8|0,0:0|0:0,0:0:0:0:
192,196,46208,2,0,L|100:196,1,85,8|0,0:0|0:0,0:0:0:0:
12,196,46563,86,0,P|0:260|16:332,1,127.500004863739,4|2,0:0|0:0,0:0:0:0:
64,348,47096,1,0,0:0:0:0:
120,364,47273,2,0,P|156:372|196:360,2,63.7500024318696,0|0|2,0:0|0:0|0:0,0:0:0:0:
148,284,47806,5,0,0:0:0:0:
256,152,48161,1,2,0:0:0:0:
368,280,48516,1,0,0:0:0:0:
256,152,48871,1,2,0:0:0:0:
200,36,49226,102,0,L|104:128,1,127.500004863739,4|0,0:0|0:0,0:0:0:0:
68,176,49759,1,2,0:0:0:0:
28,228,49936,2,0,P|88:244|132:176,1,127.500004863739,0|2,0:0|0:0,0:0:0:0:
248,252,50646,6,0,B|264:192|264:192|324:165,1,127.500004863739,0|2,0:0|0:0,0:0:0:0:
360,216,51179,1,0,0:0:0:0:
396,164,51356,1,2,0:0:0:0:
432,112,51534,2,0,L|476:52,2,63.7500024318696,0|0|2,0:0|0:0|0:0,0:0:0:0:
316,56,52244,102,0,L|228:156,1,127.500004863739,4|2,0:0|0:0,0:0:0:0:
196,204,52776,1,0,0:0:0:0:
160,152,52954,2,0,L|116:96,2,63.7500024318696,0|0|2,0:0|0:0|0:0,0:0:0:0:
196,204,53486,5,0,0:0:0:0:
332,304,53841,1,2,0:0:0:0:
332,136,54196,1,0,0:0:0:0:
196,204,54551,1,2,0:0:0:0:
152,40,54906,5,2,0:0:0:0:
152,40,55084,2,0,L|76:40,2,63.7500024318696,0|0|2,0:0|0:0|0:0,0:0:0:0:
144,104,55617,2,0,P|204:84|212:16,1,127.500004863739
280,28,56149,2,0,L|216:28,1,63.7500024318696,2|0,0:0|0:0,0:0:0:0:
148,184,56682,85,0,0:0:0:0:
108,248,56859,1,2,0:0:0:0:
184,248,57037,1,0,0:0:0:0:
64,312,57214,2,0,P|148:328|252:300,1,170,4|4,0:0|0:0,0:0:0:0:
396,272,57924,54,2,P|356:208|248:160,1,170,4|8,0:0|0:0,0:0:0:0:
188,164,58457,1,2,0:0:0:0:
56,272,58812,2,0,P|112:336|200:328,1,170,2|2,0:0|0:0,0:0:0:0:
148,260,59344,1,0,0:0:0:0:
232,244,59522,2,0,L|316:228,2,85,2|8|2,0:0|0:0|0:0,0:0:0:0:
316,96,60232,5,0,0:0:0:0:
260,36,60409,1,8,0:0:0:0:
196,92,60587,1,0,0:0:0:0:
132,36,60764,2,2,P|76:108|112:192,1,170,0|8,0:0|0:0,0:0:0:0:
60,318,61297,2,2,P|116:246|80:162,1,170,0|0,0:0|0:0,0:0:0:0:
36,240,61830,1,8,0:0:0:0:
96,177,62007,2,0,L|297:179,1,170,2|2,0:0|0:0,0:0:0:0:
332,232,62540,1,8,0:0:0:0:
308,304,62717,2,0,P|380:288|404:204,1,170,2|2,0:0|0:0,0:0:0:0:
384,120,63250,1,8,0:0:0:0:
300,120,63427,101,0,0:0:0:0:
272,148,63516,1,0,0:0:0:0:
244,176,63605,2,0,L|123:295,1,170,4|8,0:0|0:0,0:0:0:0:
192,344,64137,2,0,P|268:336|292:248,1,170,0|8,0:0|0:0,0:0:0:0:
376,228,64670,1,0,0:0:0:0:
312,172,64847,5,8,0:0:0:0:
232,200,65025,2,0,L|52:200,1,170,0|8,0:0|0:0,0:0:0:0:
60,116,65557,2,0,P|128:74|200:120,1,170,0|8,0:0|0:0,0:0:0:0:
296,256,66267,101,8,0:0:0:0:
364,304,66445,2,2,P|296:348|224:284,1,170,2|8,0:0|0:0,0:0:0:0:
228,220,66977,2,2,P|296:176|364:224,1,170,2|2,0:0|0:0,0:0:0:0:
408,292,67510,2,0,L|456:364,2,85,8|0|2,0:0|0:0|0:0,0:0:0:0:
372,128,68220,2,0,L|312:192,1,85,8|0,0:0|0:0,0:0:0:0:
192,188,68575,2,0,L|251:126,1,85,2|0,0:0|0:0,0:0:0:0:
128,128,68930,54,0,L|68:192,1,85,8|0,0:0|0:0,0:0:0:0:
28,264,69285,2,2,P|28:332|116:372,1,170,6|8,0:0|0:0,0:0:0:0:
124,268,69818,2,0,P|207:309|207:377,1,170,2|2,0:0|0:0,0:0:0:0:
288,348,70350,1,8,0:0:0:0:
368,380,70528,2,0,P|368:312|451:270,1,170,2|2,0:0|0:0,0:0:0:0:
420,192,71060,1,8,0:0:0:0:
392,112,71238,1,2,0:0:0:0:
224,88,71593,5,0,0:0:0:0:
164,28,71770,1,8,0:0:0:0:
104,88,71948,1,0,0:0:0:0:
44,28,72125,2,2,P|28:112|92:168,1,170,2|8,0:0|0:0,0:0:0:0:
168,168,72658,2,2,L|352:168,1,170
424,168,73191,1,8,0:0:0:0:
464,307,73368,2,2,P|480:223|416:167,1,170,2|0,0:0|0:0,0:0:0:0:
404,252,73901,1,8,0:0:0:0:
380,332,74078,1,2,0:0:0:0:
212,304,74433,102,0,P|180:280|164:236,1,85,2|8,0:0|0:0,0:0:0:0:
92,192,74788,1,0,0:0:0:0:
108,152,74877,1,0,0:0:0:0:
136,128,74966,2,0,B|184:116|208:144|208:144|228:184|260:184|280:144|280:144|304:116|352:128,2,255,4|0|8,0:0|0:0|0:0,0:0:0:0:
184,248,76386,2,0,B|188:288|244:300|244:300|300:288|303:249,1,170,4|8,0:0|0:0,0:0:0:0:
116,276,77096,2,0,B|144:360|244:372|244:372|344:360|372:276,1,340,0|4,0:0|0:0,0:0:0:0:
256,192,77983,12,4,80646,0:0:0:0:
48,92,89522,85,2,0:0:0:0:
100,148,89699,1,0,0:0:0:0:
152,92,89877,1,2,0:0:0:0:
100,236,90232,1,0,0:0:0:0:
164,292,90409,2,0,P|232:336|300:288,1,170,2|0,0:0|0:0,0:0:0:0:
236,236,90942,1,2,0:0:0:0:
236,236,91120,2,0,L|300:172,1,85,0|2,0:0|0:0,0:0:0:0:
396,312,91652,5,0,0:0:0:0:
456,252,91830,1,2,0:0:0:0:
456,84,92185,2,0,B|496:68|496:68|496:16,2,85,0|2|0,0:0|0:0|0:0,0:0:0:0:
288,84,92895,2,0,B|248:100|248:100|248:152,2,85,0|2|0,0:0|0:0|0:0,0:0:0:0:
368,232,93605,2,0,B|368:273|368:273|328:289,1,85,0|2,0:0|0:0,0:0:0:0:
248,320,93960,2,0,B|168:344|168:344|64:308,1,170,0|2,0:0|0:0,0:0:0:0:
20,264,94492,1,0,0:0:0:0:
88,212,94670,2,0,L|88:156,2,42.5,2|0|4,0:0|0:0|0:0,0:0:0:0:
188,88,95202,101,2,0:0:0:0:
248,28,95380,1,0,0:0:0:0:
308,88,95557,2,0,P|376:100|420:196,1,170,2|0,0:0|0:0,0:0:0:0:
440,268,96090,2,0,P|372:256|328:160,2,170,2|0|0,0:0|0:0|0:0,0:0:0:0:
496,332,96977,1,2,0:0:0:0:
120,324,97333,5,0,0:0:0:0:
44,324,97510,2,0,P|116:240|192:336,1,255,2|0,0:0|0:0,0:0:0:0:
194,323,98220,2,0,P|266:239|342:335,1,255,2|0,0:0|0:0,0:0:0:0:
268,324,98930,1,2,0:0:0:0:
344,188,99285,2,0,P|380:216|404:256,2,85,2|0|2,0:0|0:0|0:0,0:0:0:0:
272,144,99818,37,8,0:0:0:0:
196,108,99995,1,8,0:0:0:0:
120,144,100173,1,8,0:0:0:0:
92,176,100262,1,8,0:0:0:0:
76,216,100350,1,8,0:0:0:0:
108,296,100528,86,0,P|172:340|252:292,1,170,4|8,0:0|0:0,0:0:0:0:
284,224,101060,1,0,0:0:0:0:
320,300,101238,2,0,P|384:340|464:296,1,170,0|8,0:0|0:0,0:0:0:0:
392,252,101770,2,0,L|392:72,1,170
320,36,102303,1,8,0:0:0:0:
320,120,102480,2,0,L|224:120,1,85,8|0,0:0|0:0,0:0:0:0:
80,192,103013,5,8,0:0:0:0:
128,264,103191,2,0,B|180:332|180:332|248:252,1,170
256,184,103723,1,8,0:0:0:0:
376,272,103901,2,0,B|322:337|322:337|270:269,1,170
256,184,104433,1,8,0:0:0:0:
184,140,104611,2,0,P|256:100|328:144,1,170
260,188,105143,1,8,0:0:0:0:
264,192,105321,2,0,P|332:236|404:184,1,170,8|0,0:0|0:0,0:0:0:0:
456,132,105853,1,8,0:0:0:0:
400,64,106031,1,8,0:0:0:0:
344,128,106208,1,4,0:0:0:0:
188,64,106563,102,0,P|140:64|112:88,1,85,8|0,0:0|0:0,0:0:0:0:
48,140,106918,2,0,P|20:204|56:300,1,170,0|8,0:0|0:0,0:0:0:0:
112,352,107451,2,0,P|196:376|284:344,1,170
340,304,107983,1,8,0:0:0:0:
392,236,108161,1,8,0:0:0:0:
236,36,108693,5,8,0:0:0:0:
320,36,108871,2,0,P|372:92|312:152,1,170
236,152,109404,1,8,0:0:0:0:
152,152,109581,2,0,P|100:92|152:36,1,170
236,36,110114,1,8,0:0:0:0:
236,40,110291,2,0,L|236:240,1,170
236,296,110824,5,8,0:0:0:0:
320,300,111001,1,0,0:0:0:0:
348,268,111090,1,0,0:0:0:0:
352,224,111179,1,8,0:0:0:0:
348,140,111356,2,0,P|392:148|420:180,2,85,0|8|0,0:0|0:0|0:0,0:0:0:0:
284,196,111889,54,0,P|252:140|296:84,1,127.500004863739,4|2,0:0|0:0,0:0:0:0:
336,60,112421,1,0,0:0:0:0:
280,28,112599,2,0,L|208:28,2,63.7500024318696,0|0|2,0:0|0:0|0:0,0:0:0:0:
336,60,113131,5,0,0:0:0:0:
244,204,113486,1,2,0:0:0:0:
156,60,113841,1,0,0:0:0:0:
68,204,114196,1,2,0:0:0:0:
160,344,114551,101,4,0:0:0:0:
160,344,114729,2,0,P|208:344|256:284,1,127.500004863739,0|2,0:0|0:0,0:0:0:0:
184,276,115262,2,0,P|208:232|280:220,2,127.500004863739,0|2|0,0:0|0:0|0:0,0:0:0:0:
304,320,116327,2,0,P|328:344|364:356,2,63.7500024318696,0|2|0,0:0|0:0|0:0,0:0:0:0:
260,276,116859,2,0,P|236:248|207:239,1,63.7500024318696
148,236,117214,1,2,0:0:0:0:
184,184,117392,1,2,0:0:0:0:
232,144,117569,22,0,P|364:128|424:224,1,255.000009727478,4|0,0:0|0:0,0:0:0:0:
392,276,118457,1,0,0:0:0:0:
344,316,118634,1,2,0:0:0:0:
284,332,118812,5,0,0:0:0:0:
160,216,119167,1,2,0:0:0:0:
284,100,119522,1,0,0:0:0:0:
408,216,119877,1,2,0:0:0:0:
284,100,120232,101,0,0:0:0:0:
284,100,120410,2,0,P|216:100|192:44,1,127.500004863739,0|2,0:0|0:0,0:0:0:0:
256,44,120942,2,0,P|324:44|348:91,2,127.500004863739,0|2|0,0:0|0:0|0:0,0:0:0:0:
280,212,122007,6,0,P|308:240|352:260,2,85,2|0|2,0:0|0:0|0:0,0:0:0:0:
248,292,122540,2,0,P|228:264|176:244,1,85,4|0,0:0|0:0,0:0:0:0:
96,240,122895,1,4,0:0:0:0:
140,168,123073,1,2,0:0:0:0:
184,96,123250,70,2,P|316:80|376:176,1,255.000009727478,6|2,0:0|0:0,0:0:0:0:
204,176,124138,1,2,0:0:0:0:
280,212,124315,1,8,0:0:0:0:
272,128,124492,2,0,P|304:64|392:72,1,170,2|2,0:0|0:0,0:0:0:0:
432,148,125025,1,8,0:0:0:0:
348,148,125202,1,2,0:0:0:0:
216,252,125557,5,0,0:0:0:0:
244,172,125735,1,8,0:0:0:0:
160,188,125912,1,0,0:0:0:0:
128,268,126090,2,2,P|156:328|256:352,1,170,2|8,0:0|0:0,0:0:0:0:
336,352,126622,2,2,P|416:335|458:263,1,170,2|10,0:0|0:0,0:0:0:0:
304,188,127333,1,2,0:0:0:0:
196,56,127688,1,2,0:0:0:0:
112,56,127865,1,8,0:0:0:0:
152,132,128043,2,0,P|120:208|152:284,1,170,2|2,0:0|0:0,0:0:0:0:
152,284,128575,1,8,0:0:0:0:
220,232,128753,101,8,0:0:0:0:
252,204,128842,1,8,0:0:0:0:
284,176,128930,1,4,0:0:0:0:
176,48,129285,2,0,L|84:48,2,85,8|0|0,0:0|0:0|0:0,0:0:0:0:
260,48,129818,1,8,0:0:0:0:
376,172,130173,1,8,0:0:0:0:
376,256,130351,2,0,L|376:340,2,85,0|0|8,0:0|0:0|0:0,0:0:0:0:
300,220,130883,2,0,L|124:220,1,170,0|8,0:0|0:0,0:0:0:0:
12,96,131593,5,8,0:0:0:0:
16,100,131770,2,2,P|88:148|148:92,1,170,2|8,0:0|0:0,0:0:0:0:
188,176,132303,2,2,P|244:131|316:179,1,170
400,160,132835,1,8,0:0:0:0:
484,160,133013,1,0,0:0:0:0:
444,236,133191,1,2,0:0:0:0:
444,320,133368,1,8,0:0:0:0:
372,276,133546,1,0,0:0:0:0:
296,316,133723,1,8,0:0:0:0:
296,232,133901,1,2,0:0:0:0:
224,272,134078,1,8,0:0:0:0:
140,272,134256,6,0,L|52:272,1,85
96,196,134611,2,2,B|60:124|60:124|104:36,1,170,6|8,0:0|0:0,0:0:0:0:
184,44,135143,2,2,B|220:116|220:116|176:204,1,170,2|0,0:0|0:0,0:0:0:0:
136,272,135676,1,8,0:0:0:0:
180,344,135853,2,0,P|260:368|344:348,1,170,2|2,0:0|0:0,0:0:0:0:
416,304,136386,1,8,0:0:0:0:
344,260,136563,1,2,0:0:0:0:
344,92,136918,6,0,L|344:0,2,85,0|8|0,0:0|0:0|0:0,0:0:0:0:
284,152,137451,2,2,P|216:108|144:156,1,170,2|8,0:0|0:0,0:0:0:0:
148,236,137983,2,2,P|216:280|288:232,1,170,2|8,0:0|0:0,0:0:0:0:
216,192,138516,1,0,0:0:0:0:
300,192,138693,1,10,0:0:0:0:
384,192,138871,2,0,L|436:284,1,85,0|2,0:0|0:0,0:0:0:0:
388,340,139226,2,0,L|340:260,1,85,8|2,0:0|0:0,0:0:0:0:
172,264,139759,1,2,0:0:0:0:
88,264,139936,1,8,0:0:0:0:
132,192,140114,101,8,0:0:0:0:
132,156,140202,1,8,0:0:0:0:
132,116,140291,2,0,P|136:36|216:16,1,170,4|8,0:0|0:0,0:0:0:0:
296,20,140824,2,0,P|292:100|212:120,1,170
215,121,141356,1,8,0:0:0:0:
384,104,141711,2,0,P|332:176|256:204,1,170,4|8,0:0|0:0,0:0:0:0:
140,80,142421,2,0,P|32:192|144:304,1,340,0|4,0:0|0:0,0:0:0:0:
204,248,143309,37,0,0:0:0:0:
264,192,143486,1,8,0:0:0:0:
320,128,143664,2,0,L|380:68,2,85
264,192,144196,1,8,0:0:0:0:
208,128,144374,2,0,L|112:128,1,85
144,44,144729,2,0,L|236:44,1,85,0|8,0:0|0:0,0:0:0:0:
316,44,145084,1,0,0:0:0:0:
228,192,145439,101,0,0:0:0:0:
228,192,145617,1,8,0:0:0:0:
228,192,145794,1,0,0:0:0:0:
312,184,145972,2,0,P|288:248|196:264,1,170,0|8,0:0|0:0,0:0:0:0:
144,196,146504,2,0,P|168:132|260:116,1,170
344,108,147037,1,8,0:0:0:0:
424,136,147214,2,0,P|424:84|392:48,2,85
344,108,147747,1,8,0:0:0:0:
344,192,147924,2,0,B|336:216|336:216|344:236|344:236|336:252|336:252|344:272|344:272|336:288|336:288|344:304|344:304|336:320|336:320|344:336|344:336|344:356,1,170
260,348,148457,1,8,0:0:0:0:
192,300,148634,1,0,0:0:0:0:
124,248,148812,6,0,L|160:200,4,42.5,4|0|0|0|8,0:0|0:0|0:0|0:0|0:0,0:0:0:0:
140,80,149344,2,0,L|100:100,4,42.5,0|0|0|0|8,0:0|0:0|0:0|0:0|0:0,0:0:0:0:
372,80,149877,2,0,L|412:100,4,42.5,0|0|0|0|8,0:0|0:0|0:0|0:0|0:0,0:0:0:0:
388,248,150409,2,0,L|352:200,4,42.5,0|0|0|0|8,0:0|0:0|0:0|0:0|0:0,0:0:0:0:
240,208,150942,102,0,L|136:120,2,127.5,0|8|8,0:0|0:0|0:0,0:0:0:0:
308,156,151652,2,0,L|384:96,2,85,0|0|8,0:0|0:0|0:0,0:0:0:0:
240,208,152185,2,0,L|88:320,1,170
48,244,152717,1,8,0:0:0:0:
8,168,152895,2,0,L|160:56,1,170,0|0,0:0|3:0,0:0:0:0:
216,20,153427,1,8,3:0:0:0:
284,72,153605,1,0,3:0:0:0:
216,124,153782,1,8,3:0:0:0:
284,176,153960,1,0,3:0:0:0:
352,228,154137,1,4,3:0:0:0:
192,288,154492,5,4,0:0:0:0:
192,288,154581,1,0,0:0:0:0:
192,288,154670,1,0,0:0:0:0:
192,288,154759,1,0,0:0:0:0:
192,288,154847,1,8,0:0:0:0:
168,368,155025,2,0,P|108:328|116:228,1,170,2|2,0:0|0:0,0:0:0:0:
148,160,155557,1,10,0:0:0:0:
216,108,155735,1,0,0:0:0:0:
296,176,155912,101,0,0:0:0:0:
296,176,156001,1,0,0:0:0:0:
296,176,156090,1,0,0:0:0:0:
296,176,156179,1,0,0:0:0:0:
296,176,156267,1,8,0:0:0:0:
304,92,156445,2,0,P|364:132|356:224,1,170,2|2,0:0|0:0,0:0:0:0:
312,292,156977,1,10,0:0:0:0:
256,356,157155,1,0,0:0:0:0:
200,292,157333,6,0,L|140:292,1,42.5,2|0,0:0|0:0,0:0:0:0:
80,260,157599,2,0,L|128:208,1,42.5,2|0,0:0|0:0,0:0:0:0:
168,168,157865,1,10,0:0:0:0:
252,168,158043,102,0,L|312:168,1,42.5,2|0,0:0|0:0,0:0:0:0:
372,200,158309,2,0,L|324:252,1,42.5,2|0,0:0|0:0,0:0:0:0:
292,300,158575,1,10,0:0:0:0:
376,300,158753,2,0,P|432:280|452:220,2,127.5,0|8|8,0:0|0:0|0:0,0:0:0:0:
296,304,159463,1,2,0:0:0:0:
300,308,159818,1,2,0:0:0:0:
256,192,160173,12,4,163013,0:0:0:0:
256,192,173664,118,0,B|256:149,8,42.5,0|0|0|0|0|0|0|0|4,0:0|0:0|0:0|0:0|0:0|0:0|0:0|0:0|0:0,0:0:0:0:
404,292,174906,22,0,L|476:356,2,85
404,208,175439,1,8,0:0:0:0:
332,256,175617,2,0,B|252:308|160:248,2,170,0|8|0,0:0|0:0|0:0,0:0:0:0:
356,88,176682,6,0,L|444:88,2,85,0|8|0,0:0|0:0|0:0,0:0:0:0:
272,88,177214,2,0,P|224:72|160:160,1,170,0|8,0:0|0:0,0:0:0:0:
128,232,177747,2,0,P|176:248|240:160,1,170,0|8,0:0|0:0,0:0:0:0:
412,168,178457,2,0,P|460:220|408:296,2,170,0|8|0,0:0|0:0|0:0,0:0:0:0:
360,232,179344,2,0,L|276:232,1,85,0|8,0:0|0:0,0:0:0:0:
188,232,179699,2,0,L|80:232,1,85,0|8,0:0|0:0,0:0:0:0:
16,232,180054,1,4,0:0:0:0:
200,52,180587,101,0,0:0:0:0:
284,52,180764,2,0,L|372:52,2,85,0|0|8,0:0|0:0|0:0,0:0:0:0:
240,124,181297,2,0,L|240:308,2,170,0|8|0,0:0|0:0|0:0,0:0:0:0:
404,172,182362,5,0,0:0:0:0:
328,208,182540,1,8,0:0:0:0:
400,252,182717,1,0,0:0:0:0:
392,336,182895,2,0,P|308:308|256:232,1,170,0|8,0:0|0:0,0:0:0:0:
260,160,183427,2,0,P|176:176|150:274,1,170,0|8,0:0|0:0,0:0:0:0:
144,247,184137,1,0,0:0:0:0:
256,192,184315,12,8,185380,0:0:0:0:
108,148,185735,102,0,B|124:140|124:140|140:148|140:148|156:140|156:140|172:148|172:148|188:140|188:140|204:148|204:148|220:140|220:140|236:148|236:148|252:140|252:140|268:148|268:148|284:140|284:140|300:148|300:148|316:140|316:140|332:148|332:148|348:140|348:140|364:148|364:148|380:140|380:140|396:148|396:148|412:140|412:140|428:148|428:148,2,340,0|0|4,0:0|0:0|0:0,0:0:0:0:
76,228,187333,85,0,0:0:0:0:
136,288,187510,1,0,0:0:0:0:
216,320,187688,1,0,0:0:0:0:
300,320,187865,1,0,0:0:0:0:
380,288,188043,1,0,0:0:0:0:
440,228,188220,1,4,0:0:0:0:
368,76,188575,22,2,P|300:28|240:80,1,170,4|8,0:0|0:0,0:0:0:0:
176,128,189108,2,0,P|244:176|304:124,1,170,2|2,0:0|0:0,0:0:0:0:
316,300,189818,2,0,P|236:324|144:288,2,170,2|10|2,0:0|0:0|0:0,0:0:0:0:
436,180,190883,6,0,L|496:244,2,85,0|8|0,0:0|0:0|0:0,0:0:0:0:
384,112,191415,2,2,B|356:76|356:76|228:76,1,170,2|8,0:0|0:0,0:0:0:0:
172,136,191948,2,2,B|200:172|200:172|328:172,1,170,2|10,0:0|0:0,0:0:0:0:
328,172,192658,1,2,0:0:0:0:
184,264,193013,2,0,L|108:328,2,85,2|8|2,0:0|0:0|0:0,0:0:0:0:
268,264,193546,1,0,0:0:0:0:
228,188,193723,1,2,0:0:0:0:
144,188,193901,1,8,0:0:0:0:
188,116,194078,1,0,0:0:0:0:
232,116,194167,1,0,0:0:0:0:
276,116,194256,102,0,B|328:116|328:116|396:212,1,170,4|8,0:0|0:0,0:0:0:0:
416,296,194788,2,0,B|364:296|364:296|296:200,2,170,0|8|0,0:0|0:0|0:0,0:0:0:0:
104,76,196031,1,8,0:0:0:0:
28,112,196208,2,0,P|84:160|168:124,2,170,0|8|8,0:0|0:0|0:0,0:0:0:0:
104,76,197096,6,2,P|176:116|196:196,1,170,2|8,0:0|0:0,0:0:0:0:
180,280,197628,1,2,0:0:0:0:
348,280,197983,2,0,L|408:204,2,85,2|8|0,0:0|0:0|0:0,0:0:0:0:
284,336,198516,2,2,L|257:255,1,85,2|0,0:0|0:0,0:0:0:0:
176,276,198871,2,0,L|198:193,1,85,8|0,0:0|0:0,0:0:0:0:
116,168,199226,2,2,L|182:114,1,85,2|0,0:0|0:0,0:0:0:0:
136,44,199581,2,0,L|220:40,1,85,8|0,0:0|0:0,0:0:0:0:
308,44,199936,6,2,P|344:117|312:193,1,170,6|8,0:0|0:0,0:0:0:0:
384,244,200469,2,2,P|312:276|232:236,1,170,2|10,0:0|0:0,0:0:0:0:
84,156,201179,2,0,P|156:120|240:168,1,170,2|2,0:0|0:0,0:0:0:0:
160,200,201711,1,8,0:0:0:0:
232,248,201889,1,2,0:0:0:0:
340,116,202244,6,0,L|400:52,2,85,0|8|0,0:0|0:0|0:0,0:0:0:0:
284,180,202776,2,2,B|252:208|252:208|144:136,1,170,2|8,0:0|0:0,0:0:0:0:
36,204,203309,2,2,B|68:176|68:176|176:248,1,170,2|10,0:0|0:0,0:0:0:0:
324,328,204019,101,10,0:0:0:0:
384,268,204196,2,0,L|452:204,1,85,0|2,0:0|0:0,0:0:0:0:
432,124,204551,2,0,L|360:188,1,85,8|2,0:0|0:0,0:0:0:0:
308,240,204906,1,0,0:0:0:0:
248,180,205084,1,2,0:0:0:0:
308,120,205262,1,8,0:0:0:0:
256,52,205439,5,0,0:0:0:0:
212,52,205528,1,0,0:0:0:0:
168,52,205617,2,0,B|144:52|144:52|128:52|92:80|92:116|92:116|92:184,1,170,4|8,0:0|0:0,0:0:0:0:
96,260,206149,2,0,B|120:260|120:260|136:260|172:232|172:196|172:196|172:128,1,170
256,140,206682,1,8,0:0:0:0:
332,292,207037,2,0,P|408:280|360:228,1,170,4|8,0:0|0:0,0:0:0:0:
208,280,207747,2,0,B|172:188|172:188|228:144|208:60|128:32|72:92,1,340,0|4,0:0|0:0,0:0:0:0:
232,32,208812,5,8,0:0:0:0:
316,32,208989,2,0,P|348:92|328:192,1,170,2|2,0:0|0:0,0:0:0:0:
364,268,209522,1,8,0:0:0:0:
316,340,209699,2,0,P|272:356|228:324,2,85,2|0|2,0:0|0:0|0:0,0:0:0:0:
276,264,210232,1,8,0:0:0:0:
240,340,210409,2,0,P|162:363|74:335,1,170,2|0,0:0|0:0,0:0:0:0:
32,268,210942,1,8,0:0:0:0:
96,112,211297,6,2,P|144:44|228:44,1,170,2|8,0:0|0:0,0:0:0:0:
360,132,211830,2,2,L|190:132,1,170
144,204,212362,1,8,0:0:0:0:
192,272,212540,2,0,L|362:272,1,170,2|2,0:0|0:0,0:0:0:0:
316,344,213072,1,8,0:0:0:0:
316,344,213250,2,0,P|396:340|444:268,1,170,2|2,0:0|0:0,0:0:0:0:
392,204,213782,1,8,0:0:0:0:
336,140,213960,1,8,0:0:0:0:
296,120,214048,1,8,0:0:0:0:
256,140,214137,1,4,0:0:0:0:
116,40,214492,102,0,L|24:40,1,85,8|0,0:0|0:0,0:0:0:0:
131,158,215025,2,0,P|79:138|31:38,1,170,8|8,0:0|0:0,0:0:0:0:
116,40,215557,1,0,0:0:0:0:
284,40,215912,1,8,0:0:0:0:
368,40,216090,2,0,P|441:79|468:157,2,170,0|8|8,0:0|0:0|0:0,0:0:0:0:
380,124,216977,6,2,P|324:182|248:156,1,170,2|8,0:0|0:0,0:0:0:0:
200,228,217510,2,0,L|136:168,2,85,2|0|0,0:0|0:0|0:0,0:0:0:0:
264,284,218043,1,10,0:0:0:0:
200,340,218220,1,0,0:0:0:0:
136,284,218398,2,0,B|92:300|36:272,2,85,2|0|8,0:0|0:0|0:0,0:0:0:0:
100,208,218930,2,0,B|124:116,1,85,0|2,0:0|0:0,0:0:0:0:
148,44,219285,37,0,0:0:0:0:
232,44,219463,1,8,0:0:0:0:
304,92,219640,1,0,0:0:0:0:
232,136,219818,2,2,B|284:200|384:208,1,170,6|8,0:0|0:0,0:0:0:0:
436,272,220350,2,0,P|460:192|408:128,2,170,0|8|0,0:0|0:0|0:0,0:0:0:0:
372,328,221238,2,0,P|332:340|292:328,1,85
336,256,221593,2,0,P|296:244|248:256,1,85,8|0,0:0|0:0,0:0:0:0:
160,112,222125,22,0,P|208:112|240:152,2,85,2|8|0,0:0|0:0|0:0,0:0:0:0:
92,164,222658,2,2,P|96:236|184:256,1,170,2|8,0:0|0:0,0:0:0:0:
180,172,223191,2,2,P|263:194|267:266,2,170,2|8|2,0:0|0:0|0:0,0:0:0:0:
168,340,224256,1,2,0:0:0:0:
92,304,224433,1,8,0:0:0:0:
160,252,224611,2,0,B|152:224|152:224|140:196|120:180|84:188|84:188|28:208,2,170,2|10|2,0:0|0:0|0:0,0:0:0:0:
200,236,225409,1,0,0:0:0:0:
240,220,225498,22,0,B|272:200|292:220|292:220|380:308,1,170,4|8,0:0|0:0,0:0:0:0:
472,244,226031,2,0,B|444:264|420:244|420:244|332:156,1,170
284,104,226563,1,8,0:0:0:0:
132,28,226918,2,0,P|96:88|136:172,1,170,4|8,0:0|0:0,0:0:0:0:
304,192,227628,38,0,P|174:285|48:188,1,340,0|4,0:0|0:0,0:0:0:0:
256,192,228516,12,4,231179,0:0:0:0:
