osu file format v14

[General]
AudioFilename: [Kagamine Rin, Len x GUMI] First Love Academy - School of True Love.mp3
AudioLeadIn: 0
PreviewTime: 57735
Countdown: 0
SampleSet: Normal
StackLeniency: 0.4
Mode: 0
LetterboxInBreaks: 0
WidescreenStoryboard: 0

[Editor]
Bookmarks: 12480,23841,35202,46563,57924,69285,80646,89522,100528,111889,123250,134611,143131,163368,175084,188575,199936,209167,219818,231001
DistanceSpacing: 1.3
BeatDivisor: 4
GridSize: 4
TimelineZoom: 1

[Metadata]
Title:First Love Academy * School of True Love
TitleUnicode:初恋学園・純愛科
Artist:Nem
ArtistUnicode:Nem
Creator:Xierra
Version:Totally Normal Love
Source:
Tags:Vocaloid Vocaloid2 Kagamine Rin Len Megpoid GUMI Matoryoshika Skydevil Frans_Niko Niko-nyan
BeatmapID:233248
BeatmapSetID:53101

[Difficulty]
HPDrainRate:3
CircleSize:3
OverallDifficulty:3
ApproachRate:4
SliderMultiplier:1.2
SliderTickRate:1

[Events]
//Background and Video events
Video,0,"Video.avi"
0,0,"BG.jpg",0,0
//Break Periods
2,80846,88202
2,163213,171634
//Storyboard Layer 0 (Background)
//Storyboard Layer 1 (Fail)
//Storyboard Layer 2 (Pass)
//Storyboard Layer 3 (Foreground)
//Storyboard Sound Samples

[TimingPoints]
1120,355.029585798817,4,1,2,80,1,0
11770,-100,4,1,2,80,0,0
18516,-100,4,1,2,80,0,0
24196,-100,4,2,2,80,0,0
47806,-100,4,2,2,80,0,0
53486,-100,4,2,2,80,0,0
56682,-100,4,2,2,80,0,0
57924,-100,4,1,2,80,0,1
77806,-100,4,1,2,80,0,0
80646,-100,4,1,2,5,0,0
89522,-100,4,2,2,80,0,0
122007,-100,4,2,2,80,0,0
123250,-100,4,1,2,80,0,1
143131,-100,4,1,2,60,0,0
163013,-100,4,2,2,80,0,0
174374,-100,4,1,2,80,0,0
174906,-100,4,2,2,80,0,0
187155,-100,4,2,2,50,0,0
188220,-100,4,2,2,80,0,0
188575,-100,4,1,2,80,0,1
208279,-100,4,2,2,80,0,0
208457,-100,4,1,2,80,0,1
228338,-100,4,1,2,80,0,0

[Colours]
Combo1 : 200,200,200
Combo2 : 240,210,10
Combo3 : 255,129,45
Combo4 : 95,192,89
Combo5 : 29,118,40
Combo6 : 255,180,240
Combo7 : 255,170,85
Combo8 : 125,125,125

[HitObjects]
144,120,11770,102,0,P|124:88|84:88,2,60,0|0|8,0:0|0:0|0:0,0:0:0:0:
36,232,12480,2,0,P|40:276|116:320,1,120,4|8,0:0|0:0,0:0:0:0:
176,320,13013,1,0,0:0:0:0:
308,240,13368,2,0,L|368:240,1,60,0|8,0:0|0:0,0:0:0:0:
424,296,13723,2,0,P|448:244|420:180,2,120,2|2|2,0:0|0:0|0:0,0:0:0:0:
276,240,14788,5,0,0:0:0:0:
196,240,14966,2,0,L|120:240,1,60,8|0,0:0|0:0,0:0:0:0:
56,240,15321,1,0,0:0:0:0:
96,172,15498,2,0,L|44:108,2,60,0|8|0,0:0|0:0|0:0,0:0:0:0:
192,132,16208,2,0,L|236:72,1,60,0|8,0:0|0:0,0:0:0:0:
304,84,16563,2,0,B|392:84|392:84|432:48,2,120,2|2|2,0:0|0:0|0:0,0:0:0:0:
304,240,17628,102,2,B|452:240|452:240|475:262,1,180,2|6,0:0|0:0,0:0:0:0:
476,104,18516,1,8,0:0:0:0:
400,104,18693,2,0,L|260:104,1,120,0|8,0:0|0:0,0:0:0:0:
200,240,19404,1,2,0:0:0:0:
84,136,19759,1,2,0:0:0:0:
200,32,20114,1,2,0:0:0:0:
316,136,20469,6,0,P|333:154|345:186,2,60,0|8|0,0:0|0:0|0:0,0:0:0:0:
200,240,21179,2,0,P|188:272|164:296,2,60,0|8|0,0:0|0:0|0:0,0:0:0:0:
84,136,21889,2,0,P|66:117|54:85,2,60,0|8|0,0:0|0:0|0:0,0:0:0:0:
256,192,22421,12,4,23841,0:0:0:0:
108,96,24196,6,0,L|108:160,1,60,2|0,0:0|0:0,0:0:0:0:
184,172,24551,2,0,P|156:224|92:236,1,120,0|2,0:0|0:0,0:0:0:0:
20,240,25084,2,0,P|48:300|108:316,2,120,0|2|0,0:0|0:0|0:0,0:0:0:0:
240,316,26327,6,0,L|312:316,1,60,2|0,0:0|0:0,0:0:0:0:
384,184,26859,2,0,L|316:184,1,60,0|2,0:0|0:0,0:0:0:0:
268,240,27214,2,0,P|244:184|268:128,1,120
328,84,27747,1,2,0:0:0:0:
340,8,27924,2,0,P|392:36|404:96,1,120
324,88,28457,1,2,0:0:0:0:
312,164,28634,2,0,P|264:140|252:72,1,120
172,84,29167,1,2,0:0:0:0:
168,240,29522,1,4,0:0:0:0:
324,244,29877,102,0,P|371:213|383:153,2,120,2|0|2,0:0|0:0|0:0,0:0:0:0:
304,168,30764,2,0,P|244:156|213:109,2,120,0|2|0,0:0|0:0|0:0,0:0:0:0:
88,80,32007,6,0,P|116:56|152:56,1,60,2|0,0:0|0:0,0:0:0:0:
148,132,32362,1,0,0:0:0:0:
88,184,32540,2,0,P|107:202|139:214,1,60,0|2,0:0|0:0,0:0:0:0:
152,136,32895,2,0,P|220:156|320:108,1,180,0|0,0:0|0:0,0:0:0:0:
364,52,33605,2,0,L|397:2,2,60,2|0|2,0:0|0:0|0:0,0:0:0:0:
248,340,34670,69,0,0:0:0:0:
264,264,34847,2,4,P|304:280|316:320,2,60,8|8|4,0:0|0:0|0:0,0:0:0:0:
360,144,35557,21,8,0:0:0:0:
356,148,35735,1,0,0:0:0:0:
360,224,35912,2,0,P|292:192|281:136,1,120,0|8,0:0|0:0,0:0:0:0:
200,152,36445,2,0,P|191:190|124:228,1,120,0|0,0:0|0:0,0:0:0:0:
120,148,36977,1,8,0:0:0:0:
124,152,37155,1,8,0:0:0:0:
356,136,37688,5,8,0:0:0:0:
312,200,37865,2,0,P|273:220|249:288,1,120
192,340,38398,1,8,0:0:0:0:
132,288,38575,2,0,P|108:220|68:200,1,120
24,136,39108,1,8,0:0:0:0:
100,124,39285,2,0,P|140:104|164:36,1,120
244,40,39818,1,8,0:0:0:0:
320,40,39995,2,0,P|292:104|248:120,2,120,0|8|8,0:0|0:0|0:0,0:0:0:0:
400,40,40883,1,4,0:0:0:0:
308,292,41238,102,0,L|396:292,1,60,8|0,0:0|0:0,0:0:0:0:
440,260,41593,2,0,P|461:211|436:152,1,120,0|8,0:0|0:0,0:0:0:0:
380,208,42125,2,0,L|300:100,2,120,0|8|0,0:0|0:0|0:0,0:0:0:0:
192,348,43368,5,8,0:0:0:0:
224,196,43723,2,0,P|192:192|160:196,2,60,0|0|8,0:0|0:0|0:0,0:0:0:0:
256,124,44256,2,0,P|196:116|132:124,1,120
64,148,44788,1,8,0:0:0:0:
256,192,44966,12,0,46208,0:0:0:0:
256,48,46563,38,0,L|136:48,1,120,4|2,0:0|0:0,0:0:0:0:
40,172,47273,2,0,L|160:172,1,120,0|2,0:0|0:0,0:0:0:0:
240,172,47806,2,0,B|268:248|268:248|320:248,2,120,0|2|0,0:0|0:0|0:0,0:0:0:0:
108,256,48871,2,0,B|147:256|147:256|175:332,1,120,2|4,0:0|0:0,0:0:0:0:
408,328,49759,5,2,0:0:0:0:
412,248,49937,2,0,P|468:272|492:332,2,120,0|2|0,0:0|0:0|0:0,0:0:0:0:
336,248,50824,1,0,0:0:0:0:
260,248,51001,2,0,P|212:236|180:168,2,120,2|0|0,0:0|0:0|0:0,0:0:0:0:
260,168,51889,1,2,0:0:0:0:
104,167,52244,102,0,P|88:107|108:47,1,120,4|2,0:0|0:0,0:0:0:0:
260,53,52954,2,0,P|276:107|260:167,1,120,0|2,0:0|0:0,0:0:0:0:
196,212,53486,2,0,L|196:332,2,120,0|2|0,0:0|0:0|0:0,0:0:0:0:
196,56,54551,1,2,0:0:0:0:
64,140,54906,6,0,L|-20:140,2,60,2|0|0,0:0|0:0|0:0,0:0:0:0:
144,140,55439,1,2,0:0:0:0:
224,140,55617,2,0,L|352:140,1,120,0|2,0:0|0:0,0:0:0:0:
420,276,56327,1,2,0:0:0:0:
264,276,56682,102,0,L|188:276,2,60,0|2|0,0:0|0:0|0:0,0:0:0:0:
264,200,57214,2,0,B|232:200|232:200|228:152|268:116,1,120,4|4,0:0|0:0,0:0:0:0:
121,49,57924,54,2,B|185:61|193:121|193:121|277:121,1,180,6|2,0:0|0:0,0:0:0:0:
420,120,58812,1,2,0:0:0:0:
340,252,59167,2,0,P|304:305|252:313,2,120,2|2|2,0:0|0:0|0:0,0:0:0:0:
196,192,60232,6,0,L|136:192,2,60,0|8|0,0:0|0:0|0:0,0:0:0:0:
196,268,60764,2,2,P|260:236|272:184,1,120,2|8,0:0|0:0,0:0:0:0:
236,124,61297,2,2,L|174:21,1,120
108,64,61830,1,8,0:0:0:0:
40,24,62007,2,0,P|28:80|84:136,1,120,2|2,0:0|0:0,0:0:0:0:
132,164,62540,1,8,0:0:0:0:
68,208,62717,2,0,P|56:264|112:320,1,120,2|2,0:0|0:0,0:0:0:0:
136,248,63250,1,8,0:0:0:0:
280,192,63605,102,0,P|344:180|376:124,2,120,4|8|0,0:0|0:0|0:0,0:0:0:0:
204,56,64670,1,8,0:0:0:0:
132,192,65025,2,0,P|68:204|36:260,2,120,0|8|0,0:0|0:0|0:0,0:0:0:0:
200,332,66090,1,8,0:0:0:0:
132,192,66445,6,2,P|102:149|40:132,1,120,2|10,0:0|0:0,0:0:0:0:
148,20,67155,2,2,P|178:63|240:80,1,120,2|10,0:0|0:0,0:0:0:0:
292,228,67865,1,2,0:0:0:0:
396,344,68220,1,8,0:0:0:0:
500,228,68575,1,2,0:0:0:0:
396,112,68930,1,8,0:0:0:0:
256,44,69285,38,2,P|196:36|150:69,1,120,6|8,0:0|0:0,0:0:0:0:
76,208,69995,2,2,P|136:216|188:172,1,120,2|10,0:0|0:0,0:0:0:0:
252,152,70528,2,0,L|365:111,1,120,2|2,0:0|0:0,0:0:0:0:
436,80,71060,1,8,0:0:0:0:
436,160,71238,1,2,0:0:0:0:
344,288,71593,6,0,L|398:312,2,60,0|8|0,0:0|0:0|0:0,0:0:0:0:
268,288,72125,2,2,L|148:288,1,120,2|8,0:0|0:0,0:0:0:0:
84,240,72658,2,2,L|84:120,1,120,2|10,0:0|0:0,0:0:0:0:
240,132,73368,1,2,0:0:0:0:
380,64,73723,2,0,P|408:76|426:99,1,60,2|8,0:0|0:0,0:0:0:0:
360,140,74078,2,0,P|320:184|264:213,1,120,2|2,0:0|0:0,0:0:0:0:
188,212,74611,1,8,0:0:0:0:
256,72,74966,102,0,P|196:72|88:199,2,240,4|0|4,0:0|0:0|0:0,0:0:0:0:
408,44,76741,1,8,0:0:0:0:
424,200,77096,2,4,P|364:200|256:73,1,240,0|4,0:0|0:0,0:0:0:0:
256,192,77983,12,4,80646,0:0:0:0:
120,296,89522,86,0,L|44:296,2,60,2|0|2,0:0|0:0|0:0,0:0:0:0:
68,148,90232,1,0,0:0:0:0:
144,148,90409,2,0,P|184:148|224:220,2,120,0|2|0,0:0|0:0|0:0,0:0:0:0:
360,56,91652,6,0,L|416:112,1,60,2|0,0:0|0:0,0:0:0:0:
400,256,92185,1,0,0:0:0:0:
400,256,92362,2,0,L|344:200,1,60,2|0,0:0|0:0,0:0:0:0:
204,240,92895,2,0,L|260:296,2,60,0|2|0,0:0|0:0|0:0,0:0:0:0:
268,100,93605,1,0,0:0:0:0:
328,48,93782,1,2,0:0:0:0:
384,104,93960,2,0,L|452:224,2,120,0|2|2,0:0|0:0|0:0,0:0:0:0:
328,160,94847,1,4,0:0:0:0:
384,304,95202,102,0,P|340:296|304:228,2,120,2|0|2,0:0|0:0|0:0,0:0:0:0:
388,224,96090,2,0,L|476:132,2,120,0|2|2,0:0|0:0|0:0,0:0:0:0:
340,76,97333,5,2,0:0:0:0:
336,72,97510,2,0,P|272:72|236:124,1,120
312,152,98043,1,2,0:0:0:0:
308,156,98220,2,0,P|274:196|210:196,1,120
140,160,98753,1,2,0:0:0:0:
144,236,98930,2,0,L|76:336,2,120,0|2|2,0:0|0:0|0:0,0:0:0:0:
412,196,100528,6,0,L|340:100,1,120,4|8,0:0|0:0,0:0:0:0:
184,100,101238,2,0,L|112:196,1,120,0|8,0:0|0:0,0:0:0:0:
160,256,101770,2,0,P|200:284|272:284,2,120,0|8|0,0:0|0:0|0:0,0:0:0:0:
352,120,103013,5,8,0:0:0:0:
272,120,103191,1,0,0:0:0:0:
300,272,103546,2,0,P|312:252|312:216,2,60,0|8|0,0:0|0:0|0:0,0:0:0:0:
176,176,104256,2,0,P|176:140|212:108,2,60,0|8|0,0:0|0:0|0:0,0:0:0:0:
52,268,104966,2,0,P|39:248|39:212,1,60,0|8,0:0|0:0,0:0:0:0:
44,136,105321,2,0,P|56:88|116:36,2,120,0|8|8,0:0|0:0|0:0,0:0:0:0:
40,212,106208,1,4,0:0:0:0:
164,308,106563,102,0,B|256:308|256:308|280:284,2,120,8|0|8,0:0|0:0|0:0,0:0:0:0:
160,228,107451,2,0,B|179:208|179:208|271:208,1,120,0|0,0:0|0:0,0:0:0:0:
272,132,107983,1,8,0:0:0:0:
276,132,108161,2,0,P|336:160|348:224,1,120,8|0,0:0|0:0,0:0:0:0:
352,284,108693,1,8,0:0:0:0:
196,276,109048,5,0,0:0:0:0:
128,240,109226,1,0,0:0:0:0:
120,164,109404,1,8,0:0:0:0:
252,80,109759,2,0,L|252:16,2,60,0|0|8,0:0|0:0|0:0,0:0:0:0:
196,136,110291,2,0,P|256:156|312:132,1,120,0|0,0:0|0:0,0:0:0:0:
372,96,110824,1,8,0:0:0:0:
496,188,111179,1,8,0:0:0:0:
372,284,111534,1,8,0:0:0:0:
252,184,111889,70,0,L|120:184,1,120,4|2,0:0|0:0,0:0:0:0:
252,84,112599,2,0,L|372:84,1,120,0|2,0:0|0:0,0:0:0:0:
388,8,113131,2,0,P|440:44|448:104,1,120,0|2,0:0|0:0,0:0:0:0:
324,168,113841,2,0,P|268:136|256:76,1,120,0|2,0:0|0:0,0:0:0:0:
100,84,114551,5,4,0:0:0:0:
60,152,114729,2,0,L|12:200,2,60,0|0|2,0:0|0:0|0:0,0:0:0:0:
140,152,115262,2,0,L|212:247,2,120,0|2|0,0:0|0:0|0:0,0:0:0:0:
280,80,116327,2,0,P|340:84|384:140,1,120,2|0,0:0|0:0,0:0:0:0:
416,192,116859,2,0,L|452:252,2,60,0|0|2,0:0|0:0|0:0,0:0:0:0:
320,316,117569,6,0,B|296:316|296:316|272:316|232:296|228:256|228:256|144:256,2,180,4|0|2,0:0|0:0|0:0,0:0:0:0:
308,236,118812,2,0,L|408:148,1,120,0|2,0:0|0:0,0:0:0:0:
288,44,119522,2,0,L|188:132,1,120,0|2,0:0|0:0,0:0:0:0:
76,220,120232,5,2,0:0:0:0:
128,280,120409,2,0,L|172:328,2,60,0|0|2,0:0|0:0|0:0,0:0:0:0:
176,216,120942,2,0,L|304:216,2,120,0|2|0,0:0|0:0|0:0,0:0:0:0:
256,84,122007,102,0,L|316:84,1,60,0|2,0:0|0:0,0:0:0:0:
340,160,122362,2,0,L|280:160,1,60,0|4,0:0|0:0,0:0:0:0:
300,236,122717,2,0,L|364:236,1,60,0|4,0:0|0:0,0:0:0:0:
228,316,123250,86,2,P|196:316|148:244,1,120,4|8,0:0|0:0,0:0:0:0:
76,220,123782,2,2,P|124:176|184:184,1,120,0|10,0:0|0:0,0:0:0:0:
40,100,124492,2,0,P|91:103|139:59,1,120,2|2,0:0|0:0,0:0:0:0:
216,60,125025,1,8,0:0:0:0:
292,60,125202,1,2,0:0:0:0:
404,168,125557,6,0,L|472:168,2,60,0|8|0,0:0|0:0|0:0,0:0:0:0:
352,224,126090,2,2,L|260:312,1,120,0|8,0:0|0:0,0:0:0:0:
304,376,126622,2,2,P|224:376|192:280,1,180,0|8,0:0|0:0,0:0:0:0:
188,294,127333,2,0,P|108:294|76:194,1,180,2|8,0:0|0:0,0:0:0:0:
148,224,128043,2,0,L|224:128,1,120,2|0,0:0|0:0,0:0:0:0:
264,64,128575,1,10,0:0:0:0:
408,132,128930,102,0,P|432:192|408:240,1,120,6|8,0:0|0:0,0:0:0:0:
252,244,129640,2,0,P|229:197|253:137,1,120,0|8,0:0|0:0,0:0:0:0:
332,272,130350,1,0,0:0:0:0:
332,272,130528,2,0,L|332:344,1,60,0|8,0:0|0:0,0:0:0:0:
332,176,131060,1,0,0:0:0:0:
332,176,131238,2,0,L|332:116,1,60,0|8,0:0|0:0,0:0:0:0:
228,232,131770,6,2,L|104:232,1,120,2|8,0:0|0:0,0:0:0:0:
40,88,132480,2,2,L|176:88,1,120,2|8,0:0|0:0,0:0:0:0:
316,84,133191,2,0,B|364:84|384:136|384:136|416:136,2,120,2|8|2,0:0|0:0|0:0,0:0:0:0:
308,164,134078,6,0,L|268:212,2,60,0|8|0,0:0|0:0|0:0,0:0:0:0:
240,124,134611,2,2,L|108:124,1,120,4|8,0:0|0:0,0:0:0:0:
72,184,135143,2,2,L|72:304,1,120,2|10,0:0|0:0,0:0:0:0:
228,304,135853,1,2,0:0:0:0:
384,304,136208,2,0,L|444:304,2,60,2|8|2,0:0|0:0|0:0,0:0:0:0:
284,184,136918,6,0,L|224:184,2,60,0|8|0,0:0|0:0|0:0,0:0:0:0:
344,236,137451,2,2,P|368:180|332:116,1,120,2|10,0:0|0:0,0:0:0:0:
504,128,138161,2,2,P|482:179|506:235,1,120,2|10,0:0|0:0,0:0:0:0:
388,340,138871,2,0,L|448:340,2,60,2|0|8,0:0|0:0|0:0,0:0:0:0:
308,340,139404,1,0,0:0:0:0:
232,340,139581,2,0,P|240:300|305:263,1,120,2|8,0:0|0:0,0:0:0:0:
456,232,140291,102,0,P|411:125|299:93,2,240,4|0|4,0:0|0:0|0:0,0:0:0:0:
300,236,142066,1,8,0:0:0:0:
300,236,142421,2,4,P|194:192|162:80,1,240,0|4,0:0|0:0,0:0:0:0:
316,96,143486,37,8,0:0:0:0:
384,236,143841,2,0,B|424:236|424:236|460:204,2,60,0|0|8,0:0|0:0|0:0,0:0:0:0:
304,236,144374,2,0,B|248:236|248:236|184:260,1,120
128,308,144906,1,8,0:0:0:0:
68,260,145084,1,0,0:0:0:0:
64,104,145439,2,0,L|64:40,2,60,0|8|0,0:0|0:0|0:0,0:0:0:0:
140,112,145972,102,0,L|186:157,2,60,0|0|8,0:0|0:0|0:0,0:0:0:0:
256,220,146682,2,0,L|211:265,2,60,0|0|8,0:0|0:0|0:0,0:0:0:0:
312,164,147214,2,0,P|372:148|428:168,2,120,0|8|0,0:0|0:0|0:0,0:0:0:0:
192,64,148279,2,0,B|160:52|127:66,1,60,0|8,0:0|0:0,0:0:0:0:
112,220,148812,6,0,L|112:292,2,60,0|0|8,0:0|0:0|0:0,0:0:0:0:
152,152,149344,1,0,0:0:0:0:
192,220,149522,1,0,0:0:0:0:
236,284,149699,1,8,0:0:0:0:
280,220,149877,2,0,L|280:152,2,60,0|0|8,0:0|0:0|0:0,0:0:0:0:
320,288,150409,1,0,0:0:0:0:
364,224,150586,1,0,0:0:0:0:
404,156,150764,1,8,0:0:0:0:
352,100,150942,102,0,L|269:17,2,90,0|8|8,0:0|0:0|0:0,0:0:0:0:
404,156,151652,2,0,L|504:260,2,120,0|8|0,0:0|0:0|0:0,0:0:0:0:
352,212,152540,2,0,L|310:254,2,60,0|8|0,0:0|0:0|0:0,0:0:0:0:
208,156,153250,2,0,L|253:111,2,60,0|8|0,3:0|3:0|3:0,3:0:0:0:
192,232,153782,2,0,P|152:212|132:180,1,60,8|0,3:0|3:0,3:0:0:0:
108,132,154137,1,4,3:0:0:0:
260,96,154492,6,0,P|344:128|376:212,2,180,4|0|8,0:0|0:0|0:0,0:0:0:0:
140,196,155912,2,0,P|172:277|252:313,2,180,0|0|8,0:0|0:0|0:0,0:0:0:0:
292,228,157333,102,0,L|404:228,2,90,0|8|8,0:0|0:0|0:0,0:0:0:0:
256,160,158043,2,0,L|329:87,2,90,0|8|8,0:0|0:0|0:0,0:0:0:0:
188,120,158753,2,0,L|187:16,2,90,0|8|8,0:0|0:0|0:0,0:0:0:0:
120,160,159463,1,0,0:0:0:0:
188,300,159818,1,8,0:0:0:0:
256,192,160173,12,4,163013,0:0:0:0:
256,192,172954,12,4,174374,0:0:0:0:
340,68,174906,22,0,L|400:68,2,60
260,68,175439,1,10,0:0:0:0:
196,20,175617,2,0,P|176:80|208:132,2,120,0|8|0,0:0|0:0|0:0,0:0:0:0:
88,132,176682,6,0,L|88:68,2,60,0|8|0,0:0|0:0|0:0,0:0:0:0:
88,208,177214,2,0,L|164:316,1,120,0|8,0:0|0:0,0:0:0:0:
224,264,177747,2,0,L|152:164,1,120,0|8,0:0|0:0,0:0:0:0:
256,48,178457,2,0,P|312:48|368:112,2,120,0|8|0,0:0|0:0|0:0,0:0:0:0:
288,200,179522,2,0,L|288:128,2,60,0|8|0,0:0|0:0|0:0,0:0:0:0:
288,276,180054,1,4,0:0:0:0:
384,60,180587,102,0,L|456:60,2,60
304,60,181120,1,8,0:0:0:0:
228,60,181297,2,0,P|172:72|144:144,1,120,0|8,0:0|0:0,0:0:0:0:
228,256,182007,2,0,P|198:307|142:319,1,120
148,240,182540,6,0,L|72:240,2,60,8|0|0,0:0|0:0|0:0,0:0:0:0:
296,288,183250,1,8,0:0:0:0:
296,212,183427,2,0,P|356:240|368:312,1,120,0|8,0:0|0:0,0:0:0:0:
464,176,184137,2,0,B|464:144|464:144|464:100|432:64|384:64|384:64|348:64,2,180,0|8|0,0:0|0:0|0:0,0:0:0:0:
384,144,185380,1,8,0:0:0:0:
256,192,185735,12,4,187155,0:0:0:0:
64,76,188220,101,4,0:0:0:0:
64,232,188575,2,2,P|72:280|132:320,1,120,6|8,0:0|0:0,0:0:0:0:
144,240,189108,2,2,P|201:204|209:156,1,120,2|10,0:0|0:0,0:0:0:0:
344,232,189818,2,0,P|286:267|278:315,2,120,2|10|2,0:0|0:0|0:0,0:0:0:0:
416,92,190883,6,0,L|484:92,2,60,0|8|0,0:0|0:0|0:0,0:0:0:0:
408,16,191415,2,2,P|348:56|344:112,1,120,2|8,0:0|0:0,0:0:0:0:
264,100,191948,2,2,P|257:143|197:183,1,120,2|8,0:0|0:0,0:0:0:0:
328,264,192658,2,0,P|328:296|392:356,1,120,2|2,0:0|0:0,0:0:0:0:
404,280,193191,1,8,0:0:0:0:
480,296,193368,2,0,P|480:264|421:205,1,120,2|2,0:0|0:0,0:0:0:0:
344,184,193901,1,8,0:0:0:0:
236,300,194256,102,0,L|100:300,1,120,4|8,0:0|0:0,0:0:0:0:
72,236,194788,2,0,L|72:100,1,120,0|8,0:0|0:0,0:0:0:0:
212,48,195498,2,0,B|268:48|268:48|380:128,2,180,0|8|0,0:0|0:0|0:0,0:0:0:0:
160,108,196741,1,8,0:0:0:0:
140,264,197096,6,0,P|88:248|64:184,2,120,2|8|2,0:0|0:0|0:0,0:0:0:0:
216,264,197983,2,0,L|292:264,2,60,0|8|0,0:0|0:0|0:0,0:0:0:0:
180,192,198516,1,2,0:0:0:0:
284,76,198871,1,8,0:0:0:0:
384,196,199226,1,2,0:0:0:0:
384,276,199404,6,0,L|384:348,2,60,0|8|0,0:0|0:0|0:0,0:0:0:0:
384,196,199936,2,2,P|328:216|304:276,1,120,6|8,0:0|0:0,0:0:0:0:
304,348,200469,2,2,P|248:328|224:268,1,120,0|10,0:0|0:0,0:0:0:0:
72,248,201179,2,0,L|72:128,1,120,2|2,0:0|0:0,0:0:0:0:
124,68,201711,2,0,L|168:16,1,60,8|2,0:0|0:0,0:0:0:0:
256,148,202244,6,0,L|256:60,2,60,0|8|0,0:0|0:0|0:0,0:0:0:0:
200,204,202776,2,2,P|256:228|316:196,1,120,0|8,0:0|0:0,0:0:0:0:
340,276,203309,2,2,P|252:304|152:264,1,180,0|8,0:0|0:0,0:0:0:0:
112,236,204019,2,0,L|52:192,1,60,2|0,0:0|0:0,0:0:0:0:
112,136,204374,2,0,L|63:100,1,60,0|8,0:0|0:0,0:0:0:0:
8,44,204729,1,2,0:0:0:0:
388,88,205617,102,0,B|416:88|416:88|444:88|472:116|472:144|472:144|472:184|472:184|512:220,2,180,4|0|8,0:0|0:0|0:0,0:0:0:0:
384,244,207037,2,0,L|244:244,1,120,4|8,0:0|0:0,0:0:0:0:
128,316,207747,2,0,P|52:244|136:168,1,240,0|6,0:0|0:0,0:0:0:0:
256,72,208812,21,8,0:0:0:0:
376,168,209167,1,2,0:0:0:0:
256,268,209522,1,8,0:0:0:0:
136,172,209877,2,0,B|124:228|124:228|88:280|88:280|24:320,2,180,2|2|8,0:0|0:0|0:0,0:0:0:0:
292,172,211297,6,2,L|424:172,1,120,0|8,0:0|0:0,0:0:0:0:
412,328,212007,2,2,L|284:328,1,120,0|8,0:0|0:0,0:0:0:0:
156,256,212717,2,0,B|105:224|105:224|69:172|69:172|57:116,2,180,2|2|10,0:0|0:0|0:0,0:0:0:0:
256,136,214137,102,0,P|304:156|332:220,2,120,6|8|0,0:0|0:0|0:0,0:0:0:0:
244,292,215202,1,8,0:0:0:0:
240,288,215557,2,0,P|192:268|164:204,2,120,0|8|0,0:0|0:0|0:0,0:0:0:0:
256,132,216622,5,8,0:0:0:0:
260,136,216977,2,0,P|308:156|336:220,2,120,2|8|2,0:0|0:0|0:0,0:0:0:0:
180,136,217865,2,0,L|92:136,2,60,0|8|0,0:0|0:0|0:0,0:0:0:0:
180,216,218398,5,2,0:0:0:0:
256,352,218753,1,8,0:0:0:0:
332,216,219108,1,2,0:0:0:0:
332,136,219285,2,0,L|408:136,2,60,0|8|0,0:0|0:0|0:0,0:0:0:0:
272,84,219818,22,2,P|232:56|160:56,1,120,4|8,0:0|0:0,0:0:0:0:
144,132,220350,2,2,P|184:160|256:160,1,120,2|10,0:0|0:0,0:0:0:0:
132,256,221060,2,0,L|68:220,2,60,10|0|0,0:0|0:0|0:0,0:0:0:0:
200,292,221593,2,0,L|268:292,1,60,8|2,0:0|0:0,0:0:0:0:
416,272,222125,22,0,L|416:340,2,60,0|10|0,0:0|0:0|0:0,0:0:0:0:
336,272,222658,2,2,P|372:204|424:192,1,120,2|10,0:0|0:0,0:0:0:0:
304,76,223368,2,2,P|268:144|230:156,1,120,0|10,0:0|0:0,0:0:0:0:
188,304,224078,2,0,L|128:356,2,60,2|0|8,0:0|0:0|0:0,0:0:0:0:
141,235,224611,2,0,L|233:155,1,120,2|0,0:0|0:0,0:0:0:0:
288,104,225143,1,10,0:0:0:0:
424,180,225498,22,0,L|328:280,1,120,6|8,0:0|0:0,0:0:0:0:
356,344,226031,2,0,P|292:328|264:276,1,120
192,260,226563,2,0,P|228:216|296:212,2,120,8|4|8,0:0|0:0|0:0,0:0:0:0:
148,112,227628,38,0,P|256:68|372:112,1,240,0|4,0:0|0:0,0:0:0:0:
256,192,228516,12,4,231179,0:0:0:0:
