osu file format v7

[General]
AudioFilename: Party People.mp3
AudioLeadIn: 0
PreviewTime: 86058
Countdown: 1
SampleSet: Normal
StackLeniency: 0.7
Mode: 0
LetterboxInBreaks: 0

[Editor]
Bookmarks: 9964,33379,56792,80205,103618,115325,138738,162151,185565,191418,214831,238244
DistanceSpacing: 0.899999976158142
BeatDivisor: 4
GridSize: 8

[Metadata]
Title:Party People
Artist:Nelly ft. Fergie
Creator:YGOkid8
Version:Normal
Source:
Tags:Brass Knuckles StarrodKirby86

[Difficulty]
HPDrainRate:4
CircleSize:4
OverallDifficulty:4
SliderMultiplier:1.1
SliderTickRate:2

[Events]
//Background and Video events
0,0,"nelly_party_people_single.jpg"
Video,0,"status=fail.avi"
//Break Periods
2,56991,58398
2,103817,114004
2,162350,172171
2,185764,190097
//Storyboard Layer 0 (Background)
//Storyboard Layer 1 (Fail)
//Storyboard Layer 2 (Pass)
//Storyboard Layer 3 (Foreground)
//Storyboard Sound Samples
//Background Colour Transformations
3,100,163,162,255

[TimingPoints]
9965,365.831351746845,4,1,0,100,1,0
33379,-100,4,1,0,100,0,1
56792,-100,4,1,0,100,0,0
80205,-100,4,1,0,100,0,1
103618,-100,4,1,0,100,0,0
138738,-100,4,1,0,100,0,1
162151,-100,4,1,0,100,0,0
182638,-100,4,2,0,39,0,0
189954,-100,4,1,0,39,0,0
191418,-100,4,1,0,100,0,1
214831,-100,4,1,0,100,0,0

[Colours]
Combo1 : 128,64,0
Combo2 : 128,128,128
Combo3 : 255,255,255

[HitObjects]
472,40,33378,1,4
472,128,33744,1,0
472,216,34109,2,0,L|472:272|416:272,1,110,8|0
320,272,34841,2,0,B|264:272,4,55,0|0|0|0|8
136,344,36304,5,4
40,344,36670,1,0
40,248,37036,2,0,L|40:192|96:192,1,110,8|0
176,248,37768,1,0
176,248,37951,1,0
176,248,38134,2,0,L|232:248,2,55,0|0|8
256,64,39231,5,4
256,64,39414,1,0
256,64,39597,2,0,L|200:64,1,55,0|8
168,160,40146,1,0
100,227,40511,1,8
32,295,40877,1,0
184,296,41426,2,8,L|240:296,2,55
280,296,42158,5,4
280,296,42341,1,0
280,296,42523,2,0,L|336:296,1,55,0|8
368,200,43072,1,0
435,132,43438,1,8
503,64,43804,1,0
352,64,44353,2,8,L|296:64,2,55
256,64,45084,6,0,L|200:64,4,55,4|0|0|0|8
408,192,46548,6,0,L|464:192,4,55,0|0|0|0|8
256,320,48011,6,0,L|200:320,4,55,4|0|0|0|8
104,192,49474,5,0
104,192,49657,1,0
104,192,49840,1,0
104,192,50023,1,0
104,192,50206,1,8
216,32,50938,5,4
264,32,51121,1,0
312,32,51303,2,0,L|312:88,1,55,0|8
408,88,51852,1,0
408,184,52218,1,8
408,280,52584,1,0
288,360,53133,2,8,L|232:360,2,55
256,192,53864,12,0,56791
40,192,59718,5,4
88,192,59900,1,0
136,192,60083,2,0,L|192:192,3,55,0|0|8|0
256,56,61181,6,0,L|312:56,1,55
344,96,61547,1,0
377,129,61730,1,0
408,168,61913,2,0,L|408:224,2,55,8|0|0
464,248,62644,6,0,L|240:248,1,220,0|8
244,248,63742,1,0
312,320,64108,2,0,L|88:320,1,220,0|8
92,320,65205,1,0
256,192,65571,12,0,67766
472,192,68498,5,4
424,192,68680,1,0
376,192,68863,2,0,L|320:192,2,55,0|0|8
376,288,69595,2,0,L|336:328,1,55
288,328,69961,6,0,L|232:328|232:272,1,110
144,224,70693,2,0,L|144:168,2,55,8|0|0
88,144,71424,6,0,L|312:144,1,220,4|8
480,40,72887,2,0,L|480:264,1,220,0|8
480,260,73985,1,0
384,264,74351,6,0,L|423:303,6,55,0|0|0|0|8|0|0
288,264,75814,2,0,L|248:303,6,55,0|0|0|0|8|0|0
256,192,77277,12,0,79472
256,48,80204,5,4
352,48,80570,1,0
448,48,80936,2,0,B|448:192|312:192,1,220,8|0
272,192,81850,2,0,B|216:192,3,55,0|0|0|8
40,104,83131,5,4
40,200,83497,1,0
40,296,83862,2,0,B|184:296|184:160,1,220,8|0
183,167,84777,1,0
183,167,84960,1,0
183,167,85143,1,0
183,167,85326,1,8
336,40,86057,5,4
336,40,86240,1,0
336,40,86423,2,0,B|376:80,1,55,0|8
440,152,86972,1,0
440,248,87338,1,8
440,344,87704,1,0
288,344,88252,2,8,B|232:344,2,55
256,248,88984,5,4
256,248,89167,1,0
256,248,89350,2,0,B|192:248,1,55,0|8
104,248,89899,1,0
40,168,90264,1,8
104,88,90630,1,0
256,88,91179,2,8,B|312:88,2,55
176,152,91911,6,0,B|400:152,1,220,4|8
496,152,93008,1,0
424,224,93374,2,0,B|368:224,4,55,0|0|0|0|8
256,336,94837,6,0,B|32:336,1,220,4|8
104,264,95935,1,0
200,264,96301,2,0,B|256:264,4,55,0|0|0|0|8
256,72,97764,6,0,B|256:128,3,55,4|0|0|8
208,216,98679,1,0
304,216,99044,1,8
256,304,99410,1,0
256,152,99959,2,8,B|256:96,2,55
256,192,100691,12,4,103617
40,120,115324,6,0,B|152:120,1,110
80,192,116056,2,0,B|192:192,1,110
120,264,116787,2,0,B|232:264,1,110
160,336,117519,2,0,B|272:336,1,110
368,336,118251,6,0,B|424:336,4,55,4|0|0|0|8
368,336,119348,1,0
368,240,119714,2,0,B|440:136|360:32,1,220,0|8
363,36,120811,1,0
264,32,121177,6,0,B|120:32|120:168,1,220,0|8
120,160,122275,1,0
120,256,122641,2,0,B|232:256,1,110
230,256,123372,1,8
230,256,123738,1,0
256,192,124104,12,0,126299
472,120,127031,6,0,B|360:120,1,110,4|0
432,192,127762,2,0,B|320:192,1,110,8|0
392,264,128494,2,0,B|280:264,1,110
352,336,129226,2,0,B|240:336,1,110,8|0
144,336,129957,6,0,B|88:336,4,55,4|0|0|0|8
144,336,131055,1,0
144,240,131421,2,0,B|72:136|152:32,1,220,0|8
148,36,132518,1,0
248,32,132884,6,0,B|392:32|392:168,1,220,0|8
391,160,133981,1,0
392,256,134347,2,0,B|280:256,1,110
282,256,135079,1,8
282,256,135445,1,0
256,192,135810,12,0,138005
256,48,138737,5,4
256,144,139103,1,0
352,144,139469,2,0,B|424:144|424:216,1,110,8|0
416,304,140200,1,0
416,304,140383,1,0
416,304,140566,2,0,B|464:344,2,55,0|0|8
256,192,141664,5,4
160,192,142030,1,0
64,192,142395,2,0,B|16:192|16:280,1,110,8|0
112,280,143127,1,0
112,280,143310,1,0
112,280,143493,2,0,B|168:280,2,55,0|0|8
256,144,144590,5,4
304,144,144773,1,0
352,144,144956,2,0,B|416:144,1,55,0|8
352,232,145505,1,0
448,232,145871,1,8
448,328,146237,1,0
296,328,146785,2,8,B|240:328,2,55
200,328,147517,5,4
152,328,147700,1,0
104,328,147883,2,0,B|40:328,1,55,0|8
104,240,148432,1,0
8,240,148797,1,8
8,144,149163,1,0
160,144,149712,2,8,B|216:144,2,55
160,48,150444,6,0,B|304:48|304:184,2,220,4|8|0
112,48,152090,2,0,B|56:48,3,55,0|0|0|8
256,48,153370,6,0,B|112:48|112:184,2,220,4|8|0
304,48,155017,2,0,B|360:48,3,55,0|0|0|8
496,192,156297,6,0,B|328:192,1,165,4|8
256,120,157212,1,0
184,192,157577,1,8
256,264,157943,1,0
128,192,158492,2,8,B|72:192,2,55
256,192,159224,12,4,162150
40,192,173491,5,8
136,192,173857,2,0,B|288:192|288:40|424:40,1,330,4|8
480,112,175320,2,0,B|328:112|328:264|192:264,1,330,0|8
104,272,176784,5,4
56,360,177149,1,0
152,360,177515,1,0
208,272,177881,1,8
304,272,178247,2,0,B|496:272|496:48,1,330,0|8
400,56,179710,6,0,B|360:56,9,36.6666666666667,4|0|0|0|0|0|0|0|0|8
264,56,181174,2,0,B|224:56,9,36.6666666666667,4|0|0|0|0|0|0|0|0|8
256,192,182637,12,4,185564
40,344,191417,5,4
40,256,191783,1,0
40,168,192149,2,0,L|40:112|96:112,1,110,8|0
192,112,192880,2,0,B|248:112,4,55,0|0|0|0|8
376,40,194344,5,4
472,40,194709,1,0
472,136,195075,2,0,L|472:192|416:192,1,110,8|0
336,136,195807,1,0
336,136,195990,1,0
336,136,196173,2,0,L|280:136,2,55,0|0|8
256,320,197270,5,4
256,320,197453,1,0
256,320,197636,2,0,L|312:320,1,55,0|8
344,224,198185,1,0
412,157,198551,1,8
480,89,198916,1,0
328,88,199465,2,8,L|272:88,2,55
232,88,200197,5,4
232,88,200380,1,0
232,88,200563,2,0,L|176:88,1,55,0|8
144,184,201111,1,0
77,252,201477,1,8
9,320,201843,1,0
160,320,202392,2,8,L|216:320,2,55
256,320,203123,6,0,L|312:320,4,55,4|0|0|0|8
104,192,204587,6,0,L|48:192,4,55,0|0|0|0|8
256,64,206050,6,0,L|312:64,4,55,4|0|0|0|8
408,192,207513,5,0
408,192,207696,1,0
408,192,207879,1,0
408,192,208062,1,0
408,192,208245,1,8
296,352,208977,5,4
248,352,209160,1,0
200,352,209343,2,0,L|200:296,1,55,0|8
104,296,209891,1,0
104,200,210257,1,8
104,104,210623,1,0
224,24,211172,2,8,L|280:24,2,55
256,192,211903,12,4,214830
