osu file format v12

[General]
AudioFilename: Nelly_Furtado-Maneater_2006.mp3
AudioLeadIn: 0
PreviewTime: 44663
Countdown: 0
SampleSet: Normal
StackLeniency: 0.7
Mode: 0
LetterboxInBreaks: 1
WidescreenStoryboard: 0

[Editor]
Bookmarks: 15752,44668,73579,102494,132765,145868
DistanceSpacing: 1.1
BeatDivisor: 4
GridSize: 4

[Metadata]
Title:Maneater
TitleUnicode:Maneater
Artist:Nelly Furtado
ArtistUnicode:Nelly Furtado
Creator:GladiOol
Version:Normal
Source:
Tags:gladi nellie tornado
BeatmapID:376212
BeatmapSetID:86632

[Difficulty]
HPDrainRate:3
CircleSize:4
OverallDifficulty:3
ApproachRate:4
SliderMultiplier:1.4
SliderTickRate:2

[Events]
//Background and Video events
0,0,"Nelly-Furtado-nelly-furtado-29620937-1024-768.jpg",0,0
//Break Periods
2,73579,86491
2,133217,143870
//Storyboard Layer 0 (Background)
//Storyboard Layer 1 (Fail)
//Storyboard Layer 2 (Pass)
//Storyboard Layer 3 (Foreground)
//Storyboard Sound Samples
//Background Colour Transformations
3,100,163,162,255

[TimingPoints]
1290,451.807228915663,4,1,0,60,1,0
44663,-100,4,1,0,60,0,1
73579,-100,4,1,0,60,0,0
102494,-100,4,1,0,60,0,1
131410,-100,4,2,0,50,0,0
132765,-100,4,1,0,60,0,0
145868,-100,4,1,0,60,0,1
172976,-100,4,2,0,50,0,0

[Colours]
Combo1 : 37,182,252
Combo2 : 245,56,147
Combo3 : 18,106,214
Combo4 : 249,88,34

[HitObjects]
35,135,15747,2,0,P|25:167|28:206,2,70,0|0|8,0:0|0:0|0:2,0:0:0:0:
151,33,16651,1,2,0:0:0:0:
275,123,17103,2,0,P|349:134|406:100,2,140,12|2|8,0:2|0:0|0:2,0:0:0:0:
206,87,18232,2,0,P|132:76|75:110,1,140,2|0,0:0|0:0,0:0:0:0:
41,175,18910,1,8,0:2:0:0:
78,242,19136,6,0,P|138:274|266:218,1,210,2|8,0:0|0:2,0:0:0:0:
302,76,20265,1,2,0:0:0:0:
446,129,20717,2,0,P|474:191|459:260,2,140,12|2|8,0:2|0:0|0:2,0:0:0:0:
381,85,21847,2,0,P|313:70|250:98,1,140,2|0,0:0|0:0,0:0:0:0:
171,230,22750,6,0,P|108:258|40:243,1,140,2|0,0:0|0:0,0:0:0:0:
5,174,23428,2,0,P|39:164|77:175,2,70,8|0|0,0:2|0:0|0:0,0:0:0:0:
15,328,24332,2,0,P|77:356|145:341,1,140,12|2,0:2|0:0,0:0:0:0:
264,243,25235,1,8,0:2:0:0:
264,243,25461,2,0,P|331:228|394:256,1,140,2|0,0:0|0:0,0:0:0:0:
452,306,26139,1,8,0:2:0:0:
500,246,26365,6,8,P|456:159|486:48,1,210,2|8,0:0|0:2,0:2:0:0:
328,34,27494,2,0,P|346:94|321:170,1,140,2|12,0:0|0:2,0:0:0:0:
187,237,28398,2,0,P|93:221|-3:291,2,210,2|2|8,0:0|0:0|0:2,0:0:0:0:
252,278,29979,6,0,P|324:308|392:294,1,140,2|0,0:0|0:0,0:0:0:0:
451,261,30657,1,8,0:2:0:0:
501,115,31109,2,0,P|503:80|493:40,1,70,2|0,0:0|0:0,0:0:0:0:
427,82,31561,2,0,P|425:117|435:157,1,70,12|0,0:2|0:0,0:0:0:0:
373,200,32012,2,0,P|281:148|184:173,1,210,2|2,0:0|0:0,0:0:0:0:
104,304,33142,1,0,0:0:0:0:
104,304,33368,1,8,0:2:0:0:
44,254,33594,6,0,P|21:188|33:118,1,140,2|0,0:0|0:0,0:0:0:0:
88,67,34271,1,8,0:2:0:0:
222,141,34723,1,0,0:0:0:0:
334,35,35175,2,0,P|410:34|464:68,1,140,12|2,0:2|0:0,0:0:0:0:
491,218,36079,1,8,0:2:0:0:
435,164,36305,2,0,P|335:153|234:239,1,210,2|8,0:0|0:2,0:0:0:0:
206,277,37208,6,0,P|176:296|141:301,1,70,0|2,0:0|0:0,0:0:0:0:
32,192,37886,1,8,0:2:0:0:
127,71,38338,2,0,P|191:60|259:98,1,140,2|12,0:0|0:2,0:0:0:0:
302,154,39015,1,0,0:0:0:0:
302,154,39241,2,0,P|416:172|491:110,2,210,2|2|8,0:0|0:0|0:2,0:0:0:0:
230,124,40823,6,0,P|196:191|206:261,1,140,2|0,0:0|0:0,0:0:0:0:
251,313,41500,2,0,P|328:323|387:294,1,140,8|2,0:2|0:0,0:0:0:0:
440,154,42404,2,0,P|363:144|304:173,2,140,12|2|8,0:2|0:0|0:2,0:0:0:0:
450,230,43533,2,0,P|386:256|318:245,2,140,2|0|0,0:0|0:0|0:0,0:0:0:0:
439,153,44663,6,2,P|331:131|240:183,2,210,2|2|12,0:0|0:0|0:2,0:0:0:0:
428,306,46470,2,0,P|364:332|296:321,1,140,2|8,0:0|0:2,0:0:0:0:
175,225,47374,2,0,P|167:188|169:147,1,70,2|0,0:0|0:0,0:0:0:0:
132,87,47826,2,0,P|63:75|0:102,2,140,8|2|8,0:2|0:0|0:2,0:0:0:0:
195,130,48955,1,0,0:0:0:0:
195,130,49181,2,0,P|267:136|329:107,1,140,2|12,0:0|0:2,0:0:0:0:
455,22,50085,5,2,0:0:0:0:
491,171,50536,1,8,0:2:0:0:
491,171,50762,1,0,0:0:0:0:
338,344,51440,1,8,0:2:0:0:
206,262,51892,6,2,P|87:245|13:302,2,210,2|2|12,0:0|0:0|0:2,0:0:0:0:
336,343,53699,2,0,P|413:352|473:316,1,140,2|8,0:0|0:2,0:0:0:0:
382,193,54603,1,2,0:0:0:0:
382,193,54829,1,0,0:0:0:0:
382,193,55055,2,0,P|443:162|511:173,2,140,8|2|8,0:2|0:0|0:2,0:0:0:0:
293,318,56410,2,0,P|231:348|163:337,1,140,2|12,0:0|0:2,0:0:0:0:
44,238,57314,5,2,0:0:0:0:
90,91,57765,1,8,0:2:0:0:
90,91,57991,1,0,0:0:0:0:
313,33,58669,1,8,0:2:0:0:
435,126,59121,6,2,P|361:186|248:170,2,210,2|2|12,0:0|0:0|0:2,0:0:0:0:
485,271,60928,2,0,P|413:259|350:286,1,140,2|8,0:0|0:2,0:0:0:0:
219,361,61832,2,0,P|206:328|206:285,1,70,2|0,0:0|0:0,0:0:0:0:
171,224,62283,2,0,P|106:249|38:236,1,140,8|2,0:2|0:0,0:0:0:0:
99,94,63187,1,8,0:2:0:0:
99,94,63413,1,0,0:0:0:0:
99,94,63639,2,0,P|163:68|231:81,1,140,2|12,0:0|0:2,0:0:0:0:
336,194,64543,5,2,0:0:0:0:
473,124,64994,1,8,0:2:0:0:
473,124,65220,1,0,0:0:0:0:
408,345,65898,1,8,0:2:0:0:
275,266,66350,6,2,P|170:250|87:308,2,210,2|2|12,0:0|0:0|0:2,0:0:0:0:
425,233,68157,2,0,P|456:156|445:94,1,140,2|8,0:0|0:2,0:0:0:0:
295,77,69061,1,2,0:0:0:0:
346,133,69286,1,0,0:0:0:0:
270,148,69512,2,0,P|263:216|292:279,1,140,8|2,0:2|0:0,0:0:0:0:
156,352,70416,1,8,0:2:0:0:
42,248,70868,6,0,P|32:208|36:173,3,70,2|0|12|0,0:0|0:0|0:2|0:0,0:0:0:0:
96,134,71771,2,0,P|106:174|102:209,3,70,2|0|8|2,0:0|0:0|0:2|0:0,0:0:0:0:
215,65,87811,6,0,P|144:58|90:97,1,140,2|0,0:0|0:0,0:0:0:0:
66,169,88488,1,8,0:2:0:0:
146,300,88940,2,0,P|182:308|218:297,2,70,2|0|12,0:0|0:0|0:2,0:0:0:0:
229,170,89844,2,2,B|278:192|314:141|369:170,2,140,2|2|0,0:0|0:0|0:0,0:0:0:0:
290,28,91199,1,8,0:2:0:0:
355,69,91425,6,0,P|433:101|490:90,1,140,2|0,0:0|0:0,0:0:0:0:
485,91,92103,1,8,0:2:0:0:
420,231,92555,2,0,P|343:234|291:270,1,140,2|12,0:0|0:2,0:0:0:0:
169,360,93458,2,2,B|119:382|83:331|28:360,2,140,2|2|0,0:0|0:0|0:0,0:0:0:0:
285,258,94814,1,8,0:2:0:0:
215,225,95040,6,0,P|203:188|206:147,2,70,0|2|0,0:0|0:0|0:0,0:0:0:0:
276,178,95717,2,0,P|276:143|264:110,2,70,8|0|2,0:2|0:0|0:0,0:0:0:0:
290,331,96621,2,0,P|364:359|422:347,1,140,12|2,0:2|0:0,0:0:0:0:
436,193,97524,1,8,0:2:0:0:
436,193,97750,2,0,P|362:165|245:228,1,210,2|12,0:0|0:2,0:0:0:0:
158,343,98880,6,0,P|87:353|21:320,1,140,2|8,0:0|0:2,0:0:0:0:
92,185,99783,2,0,P|155:156|223:167,1,140,2|8,0:0|0:2,0:0:0:0:
140,297,100687,2,0,P|250:309|333:256,2,210,2|2|8,0:0|0:0|0:2,0:0:0:0:
73,153,102494,6,2,P|181:131|272:183,2,210,2|2|12,0:0|0:0|0:2,0:0:0:0:
84,306,104302,2,0,P|148:332|216:321,1,140,2|8,0:0|0:2,0:0:0:0:
337,225,105205,2,0,P|345:188|343:147,1,70,2|0,0:0|0:0,0:0:0:0:
380,87,105657,2,0,P|449:75|512:102,2,140,8|2|8,0:2|0:0|0:2,0:0:0:0:
317,130,106786,1,0,0:0:0:0:
317,130,107012,2,0,P|245:136|183:107,1,140,2|12,0:0|0:2,0:0:0:0:
57,22,107916,5,2,0:0:0:0:
21,171,108368,1,8,0:2:0:0:
21,171,108594,1,0,0:0:0:0:
174,344,109271,1,8,0:2:0:0:
306,262,109723,6,2,P|425:245|499:302,2,210,2|2|12,0:0|0:0|0:2,0:0:0:0:
176,343,111530,2,0,P|99:352|39:316,1,140,2|8,0:0|0:2,0:0:0:0:
130,193,112434,1,2,0:0:0:0:
130,193,112660,1,0,0:0:0:0:
130,193,112886,2,0,P|69:162|1:173,2,140,8|2|8,0:2|0:0|0:2,0:0:0:0:
219,318,114241,2,0,P|281:348|349:337,1,140,2|12,0:0|0:2,0:0:0:0:
468,238,115145,5,2,0:0:0:0:
422,91,115597,1,8,0:2:0:0:
422,91,115823,1,0,0:0:0:0:
199,33,116500,1,8,0:2:0:0:
77,126,116952,6,2,P|151:186|264:170,2,210,2|2|12,0:0|0:0|0:2,0:0:0:0:
27,271,118759,2,0,P|99:259|162:286,1,140,2|8,0:0|0:2,0:0:0:0:
293,361,119663,2,0,P|306:328|306:285,1,70,2|0,0:0|0:0,0:0:0:0:
341,224,120115,2,0,P|406:249|474:236,1,140,8|2,0:2|0:0,0:0:0:0:
413,94,121018,1,8,0:2:0:0:
413,94,121244,1,0,0:0:0:0:
413,94,121470,2,0,P|349:68|281:81,1,140,2|12,0:0|0:2,0:0:0:0:
176,194,122374,5,2,0:0:0:0:
39,124,122826,1,8,0:2:0:0:
39,124,123052,1,0,0:0:0:0:
104,345,123729,1,8,0:2:0:0:
237,266,124181,6,2,P|342:250|425:308,2,210,2|2|12,0:0|0:0|0:2,0:0:0:0:
87,233,125988,2,0,P|56:156|67:94,1,140,2|8,0:0|0:2,0:0:0:0:
217,77,126892,1,2,0:0:0:0:
166,133,127118,1,0,0:0:0:0:
242,148,127344,2,0,P|249:216|220:279,1,140,8|2,0:2|0:0,0:0:0:0:
356,352,128247,1,8,0:2:0:0:
470,248,128699,6,0,P|480:208|476:173,3,70,2|0|12|0,0:0|0:0|0:2|0:0,0:0:0:0:
416,134,129603,2,0,P|406:174|410:209,3,70,2|0|8|2,0:0|0:0|0:2|0:0,0:0:0:0:
313,323,130732,1,0,0:0:0:0:
313,323,130958,1,8,0:2:0:0:
256,192,131184,12,12,132765,0:2:0:0:
190,279,145190,6,0,P|126:295|48:265,1,140
23,202,145868,6,2,P|114:154|215:180,1,210,2|2,0:0|0:0,0:0:0:0:
275,224,146771,2,0,P|339:240|417:210,1,140,0|12,0:0|0:2,0:0:0:0:
482,82,147675,1,2,0:0:0:0:
338,25,148127,1,8,0:2:0:0:
246,148,148579,1,2,0:0:0:0:
203,212,148805,1,0,0:0:0:0:
168,143,149030,2,0,P|107:153|33:119,2,140,8|2|8,0:2|0:0|0:2,0:0:0:0:
293,53,150386,2,0,P|354:43|428:77,1,140,2|12,0:0|0:2,0:0:0:0:
479,217,151290,5,2,0:0:0:0:
386,339,151741,1,8,0:2:0:0:
386,339,151967,1,0,0:0:0:0:
232,166,152645,1,8,0:2:0:0:
171,307,153097,6,2,P|94:353|-18:323,2,210,2|2|12,0:0|0:0|0:2,0:0:0:0:
231,165,154904,2,0,P|228:92|262:29,1,140,2|8,0:0|0:2,0:0:0:0:
381,126,155808,1,2,0:0:0:0:
381,126,156033,1,0,0:0:0:0:
381,126,156259,2,0,P|384:195|354:257,1,140,8|2,0:2|0:0,0:0:0:0:
223,339,157163,1,8,0:2:0:0:
77,289,157615,2,0,P|46:226|50:157,1,140,2|12,0:0|0:2,0:0:0:0:
156,46,158518,5,2,0:0:0:0:
247,170,158970,1,8,0:2:0:0:
247,170,159196,1,0,0:0:0:0:
454,67,159874,1,8,0:2:0:0:
485,217,160326,6,2,P|387:208|295:276,1,210
260,336,161229,2,0,P|192:358|126:340,1,140,0|12,0:0|0:2,0:0:0:0:
37,215,162133,2,0,P|105:193|171:211,2,140,2|8|2,0:0|0:2|0:0,0:0:0:0:
127,340,163488,2,0,P|194:357|260:336,1,140,8|2,0:2|0:0,0:0:0:0:
363,221,164392,1,8,0:2:0:0:
433,252,164618,1,0,0:0:0:0:
423,175,164844,2,0,P|396:118|399:38,1,140,2|12,0:0|0:2,0:0:0:0:
287,150,165747,6,0,P|314:207|311:287,1,140,2|8,0:0|0:2,0:0:0:0:
267,345,166425,1,0,0:0:0:0:
56,249,167103,1,8,0:2:0:0:
140,120,167555,6,2,P|245:139|329:74,2,210,2|2|12,0:0|0:0|0:2,0:0:0:0:
35,233,169362,2,0,P|94:244|152:304,1,140,2|8,0:0|0:2,0:0:0:0:
291,358,170265,1,2,0:0:0:0:
354,314,170491,1,0,0:0:0:0:
430,323,170717,2,0,P|462:252|452:183,1,140,8|2,0:2|0:0,0:0:0:0:
345,83,171621,1,8,0:2:0:0:
254,207,172073,6,0,P|216:222|183:218,3,70,2|0|12|0,0:0|0:0|0:2|0:0,0:0:0:0:
138,159,172976,2,0,P|176:144|209:148,3,70,2|0|0|2,0:0|0:0|0:0|0:0,0:0:0:0:
