osu file format v12

[General]
AudioFilename: Nelly_Furtado-Maneater_2006.mp3
AudioLeadIn: 0
PreviewTime: 44663
Countdown: 0
SampleSet: Soft
StackLeniency: 0.7
Mode: 0
LetterboxInBreaks: 1
WidescreenStoryboard: 0

[Editor]
Bookmarks: 15752,44668,73579,102494,132765,145868
DistanceSpacing: 1
BeatDivisor: 4
GridSize: 4

[Metadata]
Title:Maneater
TitleUnicode:Maneater
Artist:Nelly Furtado
ArtistUnicode:Nelly Furtado
Creator:GladiOol
Version:Hard
Source:
Tags:gladi nellie tornado
BeatmapID:237156
BeatmapSetID:86632

[Difficulty]
HPDrainRate:7
CircleSize:5
OverallDifficulty:6
ApproachRate:7
SliderMultiplier:1.6
SliderTickRate:2

[Events]
//Background and Video events
0,0,"Nelly-Furtado-nelly-furtado-29620937-1024-768.jpg",0,0
//Break Periods
2,133217,144290
//Storyboard Layer 0 (Background)
//Storyboard Layer 1 (Fail)
//Storyboard Layer 2 (Pass)
//Storyboard Layer 3 (Foreground)
//Storyboard Sound Samples
//Background Colour Transformations
3,100,163,162,255

[TimingPoints]
1290,451.807228915663,4,1,0,60,1,0
44663,-100,4,1,0,60,0,1
73579,-100,4,1,0,60,0,0
102494,-100,4,1,0,60,0,1
131410,-100,4,2,0,50,0,0
132765,-100,4,1,0,60,0,0
145868,-100,4,1,0,60,0,1
172976,-100,4,2,0,50,0,0

[Colours]
Combo1 : 37,182,252
Combo2 : 245,56,147
Combo3 : 18,106,214
Combo4 : 249,88,34

[HitObjects]
80,320,15747,2,0,P|48:340|8:336,2,80,2|0|8,0:0|0:0|0:2,0:0:0:0:
124,252,16425,1,0,0:0:0:0:
188,204,16651,2,0,P|232:200|272:224,1,80,2|0,0:0|0:0,0:0:0:0:
308,280,17103,2,0,L|392:272,1,80,12|0,0:2|0:0,0:0:0:0:
488,192,17555,6,0,P|512:120|476:36,1,160,2|8,0:0|0:2,0:0:0:0:
404,28,18232,2,0,P|336:72|260:60,1,160,2|0,0:0|0:0,0:0:0:0:
184,36,18910,1,8,0:2:0:0:
124,92,19136,6,0,P|88:164|104:240,1,160,2|0,0:0|0:0,0:0:0:0:
76,316,19814,1,8,0:2:0:0:
76,316,20040,2,0,P|116:316|156:344,1,80,0|2,0:0|0:0,0:0:0:0:
224,364,20491,1,0,0:0:0:0:
292,324,20717,1,12,0:2:0:0:
472,352,21169,6,0,P|504:268|484:192,1,160,2|8,0:0|0:2,0:0:0:0:
416,164,21847,2,0,P|344:204|264:180,1,160,2|0,0:0|0:0,0:0:0:0:
212,136,22524,1,8,0:2:0:0:
152,84,22750,6,0,P|60:76|4:124,1,160,2|0,0:0|0:0,0:0:0:0:
4,196,23428,2,0,P|44:200|80:176,1,80,8|0,0:2|0:0,0:0:0:0:
132,240,23880,2,0,P|176:236|208:256,1,80,2|0,0:0|0:0,0:0:0:0:
244,324,24332,2,0,L|328:340,1,80,12|0,0:2|0:0,0:0:0:0:
448,308,24783,6,0,P|476:224|452:156,1,160,2|8,0:0|0:2,0:0:0:0:
416,88,25461,2,0,P|356:148|348:224,1,160,2|0,0:0|0:0,0:0:0:0:
356,300,26139,1,8,0:2:0:0:
292,348,26365,6,0,P|220:388|136:364,1,160,2|0,0:0|0:0,0:0:0:0:
88,316,27043,2,0,P|104:276|96:236,1,80,8|0,0:2|0:0,0:0:0:0:
32,188,27494,2,0,P|16:228|24:268,2,80,2|0|12,0:0|0:0|0:2,0:0:0:0:
88,132,28172,1,0,0:0:0:0:
176,224,28398,6,0,P|256:240|312:188,1,160,2|8,0:0|0:2,0:0:0:0:
332,112,29076,2,0,P|408:80|488:108,1,160,2|0,0:0|0:0,0:0:0:0:
504,176,29753,1,8,0:2:0:0:
480,252,29979,6,0,P|404:284|324:256,1,160,2|0,0:0|0:0,0:0:0:0:
268,212,30657,1,8,0:2:0:0:
208,156,30883,2,0,P|171:150|135:170,2,80,0|2|0,0:0|0:0|0:0,0:0:0:0:
184,232,31561,2,0,P|148:252|111:246,1,80,12|0,0:2|0:0,0:0:0:0:
12,164,32012,6,0,P|4:68|40:16,1,160,2|8,0:0|0:2,0:0:0:0:
96,72,32690,2,0,P|112:152|84:224,1,160,2|0,0:0|0:0,0:0:0:0:
32,288,33368,1,8,0:2:0:0:
76,356,33594,6,0,P|148:312|224:328,1,160,2|0,0:0|0:0,0:0:0:0:
292,356,34271,2,0,P|328:376|372:368,2,80,8|0|2,0:2|0:0|0:0,0:0:0:0:
252,288,34949,1,0,0:0:0:0:
236,208,35175,2,0,P|236:160|256:124,1,80,12|0,0:2|0:0,0:0:0:0:
348,48,35627,6,0,P|432:44|492:92,1,160,2|8,0:0|0:2,0:0:0:0:
512,164,36305,2,0,P|454:208|370:204,1,160,2|0,0:0|0:0,0:0:0:0:
296,172,36982,1,8,0:2:0:0:
256,104,37208,6,2,P|220:88|180:96,2,80,2|2|0,0:0|0:0|0:0,0:0:0:0:
296,172,37886,1,8,0:2:0:0:
288,252,38112,1,0,0:0:0:0:
240,316,38338,2,0,P|172:360|96:344,1,160,2|12,0:0|0:2,0:0:0:0:
40,292,39015,1,0,0:0:0:0:
60,164,39241,6,0,P|128:120|204:136,1,160,2|8,0:0|0:2,0:0:0:0:
256,192,39919,2,0,P|340:200|400:136,1,160,2|0,0:0|0:0,0:0:0:0:
432,84,40597,1,8,0:2:0:0:
496,128,40823,6,0,P|532:208|508:280,1,160,2|0,0:0|0:0,0:0:0:0:
460,336,41500,1,8,0:2:0:0:
460,336,41726,2,0,P|424:356|384:348,1,80,0|2,0:0|0:0,0:0:0:0:
332,292,42178,2,0,P|284:284|252:300,2,80,0|12|0,0:0|0:2|0:0,0:0:0:0:
404,184,42856,6,0,P|328:152|252:192,1,160,2|8,0:0|0:2,0:0:0:0:
204,240,43533,2,0,P|124:272|48:240,2,160,2|0|0,0:0|0:0|0:0,0:0:0:0:
280,136,44663,6,2,P|396:104|496:176,2,240,2|2|14,0:0|0:0|0:2,0:0:0:0:
248,208,46244,1,0,0:0:0:0:
288,328,46470,6,0,P|360:364|440:336,2,160,2|8|2,0:0|0:2|0:0,0:0:0:0:
236,268,47600,1,0,0:0:0:0:
184,208,47826,2,0,P|96:180|28:212,1,160,8|2,0:2|0:0,0:0:0:0:
12,280,48503,1,0,0:0:0:0:
56,344,48729,1,8,0:2:0:0:
132,368,48955,1,0,0:0:0:0:
204,336,49181,2,0,P|292:308|360:340,1,160,2|12,0:0|0:2,0:0:0:0:
488,176,50085,5,2,0:0:0:0:
376,64,50536,1,8,0:2:0:0:
376,64,50762,2,0,P|296:56|232:104,1,160,2|0,0:0|0:0,0:0:0:0:
172,152,51440,2,0,P|128:152|92:132,1,80,8|0,0:2|0:0,0:0:0:0:
16,244,51892,6,2,P|132:240|200:336,2,240,2|2|14,0:0|0:0|0:2,0:0:0:0:
12,164,53473,1,0,0:0:0:0:
136,92,53699,6,0,P|220:108|284:64,2,160,2|8|2,0:0|0:2|0:0,0:0:0:0:
96,164,54829,1,0,0:0:0:0:
148,224,55055,2,0,P|220:212|296:260,1,160,8|2,0:2|0:0,0:0:0:0:
328,324,55732,1,0,0:0:0:0:
328,324,55958,2,8,P|372:328|408:312,1,80,8|0,0:2|0:2,0:2:0:0:
460,256,56410,2,0,P|476:164|448:104,1,160,2|12,0:0|0:2,0:0:0:0:
256,32,57314,5,2,0:0:0:0:
184,176,57765,1,8,0:2:0:0:
184,176,57991,2,0,P|264:172|328:228,1,160,2|0,0:0|0:0,0:0:0:0:
344,296,58669,2,0,P|348:340|332:376,1,80,8|0,0:2|0:0,0:0:0:0:
224,304,59121,6,2,P|96:272|12:344,2,240,2|2|14,0:0|0:0|0:2,0:0:0:0:
224,304,60702,1,0,0:0:0:0:
336,244,60928,6,0,P|424:264|480:220,2,160,2|8|2,0:0|0:2|0:0,0:0:0:0:
292,176,62058,1,0,0:0:0:0:
228,128,62283,2,0,P|148:96|80:128,1,160,8|2,0:2|0:0,0:0:0:0:
40,192,62961,1,0,0:0:0:0:
72,264,63187,2,0,P|116:264|152:292,1,80,8|0,0:2|0:0,0:0:0:0:
196,348,63639,2,0,P|292:360|348:316,1,160,2|12,0:0|0:2,0:0:0:0:
404,128,64543,5,2,0:0:0:0:
280,28,64994,1,8,0:2:0:0:
280,28,65220,2,0,P|200:0|132:32,1,160,2|0,0:0|0:0,0:0:0:0:
88,96,65898,1,8,0:2:0:0:
124,168,66124,1,0,0:0:0:0:
100,292,66350,6,2,P|208:316|300:236,2,240,2|2|14,0:0|0:0|0:2,0:0:0:0:
48,232,67931,1,0,0:0:0:0:
112,120,68157,6,0,P|192:104|264:152,2,160,2|8|2,0:0|0:2|0:0,0:0:0:0:
64,184,69286,1,0,0:0:0:0:
112,248,69512,2,0,P|176:285|256:269,1,160,8|2,0:2|0:0,0:0:0:0:
316,216,70190,1,0,0:0:0:0:
392,192,70416,2,0,P|432:188|468:208,1,80,8|0,0:2|0:0,0:0:0:0:
488,284,70868,6,0,P|448:288|412:268,3,80,2|0|12|0,0:0|0:0|0:2|0:0,0:0:0:0:
364,116,71771,2,0,P|404:112|440:132,3,80,2|0|8|2,0:0|0:0|0:2|0:0,0:0:0:0:
368,276,72901,1,0,0:0:0:0:
296,312,73127,1,8,0:2:0:0:
216,304,73353,1,0,0:0:0:0:
152,256,73579,6,0,P|112:244|72:260,2,80,2|0|8,0:0|0:0|0:2,0:0:0:0:
212,200,74256,1,0,0:0:0:0:
284,236,74482,2,0,P|324:248|364:232,1,80,2|0,0:0|0:0,0:0:0:0:
416,176,74934,1,12,0:2:0:0:
424,96,75160,1,0,0:0:0:0:
332,8,75386,6,0,P|248:-4|188:40,1,160,2|8,0:0|0:2,0:0:0:0:
160,112,76064,2,0,P|88:136|8:104,1,160,2|0,0:0|0:0,0:0:0:0:
8,188,76741,1,8,0:2:0:0:
68,240,76967,6,0,P|156:228|216:276,1,160,2|0,0:0|0:0,0:0:0:0:
240,340,77645,2,0,P|284:344|320:324,1,80,8|0,0:2|0:0,0:0:0:0:
364,264,78097,2,0,L|448:280,1,80,2|0,0:0|0:0,0:0:0:0:
504,224,78549,1,12,0:2:0:0:
504,224,78774,1,0,0:0:0:0:
448,108,79000,6,0,P|360:88|300:128,1,160,2|8,0:0|0:2,0:0:0:0:
264,192,79678,2,0,P|192:228|120:204,1,160,2|0,0:0|0:0,0:0:0:0:
40,212,80356,1,8,0:2:0:0:
36,292,80582,6,0,P|120:292|188:360,1,160,2|0,0:0|0:0,0:0:0:0:
248,372,81259,2,0,P|296:380|328:364,1,80,8|0,0:2|0:0,0:0:0:0:
380,312,81711,2,0,P|428:304|460:320,2,80,2|0|12,0:0|0:0|0:2,0:0:0:0:
324,252,82389,1,0,0:0:0:0:
360,128,82615,6,0,P|444:144|508:96,1,160,2|8,0:0|0:2,0:0:0:0:
452,44,83293,2,0,P|364:20|296:52,1,160,2|0,0:0|0:0,0:0:0:0:
268,116,83970,1,8,0:2:0:0:
292,192,84196,6,0,P|376:176|440:224,1,160,2|0,0:0|0:0,0:0:0:0:
452,296,84874,1,8,0:2:0:0:
392,348,85100,1,0,0:0:0:0:
316,320,85326,2,0,P|276:304|232:312,1,80,2|0,0:0|0:0,0:0:0:0:
172,348,85777,2,0,P|136:352|96:336,1,80,12|0,0:2|0:0,0:0:0:0:
20,232,86229,6,0,P|-2:146|26:80,1,160,2|8,0:0|0:2,0:0:0:0:
67,14,86907,2,0,P|122:78|125:154,1,160,2|0,0:0|0:0,0:0:0:0:
116,228,87585,1,8,0:2:0:0:
148,300,87811,6,0,P|220:340|304:316,1,160,2|0,0:0|0:0,0:0:0:0:
360,280,88488,2,0,P|400:276|440:296,2,80,8|0|2,0:2|0:0|0:0,0:0:0:0:
292,240,89166,1,0,0:0:0:0:
236,184,89392,2,0,P|200:200|160:196,1,80,12|0,0:2|0:0,0:0:0:0:
104,80,89844,6,0,B|164:108|204:44|260:80,2,160,2|2|0,0:0|0:0|0:0,0:0:0:0:
40,128,90973,1,0,0:0:0:0:
28,208,91199,1,8,0:2:0:0:
80,268,91425,6,0,P|164:256|232:304,1,160,2|0,0:0|0:0,0:0:0:0:
300,260,92103,2,0,P|336:280|380:272,1,80,8|0,0:2|0:0,0:0:0:0:
428,216,92555,2,0,P|392:196|348:204,2,80,2|0|12,0:0|0:0|0:2,0:0:0:0:
456,292,93232,1,0,0:0:0:0:
352,368,93458,6,0,B|292:396|252:332|196:368,2,160,2|2|0,0:0|0:0|0:0,0:0:0:0:
416,320,94588,2,0,P|428:276|420:244,1,80,0|8,0:0|0:2,0:0:0:0:
364,184,95040,1,0,0:0:0:0:
404,116,95265,6,0,P|444:100|492:112,2,80,2|0|8,0:0|0:0|0:2,0:0:0:0:
364,184,95943,1,0,0:0:0:0:
296,224,96169,1,2,0:0:0:0:
220,200,96395,2,0,L|124:188,1,80,0|12,0:0|0:2,0:0:0:0:
76,236,96847,1,0,0:0:0:0:
40,112,97073,6,0,P|112:76|192:100,1,160,2|8,0:0|0:2,0:0:0:0:
244,152,97750,2,0,P|320:188|392:156,1,160,2|0,0:0|0:0,0:0:0:0:
444,104,98428,1,8,0:2:0:0:
492,168,98654,1,0,0:0:0:0:
460,244,98880,6,0,P|416:244|380:268,1,80,2|0,0:0|0:0,0:0:0:0:
336,324,99332,2,0,L|248:316,1,80,8|0,0:2|0:0,0:0:0:0:
280,240,99783,2,0,L|192:232,1,80,2|0,0:0|0:0,0:0:0:0:
144,172,100235,1,12,0:2:0:0:
144,172,100461,1,0,0:0:0:0:
204,60,100687,6,0,P|288:40|352:80,1,160,2|8,0:0|0:2,0:0:0:0:
404,132,101365,2,0,P|332:180|252:168,2,160,2|0|0,0:0|0:0|0:0,0:0:0:0:
472,280,102494,6,2,P|344:252|276:328,2,240,2|2|14,0:0|0:0|0:2,0:0:0:0:
504,208,104076,1,0,0:0:0:0:
420,112,104302,6,0,P|352:160|280:148,2,160,2|8|2,0:0|0:2|0:0,0:0:0:0:
392,36,105431,1,0,0:0:0:0:
316,8,105657,2,0,P|232:0|164:48,1,160,8|2,0:2|0:0,0:0:0:0:
136,112,106335,1,0,0:0:0:0:
180,180,106561,2,0,P|220:184|260:220,1,80,8|0,0:2|0:0,0:0:0:0:
288,276,107012,2,0,P|372:308|436:284,1,160,2|12,0:0|0:2,0:0:0:0:
484,52,107916,5,2,0:0:0:0:
380,176,108368,1,8,0:2:0:0:
380,176,108594,2,0,P|296:208|232:184,1,160,2|0,0:0|0:0,0:0:0:0:
176,132,109271,2,0,P|132:128|92:148,1,80,8|0,0:2|0:0,0:0:0:0:
76,268,109723,6,2,P|184:248|276:336,2,240,2|2|14,0:0|0:0|0:2,0:0:0:0:
20,324,111305,1,0,0:0:0:0:
0,196,111530,6,0,P|68:156|152:176,2,160,2|8|2,0:0|0:2|0:0,0:0:0:0:
0,276,112660,1,0,0:0:0:0:
48,340,112886,2,0,P|132:364|196:336,1,160,8|2,0:2|0:0,0:0:0:0:
248,276,113564,1,0,0:0:0:0:
248,276,113790,2,0,P|296:280|340:308,1,80,8|0,0:2|0:0,0:0:0:0:
396,332,114241,2,0,P|452:280|456:200,1,160,2|12,0:0|0:2,0:0:0:0:
352,20,115145,5,2,0:0:0:0:
288,164,115597,1,8,0:2:0:0:
288,164,115823,2,0,P|208:188|144:152,1,160,2|0,0:0|0:0,0:0:0:0:
64,156,116500,2,0,P|44:192|44:240,1,80,8|0,0:2|0:0,0:0:0:0:
80,352,116952,6,2,P|192:380|284:304,2,240,2|2|14,0:0|0:0|0:2,0:0:0:0:
52,276,118533,1,0,0:0:0:0:
108,160,118759,6,0,P|192:140|256:168,2,160,2|8|2,0:0|0:2|0:0,0:0:0:0:
124,240,119889,1,0,0:0:0:0:
188,284,120115,2,0,P|268:296|336:256,1,160,8|2,0:2|0:0,0:0:0:0:
372,188,120793,1,0,0:0:0:0:
372,188,121018,2,0,P|356:148|360:108,1,80,8|0,0:2|0:0,0:0:0:0:
392,40,121470,2,0,P|476:36|532:84,1,160,2|12,0:0|0:2,0:0:0:0:
452,276,122374,5,2,0:0:0:0:
340,160,122826,1,8,0:2:0:0:
340,160,123052,2,0,P|256:144|192:188,1,160,2|0,0:0|0:0,0:0:0:0:
168,256,123729,1,8,0:2:0:0:
168,256,123955,1,0,0:0:0:0:
244,360,124181,6,2,P|364:372|436:288,2,240,2|2|14,0:0|0:0|0:2,0:0:0:0:
196,296,125762,1,0,0:0:0:0:
108,204,125988,6,0,P|24:200|-32:248,2,160,2|8|2,0:0|0:2|0:0,0:0:0:0:
160,268,127118,1,0,0:0:0:0:
236,292,127344,2,0,P|312:304|388:252,1,160,8|2,0:2|0:0,0:0:0:0:
412,188,128021,1,0,0:0:0:0:
360,128,128247,2,0,P|320:124|276:148,1,80,8|0,0:2|0:0,0:0:0:0:
252,216,128699,6,0,P|292:220|336:196,3,80,2|0|12|0,0:0|0:0|0:2|0:0,0:0:0:0:
256,64,129603,2,0,P|216:60|172:84,3,80,2|0|8|2,0:0|0:0|0:2|0:0,0:0:0:0:
96,240,130732,1,0,0:0:0:0:
96,240,130958,1,8,0:2:0:0:
256,192,131184,12,12,132765,0:2:0:0:
212,56,145190,6,0,P|136:16|60:44,1,160,0|0,0:0|0:0,0:0:0:0:
120,156,145868,6,2,P|248:196|328:124,1,240
348,60,146771,2,2,P|432:48|496:96,1,160,0|14,0:0|0:2,0:0:0:0:
504,168,147449,1,0,0:0:0:0:
412,260,147675,6,0,P|320:240|264:276,2,160,2|8|2,0:0|0:2|0:0,0:0:0:0:
376,332,148805,1,0,0:0:0:0:
308,372,149030,2,0,P|236:384|152:336,1,160,8|2,0:2|0:0,0:0:0:0:
112,280,149708,1,0,0:0:0:0:
76,208,149934,2,0,P|72:164|84:132,1,80,8|0,0:2|0:0,0:0:0:0:
132,68,150386,2,0,P|208:40|288:72,1,160,2|12,0:0|0:2,0:0:0:0:
320,132,151064,1,0,0:0:0:0:
364,272,151290,6,0,P|440:300|520:268,1,160,2|8,0:0|0:2,0:0:0:0:
512,196,151967,2,0,P|436:168|356:200,1,160,2|0,0:0|0:0,0:0:0:0:
320,260,152645,2,0,P|284:272|240:256,1,80,8|0,0:2|0:0,0:0:0:0:
176,152,153097,6,2,P|56:124|-24:196,2,240,2|2|14,0:0|0:0|0:2,0:0:0:0:
212,224,154678,1,0,0:0:0:0:
148,336,154904,6,0,P|72:360|4:320,2,160,2|8|2,0:0|0:2|0:0,0:0:0:0:
204,280,156033,1,0,0:0:0:0:
272,240,156259,2,0,P|352:232|428:272,1,160,8|2,0:2|0:0,0:0:0:0:
488,220,156937,1,0,0:0:0:0:
444,152,157163,2,0,P|408:168|368:160,1,80,8|0,0:2|0:0,0:0:0:0:
304,116,157615,2,0,P|204:100|152:136,1,160,2|12,0:0|0:2,0:0:0:0:
124,200,158293,1,0,0:0:0:0:
176,316,158518,6,0,P|276:332|328:296,1,160,2|8,0:0|0:2,0:0:0:0:
364,236,159196,2,0,P|440:220|516:264,2,160,2|0|0,0:0|0:0|0:0,0:0:0:0:
292,128,160326,6,2,P|216:192|84:168,1,240
12,136,161229,2,2,P|-24:192|-8:284,1,160,0|14,0:0|0:2,0:0:0:0:
48,336,161907,1,0,0:0:0:0:
160,272,162133,6,0,P|244:256|308:296,2,160,2|8|2,0:0|0:2|0:0,0:0:0:0:
116,208,163262,1,0,0:0:0:0:
160,140,163488,2,0,P|228:176|308:156,1,160,8|2,0:2|0:0,0:0:0:0:
356,96,164166,1,0,0:0:0:0:
432,72,164392,2,0,P|480:72|512:92,1,80,8|0,0:2|0:0,0:0:0:0:
448,200,164844,2,0,P|360:188|300:240,2,160,2|12|2,0:0|0:2|0:0,0:0:0:0:
444,280,165973,5,0,0:0:0:0:
384,332,166199,1,8,0:2:0:0:
304,344,166425,2,0,P|232:308|152:336,1,160,2|0,0:0|0:0,0:0:0:0:
84,304,167103,2,0,P|64:264|68:224,1,80,8|0,0:2|0:0,0:0:0:0:
104,108,167555,6,2,P|224:92|312:176,1,240
344,236,168458,2,2,P|424:252|488:208,1,160,0|14,0:0|0:2,0:0:0:0:
504,132,169136,1,0,0:0:0:0:
404,48,169362,6,0,P|324:40|264:96,2,160,2|8|2,0:0|0:2|0:0,0:0:0:0:
420,128,170491,1,0,0:0:0:0:
364,184,170717,2,0,P|288:216|208:196,1,160,8|2,0:2|0:0,0:0:0:0:
152,148,171395,1,0,0:0:0:0:
80,188,171621,2,0,P|60:224|64:272,1,80,8|0,0:2|0:0,0:0:0:0:
116,320,172073,6,0,P|136:284|132:236,3,80,2|0|12|0,0:0|0:0|0:2|0:0,0:0:0:0:
20,136,172976,2,0,P|0:172|4:220,3,80,2|0|0|2,0:0|0:0|0:0|0:0,0:0:0:0:
