osu file format v12

[General]
AudioFilename: Nelly_Furtado-Maneater_2006.mp3
AudioLeadIn: 0
PreviewTime: 44663
Countdown: 0
SampleSet: Normal
StackLeniency: 0.7
Mode: 0
LetterboxInBreaks: 1
WidescreenStoryboard: 1

[Editor]
Bookmarks: 15752,44668,73579,102494,132765,145868
DistanceSpacing: 1
BeatDivisor: 4
GridSize: 4

[Metadata]
Title:Maneater
TitleUnicode:Maneater
Artist:Nelly Furtado
ArtistUnicode:Nelly Furtado
Creator:GladiOol
Version:Easy
Source:
Tags:gladi nellie tornado
BeatmapID:376327
BeatmapSetID:86632

[Difficulty]
HPDrainRate:1
CircleSize:3
OverallDifficulty:1
ApproachRate:3
SliderMultiplier:1.2
SliderTickRate:2

[Events]
//Background and Video events
0,0,"Nelly-Furtado-nelly-furtado-29620937-1024-768.jpg",0,0
//Break Periods
2,73579,86371
2,133217,143750
//Storyboard Layer 0 (Background)
//Storyboard Layer 1 (Fail)
//Storyboard Layer 2 (Pass)
//Storyboard Layer 3 (Foreground)
//Storyboard Sound Samples
//Background Colour Transformations
3,100,163,162,255

[TimingPoints]
1290,451.807228915663,4,1,0,60,1,0
44663,-100,4,1,0,60,0,1
73579,-100,4,1,0,60,0,0
102494,-100,4,1,0,60,0,1
131410,-100,4,2,0,50,0,0
132765,-100,4,1,0,60,0,0
145868,-100,4,1,0,60,0,1
172976,-100,4,2,0,50,0,0

[Colours]
Combo1 : 37,182,252
Combo2 : 245,56,147
Combo3 : 18,106,214
Combo4 : 249,88,34

[HitObjects]
52,42,15747,1,0,0:0:0:0:
52,42,16199,2,8,P|169:41|261:129,1,240,8|12,0:2|0:2,0:2:0:0:
317,223,17555,2,0,P|403:240|481:199,2,180,2|2|8,0:0|0:0|0:2,0:0:0:0:
266,190,19136,6,0,P|180:158|93:191,1,180,2|8,0:0|0:2,0:0:0:0:
136,299,20265,1,2,0:0:0:0:
249,338,20717,1,12,0:2:0:0:
361,297,21169,2,0,P|404:217|386:125,2,180,2|2|8,0:0|0:0|0:2,0:0:0:0:
303,315,22750,6,0,P|173:252|28:299,1,300,2|2,0:0|0:0,0:0:0:0:
22,176,24332,1,12,0:2:0:0:
133,131,24783,2,0,P|209:168|301:147,2,180,2|2|8,0:0|0:0|0:2,0:0:0:0:
142,71,26365,6,0,P|228:50|308:88,1,180,2|8,0:0|0:2,0:0:0:0:
378,185,27494,2,0,P|442:194|499:166,1,120,2|12,0:0|0:2,0:0:0:0:
420,75,28398,2,0,P|333:54|253:92,1,180,2|2,0:0|0:0,0:0:0:0:
189,260,29753,5,8,0:2:0:0:
189,260,29979,2,0,P|108:297|22:277,1,180,2|8,0:0|0:2,0:0:0:0:
33,157,31109,2,0,P|89:134|148:144,1,120,2|12,0:0|0:2,0:0:0:0:
241,216,32012,2,0,P|321:253|505:97,1,360,2|8,0:0|0:2,0:0:0:0:
471,50,33594,6,0,P|399:25|291:56,1,180,2|8,0:0|0:2,0:0:0:0:
236,150,34723,2,0,P|221:211|235:277,1,120,2|12,0:0|0:2,0:0:0:0:
347,296,35627,2,0,P|372:224|341:116,2,180,2|2|8,0:0|0:0|0:2,0:0:0:0:
244,358,37434,5,2,0:0:0:0:
152,280,37886,2,0,P|91:278|33:323,2,120,8|2|12,0:2|0:0|0:2,0:0:0:0:
221,182,39241,2,0,P|317:193|384:148,2,180,2|2|8,0:0|0:0|0:2,0:0:0:0:
163,163,40823,6,0,P|128:253|154:352,1,180,2|8,0:0|0:2,0:0:0:0:
261,349,41952,2,0,P|282:294|273:231,1,120,2|8,0:0|0:2,0:0:0:0:
197,142,42856,2,0,P|121:95|34:108,2,180,2|2|8,0:0|0:0|0:2,0:0:0:0:
273,234,44663,6,2,P|348:280|435:267,2,180,2|2|12,0:0|0:0|0:2,0:0:0:0:
195,142,46470,2,0,P|132:136|82:165,1,120,2|8,0:0|0:2,0:0:0:0:
35,272,47374,1,2,0:0:0:0:
123,353,47826,2,0,P|186:359|236:330,2,120,8|2|8,0:2|0:0|0:2,0:0:0:0:
157,238,49181,2,0,P|209:210|267:217,1,120,2|12,0:0|0:2,0:0:0:0:
373,275,50085,5,2,0:0:0:0:
482,225,50536,2,0,P|491:193|491:154,1,60,8|0,0:2|0:0,0:0:0:0:
365,38,51440,1,8,0:2:0:0:
291,133,51892,6,2,P|216:179|122:161,2,180,2|2|12,0:0|0:0|0:2,0:0:0:0:
396,190,53699,2,0,P|423:240|418:310,1,120,2|8,0:0|0:2,0:0:0:0:
331,381,54603,2,0,P|304:331|309:261,1,120,2|8,0:0|0:2,0:0:0:0:
204,205,55506,2,0,P|154:232|84:227,2,120,2|8|2,0:0|0:2|0:0,0:0:0:0:
265,101,56862,1,12,0:2:0:0:
376,55,57314,5,2,0:0:0:0:
477,119,57765,2,0,P|489:151|489:180,1,60,8|0,0:2|0:0,0:0:0:0:
417,342,58669,1,8,0:2:0:0:
317,274,59121,6,2,P|237:259|151:312,2,180,2|2|12,0:0|0:0|0:2,0:0:0:0:
414,204,60928,2,0,P|431:140|416:86,1,120,2|8,0:0|0:2,0:0:0:0:
317,22,61832,2,0,P|300:86|315:140,1,120,2|8,0:0|0:2,0:0:0:0:
362,246,62735,1,2,0:0:0:0:
279,332,63187,2,0,P|225:308|154:324,1,120,8|2,0:2|0:0,0:0:0:0:
69,246,64091,1,12,0:2:0:0:
37,130,64543,5,2,0:0:0:0:
114,38,64994,2,0,P|149:33|186:46,1,60,8|0,0:2|0:0,0:0:0:0:
261,195,65898,1,8,0:2:0:0:
335,288,66350,6,2,P|438:306|505:265,2,180,2|2|12,0:0|0:0|0:2,0:0:0:0:
236,219,68157,2,0,P|169:212|118:239,1,120,2|8,0:0|0:2,0:0:0:0:
78,346,69061,2,0,P|145:353|196:326,1,120,2|8,0:0|0:2,0:0:0:0:
262,233,69964,1,2,0:0:0:0:
375,272,70416,1,8,0:2:0:0:
463,190,70868,6,0,P|472:159|472:130,2,60,0|0|12,0:0|0:0|0:2,0:0:0:0:
376,272,71771,2,0,P|376:301|385:330,3,60,2|0|8|2,0:0|0:0|0:2|0:0,0:0:0:0:
55,311,87811,6,0,P|153:327|224:284,1,180,2|8,0:0|0:2,0:0:0:0:
271,180,88940,1,0,0:0:0:0:
291,61,89392,1,12,0:2:0:0:
291,61,89844,2,2,B|331:85|364:44|412:66,2,120,2|2|0,0:0|0:0|0:0,0:0:0:0:
76,38,91425,6,8,P|39:112|56:215,1,180,2|8,0:0|0:2,0:2:0:0:
135,291,92555,1,0,0:0:0:0:
223,210,93006,1,0,0:0:0:0:
223,210,93458,2,2,B|263:234|296:193|344:215,2,120,2|2|0,0:0|0:0|0:0,0:0:0:0:
438,337,95040,5,0,0:0:0:0:
438,337,95265,2,0,P|464:289|461:221,1,120,2|8,0:0|0:2,0:0:0:0:
379,137,96169,2,0,P|353:185|356:253,1,120,2|12,0:0|0:2,0:0:0:0:
272,336,97073,2,0,P|219:312|147:327,1,120,2|8,0:0|0:2,0:0:0:0:
104,345,97750,2,0,P|61:269|71:169,1,180,2|12,0:0|0:2,0:0:0:0:
157,99,98880,6,0,P|182:152|175:223,2,120,2|8|2,0:0|0:2|0:0,0:0:0:0:
258,35,100235,1,12,0:2:0:0:
333,128,100687,2,0,P|420:141|495:94,2,180,2|2|8,0:0|0:0|0:2,0:0:0:0:
273,234,102494,6,2,P|348:280|435:267,2,180,2|2|12,0:0|0:0|0:2,0:0:0:0:
195,142,104302,2,0,P|132:136|82:165,1,120,2|8,0:0|0:2,0:0:0:0:
35,272,105205,1,2,0:0:0:0:
123,353,105657,2,0,P|186:359|236:330,2,120,8|2|8,0:2|0:0|0:2,0:0:0:0:
157,238,107012,2,0,P|209:210|267:217,1,120,2|12,0:0|0:2,0:0:0:0:
373,275,107916,5,2,0:0:0:0:
482,225,108368,2,0,P|491:193|491:154,1,60,8|0,0:2|0:0,0:0:0:0:
365,38,109271,1,8,0:2:0:0:
291,133,109723,6,2,P|216:179|122:161,2,180,2|2|12,0:0|0:0|0:2,0:0:0:0:
396,190,111530,2,0,P|423:240|418:310,1,120,2|8,0:0|0:2,0:0:0:0:
331,381,112434,2,0,P|304:331|309:261,1,120,2|8,0:0|0:2,0:0:0:0:
204,205,113338,2,0,P|154:232|84:227,2,120,2|8|2,0:0|0:2|0:0,0:0:0:0:
265,101,114693,1,12,0:2:0:0:
376,55,115145,5,2,0:0:0:0:
477,119,115597,2,0,P|489:151|489:180,1,60,8|0,0:2|0:0,0:0:0:0:
417,342,116500,1,8,0:2:0:0:
317,274,116952,6,2,P|237:259|151:312,2,180,2|2|12,0:0|0:0|0:2,0:0:0:0:
414,204,118759,2,0,P|431:140|416:86,1,120,2|8,0:0|0:2,0:0:0:0:
317,22,119663,2,0,P|300:86|315:140,1,120,2|8,0:0|0:2,0:0:0:0:
362,246,120567,1,2,0:0:0:0:
279,332,121018,2,0,P|225:308|154:324,1,120,8|2,0:2|0:0,0:0:0:0:
69,246,121922,1,12,0:2:0:0:
37,130,122374,5,2,0:0:0:0:
114,38,122826,2,0,P|149:33|186:46,1,60,8|0,0:2|0:0,0:0:0:0:
261,195,123729,1,8,0:2:0:0:
335,288,124181,6,2,P|438:306|505:265,2,180,2|2|12,0:0|0:0|0:2,0:0:0:0:
236,219,125988,2,0,P|169:212|118:239,1,120,2|8,0:0|0:2,0:0:0:0:
78,346,126892,2,0,P|145:353|196:326,1,120,2|8,0:0|0:2,0:0:0:0:
262,233,127796,1,2,0:0:0:0:
375,272,128247,1,8,0:2:0:0:
463,190,128699,6,0,P|472:159|472:130,2,60,0|0|12,0:0|0:0|0:2,0:0:0:0:
376,272,129603,2,0,P|376:301|385:330,3,60,2|0|8|2,0:0|0:0|0:2|0:0,0:0:0:0:
256,192,130506,12,12,132765,0:2:0:0:
8,72,145190,6,0,P|-5:129|8:187,1,120,0|0,0:0|0:2,0:0:0:0:
55,228,145868,6,2,P|150:240|224:194,1,180
257,152,146771,2,0,P|271:93|255:32,1,120,0|12,0:0|0:2,0:0:0:0:
152,96,147675,2,0,P|138:155|154:216,1,120,2|8,0:0|0:2,0:0:0:0:
247,284,148579,1,2,0:0:0:0:
346,217,149030,2,0,P|360:158|344:97,1,120,8|2,0:2|0:0,0:0:0:0:
250,28,149934,1,8,0:2:0:0:
152,96,150386,2,0,P|138:155|154:216,1,120,2|12,0:0|0:2,0:0:0:0:
247,284,151290,5,2,0:0:0:0:
365,304,151741,2,0,P|399:303|431:291,1,60,8|0,0:2|0:0,0:0:0:0:
480,123,152645,1,8,0:2:0:0:
379,57,153097,6,2,P|290:40|203:95,2,180,2|2|12,0:0|0:0|0:2,0:0:0:0:
377,177,154904,1,2,0:0:0:0:
272,235,155356,2,0,P|225:242|155:212,1,120,8|2,0:2|0:0,0:0:0:0:
45,177,156259,2,0,P|25:237|34:310,1,120,8|2,0:2|0:0,0:0:0:0:
124,365,157163,2,0,P|144:305|135:232,1,120,8|2,0:2|0:0,0:0:0:0:
84,142,158067,1,12,0:2:0:0:
171,59,158518,5,2,0:0:0:0:
250,148,158970,2,0,P|235:185|234:220,1,60,8|0,0:2|0:0,0:0:0:0:
340,349,159874,1,8,0:2:0:0:
444,289,160326,6,2,P|475:206|452:114,1,180,2|2,0:0|0:0,0:0:0:0:
412,77,161229,2,0,P|357:57|294:68,1,120,0|12,0:0|0:2,0:0:0:0:
228,165,162133,2,0,P|283:185|342:175,2,120,2|8|2,0:0|0:2|0:0,0:0:0:0:
132,92,163488,1,8,0:2:0:0:
47,177,163940,2,0,P|27:240|37:302,1,120,2|8,0:0|0:2,0:0:0:0:
123,372,164844,1,2,0:0:0:0:
220,301,165296,1,12,0:2:0:0:
335,334,165747,5,2,0:0:0:0:
444,283,166199,2,0,P|452:254|451:222,1,60,8|0,0:2|0:0,0:0:0:0:
395,52,167103,1,8,0:2:0:0:
330,153,167555,6,2,P|256:190|153:164,2,180,2|2|12,0:0|0:0|0:2,0:0:0:0:
288,40,169362,2,0,P|222:31|172:51,1,120,2|8,0:0|0:2,0:0:0:0:
130,162,170265,2,0,P|121:228|141:278,1,120,2|8,0:0|0:2,0:0:0:0:
241,340,171169,1,2,0:0:0:0:
340,272,171621,1,8,0:2:0:0:
450,318,172073,6,0,P|487:331|519:325,2,60,0|0|12,0:0|0:0|0:2,0:0:0:0:
432,200,172976,2,0,P|395:187|363:193,3,60,2|0|0|2,0:0|0:0|0:0|0:0,0:0:0:0:
