osu file format v5

[General]
AudioFilename: Nelly Furtado - Do it.mp3
AudioLeadIn: 0
PreviewTime: -1
Countdown: 1
SampleSet: Soft
StackLeniency: 0.7
Mode: 0
LetterboxInBreaks: 1
EditorBookmarks: 9548

[Metadata]
Title:Do it
Artist:Nelly Furtado
Creator:lesjuh
Version:Normal
Source:
Tags:

[Difficulty]
HPDrainRate:5
CircleSize:4
OverallDifficulty:5
SliderMultiplier:1.6
SliderTickRate:2

[Events]
//Background and Video events
0,0,"Nelly_Furtado_Wallpaper_by_Shogun62.jpg"
//Break Periods
2,110050,124490
2,140770,155210
//Storyboard Layer 0 (Background)
//Storyboard Layer 1 (Failing)
//Storyboard Layer 2 (Passing)
//Storyboard Layer 3 (Foreground)
//Storyboard Sound Samples
//Background Colour Transformations
3,100,0,0,0

[TimingPoints]
2810.24131810212,480,4,2,0,100,1,0
43370,-200,4,2,0,100,0,0
44828,-100,4,2,0,100,0,0
47210,-200,4,2,0,100,0,0
48668,-100,4,2,0,100,0,0
50828,-200,4,2,0,100,0,0
52268,-100,4,2,0,100,0,0
71108,-200,4,2,0,100,0,0
71828,-100,4,2,0,100,0,0
81890,-200,4,2,0,100,0,0
83228,-100,4,2,0,100,0,0
85730,-200,4,2,0,100,0,0
87068,-100,4,2,0,100,0,0
89570,-200,4,2,0,100,0,0
90668,-100,4,2,0,100,0,0
97250,-200,4,2,0,100,0,0
98588,-100,4,2,0,100,0,0
101090,-200,4,2,0,100,0,0
102428,-100,4,2,0,100,0,0
104930,-200,4,2,0,100,0,0
109388,-100,4,2,0,100,0,0
136970,-200,4,2,0,100,0,0
140330,-100,4,2,0,100,0,0
159188,-200,4,2,0,100,0,0
160028,-100,4,2,0,100,0,0
163028,-200,4,2,0,100,0,0
163868,-100,4,2,0,100,0,0
166868,-200,4,2,0,100,0,0
167468,-100,4,2,0,100,0,0
174548,-200,4,2,0,100,0,0
175388,-100,4,2,0,100,0,0
178388,-200,4,2,0,100,0,0
179228,-100,4,2,0,100,0,0
182210,-200,4,2,0,100,0,0
182930,-100,4,2,0,100,0,0

[Colours]
Combo1 : 255,32,32
Combo2 : 255,255,255

[HitObjects]
80,208,10490,6,0,B|88:320|216:320,1,160,0|8
256,320,11210,1,2
336,320,11450,2,0,B|426:323|434:211,1,160,0|8
432,136,12170,2,0,B|368:88|320:208|264:104,1,160,2|2
208,96,12890,1,8
168,160,13130,1,2
240,200,13370,1,0
256,360,13850,1,12
408,304,14330,6,0,B|416:192|288:200,1,160,0|8
264,256,15050,1,2
192,232,15290,2,0,B|80:240|88:112,1,160,0|8
136,80,16010,2,0,B|200:32|232:136|296:48,1,160,2|2
256,216,16970,1,2
256,216,17210,1,2
256,56,17690,5,12
184,80,17930,1,2
120,128,18170,2,0,B|72:176|72:232|104:288|128:296,1,160,2|8
176,248,18890,1,0
176,248,19130,1,0
296,144,19610,6,0,B|376:184|352:296,1,160,8|2
232,184,20570,1,10
280,248,20810,1,0
264,328,21050,1,2
104,272,21530,5,12
80,192,21770,1,2
112,120,22010,2,12,B|168:64|248:72|296:96,1,160,0|8
336,96,22730,1,0
336,96,22970,1,2
208,192,23450,2,2,B|248:280|368:256,1,160,8|2
336,96,24410,1,10
336,96,24650,1,2
336,96,24890,1,2
176,96,25370,5,12
120,152,25610,1,0
168,208,25850,2,2,B|128:288|192:344|248:352,1,160,2|8
272,288,26570,1,2
272,288,26810,1,2
360,152,27290,6,2,B|320:88|264:224|224:144,1,160,10|2
192,72,28010,1,2
128,112,28250,1,10
152,184,28490,1,0
88,232,28730,2,0,B|72:296|152:304,1,80,0|2
192,272,29210,2,0,B|176:336|256:344,1,80,8|2
296,312,29690,2,2,B|352:232|232:208|320:144,1,160,2|10
296,80,30410,1,2
136,80,30890,5,2
136,80,31130,2,2,B|96:168|184:224,1,160,10|2
256,240,31850,1,2
328,208,32090,1,10
360,280,32330,1,2
256,64,33050,5,12
112,128,33530,5,2
80,200,33770,1,2
144,248,34010,1,2
216,152,34370,1,2
296,168,34610,1,2
336,96,34850,1,2
424,176,35210,1,6
456,248,35450,5,2
376,264,35690,1,2
312,312,35930,1,2
208,312,36290,1,2
152,256,36530,1,2
72,232,36770,1,2
176,168,37130,1,6
256,168,37370,5,2
256,88,37610,1,2
256,88,37850,1,2
368,128,38210,1,2
400,200,38450,1,2
352,264,38690,1,2
256,336,39050,1,2
256,192,39290,12,12,40730
96,80,41210,6,2,B|104:176|192:200,1,160,2|8
256,152,41930,1,2
336,160,42170,2,2,B|328:256|240:280,1,160,0|8
168,288,42890,1,2
256,64,43370,5,2
256,144,43610,2,2,B|176:200|328:232|232:304,1,160,0|12
80,328,45050,6,0,B|8:256|80:160,1,160,0|8
136,216,45770,1,2
216,248,46010,2,0,B|288:176|216:80,1,160,0|8
144,112,46730,1,2
256,320,47210,5,2
256,240,47450,2,2,B|336:184|184:152|272:88,1,160,0|12
368,224,48890,6,2,B|352:320|224:328,1,160,0|8
256,240,49610,1,2
256,160,49850,2,2,B|160:176|152:304,1,160,0|8
72,272,50570,1,2
72,112,51050,5,2
144,72,51290,2,2,B|200:152|232:0|296:88,1,160,0|12
281,71,52490,1,8
280,152,52730,6,0,B|352:200|200:240|296:288,1,160,4|8
287,283,53450,2,0,B|239:211|199:363|151:267,1,160,4|8
156,276,54170,2,0,B|228:228|76:188|172:140,1,160,4|4
163,144,54890,1,2
163,144,55130,1,4
256,192,55610,5,4
256,192,56090,1,12
328,216,56330,5,2
328,296,56570,2,0,B|240:336|168:288,1,160,2|8
64,168,57530,1,2
192,64,58010,2,0,B|296:32|336:152,1,160,8|2
264,176,58730,1,0
336,200,58970,1,2
288,264,59210,1,2
232,320,59450,1,0
128,192,59930,5,12
176,128,60170,5,2
248,96,60410,2,0,B|336:48|416:128,1,160,2|8
328,152,61130,1,0
400,184,61370,1,2
296,304,61850,6,0,B|216:368|120:288,1,160,8|2
208,256,62570,1,0
128,232,62810,1,2
184,176,63050,1,2
184,176,63290,1,2
288,56,63770,5,14
360,88,64010,1,2
328,160,64250,2,0,B|296:256|392:312,1,160,0|8
373,300,65210,1,2
216,304,65690,1,8
136,160,66170,2,0,B|80:176|80:248,4,80,2|0|8|0|0
256,56,67610,5,12
320,200,68090,6,0,B|352:296|248:336,1,160,2|8
261,330,68810,1,2
128,232,69290,5,0
167,162,69530,2,0,B|199:82|263:194|303:98,1,160,10|2
368,72,70250,1,0
424,128,70490,1,8
376,192,70730,1,0
256,192,71450,5,12
392,272,71930,5,2
352,344,72170,1,2
272,328,72410,1,2
176,248,72770,1,2
144,176,73010,1,2
64,160,73250,1,2
160,88,73610,1,6
240,64,73850,5,2
280,128,74090,1,2
360,104,74330,1,2
312,216,74690,1,2
368,264,74930,1,2
320,328,75170,1,2
200,336,75530,1,6
152,272,75770,5,2
104,336,76010,1,2
48,272,76250,1,2
120,176,76610,1,2
184,128,76850,1,2
256,168,77090,1,2
256,48,77450,1,2
256,192,77690,12,12,79130
416,80,79610,6,2,B|408:176|320:200,1,160,2|8
256,152,80330,1,2
176,160,80570,2,2,B|184:256|272:280,1,160,0|8
344,288,81290,1,2
256,64,81770,5,2
256,144,82010,2,2,B|336:200|184:232|280:304,1,160,0|12
432,328,83450,6,0,B|504:256|432:160,1,160,0|8
376,216,84170,1,2
296,248,84410,2,0,B|224:176|296:80,1,160,0|8
368,112,85130,1,2
256,320,85610,5,2
256,240,85850,2,2,B|176:184|328:152|240:88,1,160,0|12
144,224,87290,6,2,B|160:320|288:328,1,160,0|8
256,240,88010,1,2
256,160,88250,2,2,B|352:176|360:304,1,160,0|8
440,272,88970,1,2
440,112,89450,5,2
368,72,89690,2,2,B|312:152|280:0|216:88,1,160,0|12
231,71,90890,1,8
232,152,91130,6,0,B|160:200|312:240|216:288,1,160,4|8
225,283,91850,2,0,B|273:211|313:363|361:267,1,160,4|8
356,276,92570,2,0,B|284:228|436:188|340:140,1,160,4|4
348,144,93290,1,2
348,144,93530,1,4
256,272,94010,5,4
256,48,94490,1,12
352,152,94970,6,2,B|344:248|256:272,1,160,2|8
216,200,95690,1,2
136,224,95930,2,2,B|144:320|232:344,1,160,0|8
304,344,96650,1,2
256,64,97130,5,2
256,144,97370,2,2,B|336:200|184:232|280:304,1,160,0|12
72,200,98810,6,0,B|0:128|72:32,1,160,0|8
112,112,99530,1,2
144,184,99770,2,0,B|216:256|144:352,1,160,0|8
96,272,100490,1,2
256,320,100970,5,2
256,240,101210,2,2,B|176:184|328:152|240:88,1,160,0|12
147,202,102650,6,2,B|163:106|291:98,1,160,0|8
257,102,103370,1,2
257,102,103610,2,2,B|273:198|401:206,1,160,0|8
367,201,104330,1,2
256,320,104810,5,2
256,240,105050,2,2,B|176:184|328:152|240:88,1,160,0|12
256,102,106250,1,8
256,104,106490,6,2,B|184:152|336:192|240:240,3,160
248,235,109850,1,12
152,192,125690,6,2,B|208:96|304:288|368:152,2,240,2|2|10
256,312,127610,5,2
304,248,127850,1,2
256,184,128090,1,10
208,120,128330,1,2
256,56,128570,1,0
256,184,129050,5,12
360,192,129530,6,2,B|304:96|208:288|144:152,2,240,2|2|10
256,64,131450,6,0,B|216:152,1,80,2|2
256,208,131930,2,2,B|304:312,1,80,10|2
256,352,132410,1,2
256,208,132890,5,12
152,80,133370,6,2,B|208:176|304:-16|368:120,2,240,2|2|10
256,200,135290,6,2,B|256:256,4,40
256,200,136010,1,2
256,200,136250,1,0
256,40,136730,5,12
256,200,137210,6,2,B|200:256|312:272|248:360,3,160,2|2|2|8
256,346,140570,1,4
72,168,156410,6,0,B|120:136|160:184,1,80,0|2
224,192,156890,1,8
224,192,157130,1,2
296,224,157370,2,0,B|344:256|384:208,1,80,0|2
440,192,157850,1,8
440,192,158090,1,2
256,64,158570,5,2
256,64,158810,1,8
256,64,159050,1,2
256,64,159290,2,0,B|256:184,1,80,0|12
440,168,160250,6,0,B|392:136|352:184,1,80,0|2
288,192,160730,1,8
288,192,160970,1,2
216,224,161210,2,0,B|168:256|128:208,1,80,0|2
72,192,161690,1,8
72,192,161930,1,2
256,320,162410,5,2
256,320,162650,1,8
256,320,162890,1,2
256,320,163130,2,0,B|256:200,1,80,0|12
256,48,164090,6,0,B|224:88|256:136,1,80,0|2
248,120,164570,2,0,B|280:160|248:208,1,80,8|2
256,192,165050,2,0,B|224:232|272:288,1,80,0|0
256,264,165530,1,8
256,264,165770,1,2
256,48,166250,5,2
296,120,166490,1,8
216,120,166730,1,2
256,192,166970,2,0,B|256:312,1,80,0|12
256,272,167690,1,2
256,352,167930,6,0,B|360:352|376:240,1,160,2|10
376,184,168650,2,0,B|376:80|264:64,1,160,2|8
208,72,169370,2,2,B|120:96|200:168|96:184,1,160
109,181,170090,1,2
109,181,170330,1,10
256,328,170810,5,4
256,56,171290,1,12
384,152,171770,6,10,B|368:216|304:216,1,80,0|2
256,216,172250,1,8
256,216,172490,1,2
176,216,172730,2,2,B|112:232|112:296,1,80,2|2
116,264,173210,1,8
116,264,173450,1,2
256,336,173930,5,2
296,264,174170,1,8
216,264,174410,1,2
256,192,174650,2,0,B|256:72,1,80,0|12
416,64,175610,6,0,B|416:160,1,80,0|2
336,144,176090,2,0,B|336:240,1,80,8|2
256,224,176570,2,2,B|256:336,1,80,0|2
256,304,177050,1,8
256,304,177290,1,2
256,80,177770,5,2
296,152,178010,1,8
216,152,178250,1,2
256,224,178490,2,0,B|256:344,1,80,0|12
96,320,179450,6,0,B|96:224,1,80,0|2
176,240,179930,2,0,B|176:144,1,80,8|2
256,160,180410,2,2,B|256:48,1,80,0|2
256,80,180890,1,8
256,80,181130,1,2
312,280,181610,5,2
256,336,181850,1,8
200,280,182090,1,2
256,224,182330,2,0,B|256:112,1,80,0|12
256,144,183050,1,8
256,64,183290,6,4,B|152:32|88:136,1,160,4|8
112,104,184010,2,4,B|144:208|40:272,1,160,4|8
72,248,184730,2,4,B|136:328|224:264,1,160,4|4
213,271,185450,1,0
213,271,185690,1,4
256,40,186170,5,8
256,344,186650,1,12
