osu file format v5

[General]
AudioFilename: Nelly Furtado - All good things.mp3
AudioLeadIn: 0
PreviewTime: -1
Countdown: 1
SampleSet: Soft
StackLeniency: 0.5
Mode: 0
LetterboxInBreaks: 1
EditorBookmarks: 9651,88168,89358,259478

[Metadata]
Title:All Good Things (Come To An End)
Artist:Nelly Furtado
Creator:Larto
Version:Insane
Source:
Tags:

[Difficulty]
HPDrainRate:8
CircleSize:5
OverallDifficulty:8
SliderMultiplier:2
SliderTickRate:4

[Events]
//Background and Video events
0,0,"beach_pano_by_photoplace.jpg"
//Break Periods
2,122952,126017
2,182424,183853
//Storyboard Layer 0 (Background)
//Storyboard Layer 1 (Failing)
//Storyboard Layer 2 (Passing)
//Storyboard Layer 3 (Foreground)
//Storyboard Sound Samples
//Background Colour Transformations
3,100,0,0,0

[TimingPoints]
9760,594.707106749926,4,2,0,80,1
88484,-100,4,2,0,20,0
89153,-100,4,2,0,100,0
93316,-100,4,2,0,20,0
94133,-100,4,2,0,100,0
144461,-100,4,1,0,20,0
164160,-200,4,2,0,100,0
168844,-100,4,2,0,100,0
173527,-50,4,2,0,100,0
182522,-100,4,2,0,100,0

[Colours]
Combo1 : 125,75,0
Combo2 : 20,128,4
Combo3 : 2,2,119
Combo4 : 135,3,3

[HitObjects]
256,192,9760,12,8,10354
256,192,10429,12,8,10949
256,192,11023,12,8,12733
72,216,13030,6,0,B|96:248|128:248,2,50
160,264,13625,2,8,B|216:304|280:256,1,100
256,168,14220,1,2
254,271,14517,6,0,B|262:351|174:327,1,100,0|0
255,272,15112,2,8,B|311:280|319:368,1,100,8|8
315,342,15558,1,8
315,342,15707,1,8
416,344,16004,1,2
416,240,16301,1,8
312,240,16599,1,2
320,120,16896,6,2,B|248:144|248:224,1,100
184,120,17491,2,2,B|256:144|256:216,1,100
256,288,18085,2,0,B|256:232,1,50
256,184,18383,1,0
184,120,18680,1,8
256,48,18977,1,0
320,120,19275,6,0,B|240:120,1,50
216,120,19572,1,0
176,216,19870,2,0,B|256:216,1,50
280,216,20167,1,0
288,296,20464,2,2,B|328:296,4,25,2|2|2|2|2
288,296,20910,1,2
248,328,21059,1,10
208,296,21208,1,2
248,256,21356,1,2
288,296,21505,1,2
336,296,21654,6,0,B|384:288|344:232,2,50,0|0|2
248,256,22248,2,0,B|200:248|240:192,2,50,8|0|2
304,176,22843,1,0
280,128,22992,1,0
256,176,23140,1,2
256,80,23438,1,8
208,80,23586,1,0
232,128,23735,1,2
208,224,24032,6,2,B|216:320,1,50
208,224,24330,1,8
304,224,24627,6,2,B|296:320,1,50
304,224,24925,1,8
256,192,25222,12,8,26114
120,192,26411,6,0,B|152:248|232:184,1,100
192,152,26857,1,0
168,104,27006,2,8,B|248:64|280:128,1,100
208,200,27601,2,0,B|240:256|320:192,1,100
288,152,28047,1,0
264,104,28195,2,8,B|344:64|376:128,1,100
416,192,28790,1,0
368,216,28939,1,0
312,216,29087,1,0
272,248,29236,1,0
272,192,29385,1,2
160,192,29682,1,2
112,288,29980,5,2
160,312,30128,1,2
216,312,30277,1,2
256,344,30426,1,2
256,288,30574,2,2,B|336:288,1,50
352,288,30872,2,2,L|416:248,1,50
424,224,31169,6,0,L|368:200|368:224|328:192|320:232,1,150
256,72,32061,1,8
216,104,32210,1,0
256,136,32358,1,8
176,192,32656,1,0
224,280,32953,1,0
280,192,33250,5,0
328,280,33548,2,0,L|384:184,1,100
378,193,33994,2,0,L|272:192,1,100
280,192,34440,1,8
176,192,34737,1,0
280,192,35035,1,8
224,112,35332,1,0
224,208,35629,6,0,L|264:248|264:248|264:208|264:208|320:264|320:264|320:216,1,200
320,239,36373,2,2,L|320:208|320:208|400:264|400:264|400:224,1,150
256,192,37413,12,0,38008
120,112,38305,6,10,L|200:40,1,100
384,112,38900,2,0,L|304:40,1,100
160,184,39495,2,10,L|184:80,1,100
352,184,40090,2,0,L|328:80,1,100
160,184,40684,6,4,B|184:232|232:272|280:272|344:232|352:176,1,250,4|0
350,184,41576,1,8
256,152,41874,5,0
160,184,42171,6,2,L|216:184,2,50
256,208,42766,2,0,L|256:280,1,50
304,256,43063,2,2,L|360:256,4,50
256,344,43955,1,4
152,80,44550,5,2
352,80,44847,1,2
256,240,45145,1,2
256,56,45442,1,4
256,56,45591,2,4,L|256:176,1,100
256,304,46334,5,0
192,240,46631,1,8
256,176,46929,1,0
328,120,47226,1,8
256,56,47523,1,0
184,120,47821,2,2,B|192:176|264:176,1,100
344,184,48415,2,2,B|336:240|264:240,1,100,2|2
168,248,49010,2,2,B|176:304|248:304,1,100,2|2
336,304,49605,1,4
192,160,51389,6,2,B|176:112|176:112|200:120|200:120|184:48,1,100
240,8,51984,1,0
256,104,52281,2,4,B|296:144|296:144|360:144,1,100
232,136,52876,2,0,B|264:176|264:176|240:232,1,100,0|8
244,220,53322,1,8
244,220,53470,1,8
320,224,53768,6,0,B|336:272|336:272|312:264|312:264|328:336,1,100
272,376,54363,1,0
256,280,54660,2,0,B|216:240|216:240|152:240,1,100
280,248,55255,2,8,B|248:208|248:208|272:152,3,100
112,104,56444,5,0
152,128,56593,1,0
192,104,56741,1,0
256,32,57039,1,2
408,192,57931,5,0
320,192,58228,1,0
232,192,58525,1,2
184,216,58674,1,2
136,192,58823,1,2
136,88,59120,1,0
232,88,59418,1,0
328,88,59715,2,8,B|376:120|432:80,3,100
376,176,60904,6,2,B|312:200|248:160,1,100
208,144,61499,1,0
128,144,61796,2,4,B|72:184|136:224,1,100
152,144,62391,2,0,B|96:184|160:224,1,100
184,176,62986,1,8
184,176,63134,1,8
184,176,63283,6,0,B|248:200|312:160,1,100
352,144,63878,1,0
432,144,64175,2,4,B|488:184|424:224,1,100
408,144,64770,2,8,B|464:184|400:224,3,100
304,248,65959,5,0
256,272,66108,1,0
208,248,66257,1,0
216,168,66554,2,2,B|240:120|264:192|296:120,2,100
208,72,67446,1,0
256,48,67595,1,0
304,72,67743,1,0
256,160,68041,1,8
56,160,68636,1,0
96,192,68784,1,0
136,160,68933,1,0
176,192,69082,1,0
216,160,69230,1,4
256,192,69825,12,8,71609
256,192,72204,12,8,73988
112,192,75475,6,0,B|160:232|216:192,1,100
204,199,76069,2,2,B|256:168|312:200,1,100
299,193,76664,2,0,B|352:240|408:184,1,100
352,112,77259,1,2
256,88,77556,1,2
160,112,77853,1,0
256,144,78151,1,0
256,240,78448,1,0
256,336,78746,1,4
256,192,79340,12,8,81124
256,192,81719,12,8,83503
184,232,84990,5,2
256,48,85287,1,2
328,232,85585,2,2,B|256:368|176:216,1,200
256,48,86477,1,2
256,144,86774,1,2
184,232,87071,2,2,B|216:120|288:360|336:216,1,200,2|2
256,160,87963,1,0
256,48,88261,1,4
256,320,88856,5,0
96,192,89450,5,0
192,168,89748,1,2
96,192,90045,1,0
192,168,90342,1,2
96,192,90640,2,2,B|200:168,1,100
256,248,91234,1,8
256,48,91829,6,0,B|256:104|232:88|280:80|256:160,1,100,0|8
256,192,92275,1,0
256,240,92424,2,0,B|256:296|232:280|280:272|256:352,1,100,0|8
259,336,92870,1,0
259,336,93018,1,8
258,192,93613,6,0,B|408:192,1,150
408,192,94208,5,0
344,272,94505,1,0
256,320,94803,1,0
160,344,95100,1,0
56,328,95397,2,0,B|104:280|176:280,1,100
144,184,95992,2,0,B|232:176|240:120,1,100
296,64,96587,2,2,B|328:104|328:160,3,100,2|2|2|2
256,192,97776,5,0
256,88,98074,1,0
256,192,98371,12,10,99858
256,192,100155,5,0
256,288,100452,1,2
256,192,100750,12,8,102236
312,192,102534,5,2
200,192,102831,1,0
256,192,103129,12,8,104913
256,192,105507,5,2
256,192,105656,1,2
256,192,105805,1,2
256,192,105953,1,2
256,192,106102,1,2
256,192,106399,1,2
256,192,106697,1,4
104,192,108481,5,0
184,140,108778,1,2
264,192,109076,1,0
184,240,109373,2,4,B|184:96,1,100
264,192,109968,2,8,B|264:80,1,100
264,92,110562,1,0
264,92,110711,1,0
264,92,110860,5,0
344,140,111157,1,0
424,88,111454,1,0
344,40,111752,2,4,B|344:184,1,100
424,88,112346,2,8,B|424:200,3,100
344,248,113536,5,0
256,280,113833,1,0
168,248,114131,2,2,B|112:208|64:256,1,100
168,248,114725,2,8,B|192:184|128:160,1,100
168,248,115320,2,2,B|240:248|264:176,1,100
168,248,115915,2,8,B|200:320|256:288,1,100
168,248,116509,2,0,B|128:296|152:344,1,100,0|4
150,340,116955,1,4
150,340,117104,1,4
150,340,117253,1,4
150,340,117401,1,4
256,368,117699,1,8
352,352,117996,6,4,B|264:264,1,100
352,352,118591,2,0,B|432:272,1,100
392,248,119037,1,0
352,224,119186,1,2
281,281,119483,1,0
312,248,119632,1,0
352,224,119780,1,2
152,224,120375,6,4,B|64:312,1,100
152,224,120970,2,0,B|232:304,1,100
192,328,121416,1,0
152,352,121564,1,0
81,295,121862,1,0
112,328,122010,1,0
152,352,122159,1,2
112,328,122308,1,0
81,295,122456,1,2
112,328,122605,1,0
152,352,122754,1,2
256,192,126917,12,8,128701
256,192,128998,5,0
256,192,129296,12,8,131080
256,152,131377,5,0
200,237,131674,1,2
304,240,131972,2,2,B|312:296|200:296|200:232,1,150
200,240,132567,1,2
256,192,132864,1,0
256,104,133161,2,2,B|128:40|192:-88|256:232|320:-88|384:40|256:104,1,300
256,192,134351,1,0
256,280,134648,2,2,B|208:360|192:472|256:152|320:472|312:360|256:280,1,200
296,224,135540,1,0
216,224,135837,1,4
256,192,136432,12,0,138216
256,192,138365,5,0
256,192,138514,1,0
256,192,138811,12,0,140595
256,192,140744,5,0
256,192,140892,1,0
256,192,141190,1,2
184,248,141487,2,2,B|200:320|216:264|224:216|240:192,1,100
232,136,142082,2,2,B|256:64|280:176,1,100
280,248,142677,2,8,B|256:320|232:208,2,100
280,160,143569,2,0,B|304:88|328:200,1,100
344,288,144163,1,4
168,192,144758,6,2,B|168:304,1,100
168,192,145353,2,2,B|296:192,1,100
168,192,145947,1,2
344,192,146542,1,2
344,192,146839,1,2
344,192,147137,6,2,B|344:304,1,100
344,192,147732,2,2,B|216:192,1,100
344,192,148326,1,2
168,192,148921,1,2
168,192,149218,1,2
168,192,149516,6,2,B|168:80,1,100
168,192,150110,2,2,B|296:192,1,100
168,192,150705,1,2
344,192,151300,1,2
344,192,151597,1,2
344,192,151894,6,2,B|344:80,1,100
344,192,152489,2,2,B|216:192,1,100
344,192,153084,1,2
256,192,153679,12,2,154571
72,192,154868,5,2
168,192,155165,1,2
168,192,155314,1,2
168,192,155463,1,2
112,280,155760,1,2
208,280,156057,1,2
208,280,156206,1,2
208,280,156355,1,2
256,192,156652,1,2
344,192,156950,1,2
440,192,157247,5,2
344,192,157544,1,2
344,192,157693,1,2
344,192,157842,1,2
400,280,158139,1,2
304,280,158436,1,2
304,280,158585,1,2
304,280,158734,1,2
256,192,159031,1,2
152,192,159328,1,2
256,192,159626,5,2
184,120,159923,2,2,B|184:184,1,50
184,216,160220,1,2
256,280,160518,1,2
256,192,160815,1,2
256,192,160964,1,2
256,192,161112,1,2
256,192,161261,1,2
256,192,161410,5,2
328,120,161707,2,2,B|328:184,1,50
328,216,162005,1,2
256,280,162302,1,2
256,192,162599,1,2
256,192,162748,1,2
256,192,162897,1,2
256,192,163045,1,2
256,192,163194,12,0,164086
216,112,164383,6,4,B|200:144|176:144|200:136|240:184|256:160|232:152|192:200|160:192|200:184|224:224|256:224|232:216|192:240|200:248|200:232|232:264,1,150,4|0
256,256,165573,2,0,B|240:224|216:224|240:232|280:184|296:208|272:216|232:168|200:176|240:184|264:144|296:144|272:152|232:128|240:120|240:136|272:104,1,150
296,112,166762,2,0,B|280:144|256:144|280:136|320:184|336:160|312:152|272:200|240:192|280:184|304:224|336:224|312:216|272:240|280:248|280:232|312:264,1,150
256,192,167803,12,0,168844
360,248,169141,6,4,B|336:248|336:240|336:264|320:224|320:184|304:224|256:264|296:320|280:264|272:216|256:96|248:224|208:256|232:368|232:256|184:216|184:208|200:152|144:256|152:256|144:312|120:224|96:208|144:208|88:280|64:216,1,300,4|0
160,168,170330,2,0,B|184:168|184:176|184:152|200:192|200:232|216:192|264:152|224:96|240:152|248:200|264:320|272:192|312:160|288:48|288:160|336:200|336:208|320:264|376:160|368:160|376:104|400:192|424:208|376:208|432:136|456:200,1,300,0|0
360,128,171520,2,0,B|336:128|336:120|336:144|320:104|320:64|304:104|256:144|296:200|280:144|272:96|256:-24|248:104|208:136|232:248|232:136|184:96|184:88|200:32|144:136|152:136|144:192|120:104|96:88|144:88|88:160|64:96,1,300,0|0
256,192,172561,12,0,173304
64,192,173899,6,0,B|112:184|120:160|128:208|160:296|200:168|208:40|224:216|208:296|240:168|232:144|264:200|272:248|232:248|256:144|304:160|296:240|328:176|304:136|400:224|368:232|472:184,5,400,4|0|0|0|0|0
256,192,177021,12,0,178062
56,352,178656,6,4,B|280:352,1,200
456,304,179251,6,6,B|232:304,1,200
56,272,179846,6,4,B|264:272,1,200
456,240,180440,6,6,B|240:240,1,200
256,8,181035,6,4,B|256:232,4,200
216,232,184603,6,0,B|231:260|287:260|303:228,1,100
256,168,185198,1,0
300,145,185495,2,4,B|320:216|352:128|372:184,1,100
211,142,186090,2,0,B|192:216|160:128|136:192,1,100
304,296,186982,6,0,B|256:280|256:280|208:296,1,100
256,208,187577,1,0
152,208,187874,2,4,B|40:208,1,100
360,208,188469,2,0,B|472:208,1,100
360,136,189064,1,0
256,208,189361,1,0
160,136,189658,1,2
256,64,189956,1,2
352,136,190253,6,8,B|440:240,1,100
304,168,190848,2,0,B|352:280,1,100
256,176,191443,2,8,B|256:280,1,100
208,168,192037,2,0,B|160:280,1,100
160,136,192632,2,0,B|72:240,1,100
95,212,193078,1,0
95,212,193227,2,0,B|184:296,1,100
304,40,194119,6,4,B|288:64|272:40|248:64|232:40|200:72|208:8,1,100
256,128,194713,1,0
152,128,195011,2,2,B|184:176|232:192|272:192,1,100
311,127,195605,2,0,B|310:122|358:138|390:186,1,100
208,344,196498,6,4,B|224:320|240:344|264:320|280:344|312:312|304:376,1,100
256,256,197092,1,0
360,256,197390,2,2,B|328:208|280:192|240:192,1,100
200,256,197984,2,8,B|202:262|154:246|122:198,3,100
72,112,199174,5,0
256,40,199471,1,2
440,112,199768,1,4
72,272,200660,5,2
256,344,200958,1,2
440,272,201255,1,4
256,192,201850,5,8
256,192,202147,1,8
256,192,202445,1,4
256,192,203039,12,8,204823
256,192,204972,5,2
256,192,205121,1,2
256,192,205269,1,2
256,192,205418,1,4
256,192,205567,12,0,207202
256,192,207351,5,2
256,152,207500,1,2
256,112,207648,1,2
256,72,207797,2,0,B|256:104|296:88|280:40|248:24|192:48|216:96,1,100
96,64,208689,5,0
176,128,208986,1,0
256,64,209284,2,2,B|312:104|280:160,2,100
176,128,210176,1,0
256,192,210473,1,0
176,256,210771,2,8,B|112:272|144:336,1,100
240,336,211365,2,8,B|320:328|280:240,1,100
256,192,211960,1,4
256,192,212555,12,8,214339
256,192,214487,5,2
256,192,214636,1,2
256,192,214785,1,2
256,192,214933,1,4
256,192,215082,12,8,216718
256,200,216866,5,2
256,240,217015,1,2
256,280,217164,1,2
256,320,217312,2,4,B|256:392,1,50
256,368,217610,2,4,B|248:382|152:334|184:246|320:238|312:334|296:350,1,200
248,280,218502,1,0
152,280,218799,2,2,B|200:256|208:304|272:272,1,100
152,280,219394,2,8,B|176:328|208:328|216:368,1,100
152,280,219988,2,2,B|80:264|112:240|56:208,1,100
152,280,220583,2,8,B|144:224|200:224|176:168,1,100
120,104,221178,5,0
184,184,221475,1,2
256,104,221773,1,0
320,184,222070,1,2
384,104,222367,1,0
320,184,222665,1,2
384,256,222962,1,0
320,336,223259,1,2
256,256,223557,1,0
192,336,223854,1,4
128,256,224151,1,0
192,184,224449,1,4
256,256,224746,1,0
256,128,225043,6,2,B|256:232,1,100
160,336,225638,6,2,B|248:256,1,100
352,336,226233,6,4,B|264:256,2,100
256,368,227422,6,2,B|256:256,1,100
160,160,228017,6,2,B|248:240,1,100
352,160,228612,6,4,B|264:240,2,100
256,192,229801,12,8,230396
256,192,230470,12,8,230991
48,192,231288,5,0
88,216,231437,1,0
128,192,231585,1,4
216,192,231883,1,0
256,168,232031,1,0
296,192,232180,1,8
384,192,232477,1,8
344,272,232775,1,8
256,272,233072,1,8
304,344,233369,2,4,B|256:368|256:368|200:344,2,100,4|0|4
256,272,234261,1,8
176,312,234559,5,2
96,272,234856,1,2
56,192,235153,1,2
72,104,235451,1,0
160,104,235748,2,4,B|104:176|144:248|248:248,1,200
256,160,236640,1,0
344,160,236938,6,8,B|400:160,1,50,8|0
440,160,237235,2,8,B|440:216,1,50,8|0
440,256,237532,2,8,B|376:256,1,50,8|0
344,256,237830,2,8,B|344:200,1,50,8|0
392,208,238127,1,4
392,208,238424,1,4
392,208,238722,1,4
264,328,239316,6,2,B|192:328|224:328|176:256,1,100
256,216,239911,6,2,B|336:216|296:216|344:160,1,100
400,88,240506,6,8,B|320:40|192:40|96:96,1,300
112,176,241695,1,4
176,136,241993,1,0
256,120,242290,1,4
336,136,242587,1,0
400,176,242885,2,2,B|320:224|192:224|96:168,1,300
112,264,244074,1,4
176,304,244371,1,0
256,320,244669,1,4
336,304,244966,1,0
400,264,245264,2,2,B|320:216|192:216|96:272,1,300
72,192,246453,1,0
152,192,246750,2,8,B|224:192|184:192|312:192|264:192|376:192,1,200
432,192,247642,1,4
256,56,248237,5,4
256,192,248832,1,4
256,328,249426,1,4
256,192,250021,12,14,258942
256,192,259536,5,4
