osu file format v13

[General]
AudioFilename: 19.. Master+ - Funny shuffle.mp3
AudioLeadIn: 0
PreviewTime: -1
Countdown: 0
SampleSet: None
StackLeniency: 0.2
Mode: 0
LetterboxInBreaks: 1
WidescreenStoryboard: 0

[Editor]
DistanceSpacing: 1.1
BeatDivisor: 6
GridSize: 4
TimelineZoom: 1.7

[Metadata]
Title:Funny shuffle
TitleUnicode:Funny shuffle
Artist:Nekomata Master+
ArtistUnicode:猫叉Master+
Creator:fanzhen0019
Version:RiP iidx
Source:beatmania IIDX
Tags:21 SPADA
BeatmapID:573861
BeatmapSetID:249609

[Difficulty]
HPDrainRate:7
CircleSize:4
OverallDifficulty:8
ApproachRate:9
SliderMultiplier:2.08
SliderTickRate:1

[Events]
//Background and Video events
0,0,"voom.jpg",0,0
//Break Periods
//Storyboard Layer 0 (Background)
//Storyboard Layer 1 (Fail)
//Storyboard Layer 2 (Pass)
//Storyboard Layer 3 (Foreground)
//Storyboard Sound Samples

[TimingPoints]
806,521.739130434783,4,2,0,75,1,0
8632,-66.6666666666667,4,2,0,75,0,0
9153,-100,4,2,0,75,0,0
9414,-133.333333333333,4,2,0,75,0,0
9675,-50,4,2,0,75,0,0
10197,-100,4,2,0,75,0,0
11762,-66.6666666666667,4,2,0,75,0,0
12545,-50,4,2,0,75,0,0
12806,-100,4,2,0,75,0,0
13327,-133.333333333333,4,2,0,75,0,0
13849,-100,4,2,0,75,0,0
14371,-66.6666666666667,4,2,0,75,0,0
14892,-50,4,2,0,75,0,0
15153,-200,4,1,0,75,0,0
16458,-100,4,2,0,75,0,0
16979,-66.6666666666667,4,2,0,75,0,0
17501,-100,4,2,0,75,0,0
18023,-50,4,2,0,75,0,0
18545,-100,4,2,0,75,0,0
20110,-66.6666666666667,4,2,0,75,0,0
20632,-66.6666666666667,4,1,0,75,0,0
21153,-100,4,2,0,75,0,0
21675,-100,4,2,0,75,0,0
22197,-66.6666666666667,4,2,0,75,0,0
22719,-50,4,2,0,75,0,0
23240,-66.6666666666667,4,2,0,75,0,0
23501,-200,4,1,0,75,0,0
25327,-100,4,2,0,75,0,0
26371,-66.6666666666667,4,2,0,75,0,0
26892,-50,4,2,0,75,0,0
30545,-66.6666666666667,4,2,0,75,0,0
31066,-100,4,2,0,75,0,0
34719,-66.6666666666667,4,2,0,75,0,0
35240,-50,4,2,0,75,0,0
38892,-66.6666666666667,4,2,0,75,0,0
39414,-100,4,2,0,75,0,0
48806,-200,4,2,0,75,0,0
50545,-66.6666666666667,4,2,0,75,0,0
50892,-100,4,2,0,75,0,0
52979,-200,4,2,0,75,0,0
54806,-50,4,2,0,75,0,0
55066,-100,4,2,0,75,0,0
57153,-66.6666666666667,4,2,0,75,0,0
58197,-200,4,2,0,75,0,0
59240,-100,4,2,0,75,0,0
63066,-50,4,2,0,75,0,0
63414,-100,4,2,0,75,0,0
75414,-50,4,2,0,75,0,0
75936,-100,4,2,0,75,0,0
78023,-50,4,2,0,75,0,0
79066,-100,4,2,0,75,0,0
80110,-100,4,1,0,75,0,0
81675,-50,4,2,0,75,0,0
84284,-100,4,2,0,75,0,0
88979,-66.6666666666667,4,2,0,75,0,0
89501,-50,4,2,0,75,0,0
93153,-66.6666666666667,4,2,0,75,0,0
93675,-100,4,2,0,75,0,0
99327,-200,4,2,0,5,0,0

[Colours]
Combo1 : 191,191,255
Combo2 : 217,179,179
Combo3 : 255,172,89
Combo4 : 255,255,151

[HitObjects]
40,280,545,5,2,0:0:0:0:
40,280,632,1,2,0:0:0:0:
40,280,719,1,2,0:0:0:0:
52,296,806,6,0,P|105:298|124:264,1,69.3333333333333,2|0,3:2|0:0,0:0:0:0:
176,284,1066,6,0,P|146:299|113:289,1,69.3333333333333
176,284,1327,6,0,P|229:286|248:252,1,69.3333333333333,0|0,3:0|0:0,0:0:0:0:
300,272,1587,6,0,P|270:287|237:277,1,69.3333333333333
300,272,1849,6,0,P|353:274|372:240,1,69.3333333333333,0|0,3:0|0:0,0:0:0:0:
424,260,2109,6,0,P|394:275|361:265,1,69.3333333333333
492,228,2371,6,0,P|500:264|484:304,1,69.3333333333333,0|0,3:0|3:0,0:0:0:0:
492,160,2632,6,0,P|484:196|500:236,1,69.3333333333333,0|0,3:0|0:0,0:0:0:0:
452,36,2892,5,2,0:0:0:0:
324,120,3066,1,0,0:0:0:0:
332,108,3153,6,0,P|376:96|408:112,1,69.3333333333333
260,148,3414,6,0,L|184:152,1,69.3333333333333,0|0,3:0|0:0,0:0:0:0:
136,104,3675,6,0,L|60:108,1,69.3333333333333
4,60,3936,6,0,P|36:29|68:48,1,69.3333333333333,0|0,3:0|0:0,0:0:0:0:
60,180,4197,6,0,P|26:182|7:155,1,69.3333333333333,0|0,3:0|0:0,0:0:0:0:
136,104,4458,5,0,3:0:0:0:
252,200,4632,1,0,3:0:0:0:
240,196,4719,1,8,3:0:0:0:
104,256,4892,1,0,3:0:0:0:
116,248,4979,5,4,3:0:0:0:
24,268,5240,2,0,B|24:276|24:276|28:288|28:288|24:300|24:300|28:312|28:312|24:324|24:324|28:336|28:336|28:336|28:336|24:344|24:344|28:352,1,69.3333333333333,2|0,0:1|0:0,0:0:0:0:
204,336,5501,5,0,3:0:0:0:
112,316,5762,2,0,B|112:308|112:308|116:296|116:296|112:284|112:284|116:272|116:272|112:260|112:260|116:248|116:248|116:248|116:248|112:240|112:240|116:232,1,69.3333333333333,2|0,0:1|0:0,0:0:0:0:
292,250,6023,5,0,3:0:0:0:
200,270,6284,2,0,B|200:278|200:278|204:290|204:290|200:302|200:302|204:314|204:314|200:326|200:326|204:338|204:338|204:338|204:338|200:346|200:346|204:354,1,69.3333333333333,2|0,0:1|3:0,0:0:0:0:
304,356,6545,6,0,P|304:332|292:356,1,69.3333333333333,0|0,3:0|3:0,0:0:0:0:
384,344,6806,6,0,P|428:356|456:348,1,69.3333333333333,2|0,3:1|0:0,0:0:0:0:
504,280,7066,6,0,B|450:270|450:270|437:271|448:288,1,69.3333333333333,0|0,3:0|0:0,0:0:0:0:
344,196,7327,6,0,B|397:186|397:186|410:187|400:204,1,69.3333333333333,0|0,3:0|0:0,0:0:0:0:
512,124,7588,6,0,B|458:114|458:114|445:115|456:132,1,69.3333333333333,0|0,3:0|0:0,0:0:0:0:
224,32,7849,6,0,B|277:22|277:22|290:23|280:40,1,69.3333333333333,0|0,3:0|0:0,0:0:0:0:
388,28,8110,5,0,3:0:0:0:
388,28,8371,1,0,3:0:0:0:
316,120,8632,6,0,L|204:108,1,104.000003967285,4|0,1:2|0:0,0:0:0:0:
224,116,8892,2,0,L|112:104,1,104.000003967285,0|0,1:0|0:0,0:0:0:0:
32,96,9153,5,4,1:2:0:0:
64,304,9414,6,2,P|96:288|88:264,1,52.0000019836427,2|0,3:1|0:1,0:1:0:0:
32,224,9675,6,0,B|68:208|112:232|112:232|124:228|124:228|144:240|144:240|168:232,1,138.666666666667,8|0,3:0|0:0,0:0:0:0:
196,315,9936,6,0,B|160:331|116:307|116:307|104:311|104:311|84:299|84:299|60:307,1,138.666666666667,12|0,3:0|0:0,0:0:0:0:
252,244,10197,6,0,P|288:249|300:216,1,69.3333333333333,0|0,3:0|0:0,0:0:0:0:
380,240,10458,5,0,3:0:0:0:
376,260,10545,1,0,3:0:0:0:
372,280,10632,1,0,3:0:0:0:
324,324,10719,6,0,B|351:314|351:314|404:320,1,69.3333333333333,4|0,3:0|0:0,0:0:0:0:
512,376,10979,2,0,B|484:366|484:366|432:372,1,69.3333333333333,4|0,3:0|0:0,0:0:0:0:
324,168,11240,6,0,B|351:158|351:158|404:164,1,69.3333333333333,8|0,3:0|0:0,0:0:0:0:
512,220,11500,2,0,B|484:210|484:210|432:216,1,69.3333333333333,8|0,3:0|0:0,0:0:0:0:
244,208,11762,6,0,P|196:164|212:116,1,104.000003967285,0|0,3:0|0:0,0:0:0:0:
216,96,12023,2,0,P|276:72|312:107,1,104.000003967285,2|2,3:2|0:0,0:0:0:0:
324,168,12284,5,4,0:0:0:0:
136,96,12545,6,2,B|44:84|44:84|76:104|120:76,1,138.666666666667,2|2,0:1|0:0,1:0:0:0:
216,96,12806,6,0,L|128:88,1,69.3333333333333,2|2,3:0|3:0,0:0:0:0:
16,188,13066,6,0,L|104:180,1,69.3333333333333,2|0,3:0|3:0,0:0:0:0:
168,304,13327,6,0,P|180:344|164:360,1,52.0000019836427,2|0,0:0|0:0,0:0:0:0:
128,316,13588,1,0,3:0:0:0:
144,304,13675,1,0,3:0:0:0:
168,304,13762,1,0,3:0:0:0:
256,256,13849,6,0,P|300:268|324:304,1,69.3333333333333,2|0,0:0|0:0,0:0:0:0:
276,304,14110,1,0,3:0:0:0:
260,284,14197,1,0,3:0:0:0:
256,256,14284,1,0,3:0:0:0:
208,160,14371,6,0,P|156:148|116:176,1,104.000003967285,2|0,0:0|0:0,0:0:0:0:
184,228,14632,1,0,3:0:0:0:
204,196,14719,1,0,3:0:0:0:
208,160,14806,1,0,3:0:0:0:
308,152,14892,6,0,P|300:100|216:56,1,138.666666666667,2|0,0:0|0:0,0:0:0:0:
320,56,15153,6,2,L|336:88,1,34.6666666666667,0|0,2:0|2:0,0:0:0:0:
400,204,15414,5,4,3:0:0:0:
336,88,15675,6,2,L|352:120,1,34.6666666666667,0|0,2:0|2:0,0:0:0:0:
416,236,15936,5,4,3:0:0:0:
352,118,16197,6,2,L|368:150,1,34.6666666666667,0|0,2:0|2:0,2:0:0:0:
432,266,16458,5,4,3:0:0:0:
400,292,16545,1,0,3:0:0:0:
360,296,16632,1,2,3:2:0:0:
320,284,16719,1,2,3:2:0:0:
280,280,16806,1,2,3:2:0:0:
240,296,16892,1,2,3:2:0:0:
172,268,16979,6,0,B|148:272|148:272|136:300|136:300|156:324|156:324|179:320,1,104.000003967285,4|0,0:0|0:0,0:0:0:0:
80,252,17240,6,0,L|68:284,4,26.0000009918213,2|2|2|2|2,3:2|3:2|3:2|3:2|3:2,0:0:0:0:
120,176,17501,5,4,0:0:0:0:
120,176,17762,2,0,P|140:136|128:84,1,69.3333333333333
56,116,18023,6,0,B|48:96|48:96|56:88|56:88|52:72|52:72|72:68|72:68|80:24|156:28,1,138.666666666667,8|0,3:0|0:0,0:0:0:0:
204,56,18284,6,0,B|232:72|252:64|252:64|272:56|272:56|288:56|288:56|308:48|308:48|340:48,1,138.666666666667,8|0,3:0|0:0,0:0:0:0:
508,120,18545,5,0,3:0:0:0:
504,160,18632,1,0,3:0:0:0:
500,200,18719,1,0,3:0:0:0:
364,192,18806,5,0,3:0:0:0:
368,152,18893,1,0,3:0:0:0:
372,112,18980,1,0,3:0:0:0:
436,156,19066,6,0,L|428:240,1,69.3333333333333,4|0,3:0|0:0,0:0:0:0:
420,296,19327,2,0,L|412:380,1,69.3333333333333,4|0,3:0|0:0,0:0:0:0:
272,332,19588,6,0,L|265:262,1,69.3333333333333,8|0,3:0|0:0,0:0:0:0:
256,192,19849,2,0,L|249:122,1,69.3333333333333,8|0,3:0|0:0,0:0:0:0:
92,88,20110,6,0,P|36:120|20:168,1,104.000003967285,0|0,3:0|0:0,0:0:0:0:
28,240,20371,2,0,P|68:292|120:296,1,104.000003967285,2|2,1:0|2:0,0:0:0:0:
284,297,20632,6,2,P|306:236|287:189,1,104.000003967285,0|0,1:0|2:0,0:0:0:0:
236,140,20893,2,2,P|171:125|129:156,1,104.000003967285,2|2,3:1|2:0,0:0:0:0:
28,240,21153,6,0,B|16:272|16:272|28:304,1,69.3333333333333,2|0,0:0|0:0,0:0:0:0:
28,304,21414,6,0,B|31:269|31:269|56:246,1,69.3333333333333,2|0,3:3|0:0,0:0:0:0:
148,224,21675,6,0,B|184:224|144:268|164:312,1,69.3333333333333,2|0,0:0|0:0,0:0:0:0:
204,344,21936,1,0,3:0:0:0:
224,348,22023,1,0,3:0:0:0:
244,352,22110,1,0,3:0:0:0:
320,344,22197,6,0,B|328:344|325:321|325:321|320:276|320:276|320:252|360:272,1,104.000003967285,4|0,0:0|0:0,0:0:0:0:
416,228,22458,1,0,3:0:0:0:
448,224,22545,1,0,3:0:0:0:
480,220,22632,1,0,3:0:0:0:
480,144,22719,6,0,B|460:152|468:127|468:127|480:76|480:76|500:24|432:64,1,138.666666666667,2|0,0:0|0:0,0:0:0:0:
372,76,22979,1,0,3:0:0:0:
332,68,23066,1,0,3:0:0:0:
292,60,23153,1,0,3:0:0:0:
208,36,23240,6,0,B|184:28|184:40|184:40|196:92|196:92|204:116|172:104,1,104.000003967285,4|0,0:0|0:0,0:0:0:0:
108,92,23501,6,2,L|68:96,1,34.6666666666667,0|0,2:0|2:0,0:0:0:0:
44,252,23762,5,4,0:3:0:0:
108,92,24023,6,2,L|68:96,1,34.6666666666667,0|0,2:0|2:0,0:0:0:0:
44,252,24284,5,4,0:3:0:0:
108,92,24545,6,2,L|68:96,1,34.6666666666667,0|0,0:0|0:0,2:0:0:0:
44,252,24806,5,4,0:3:0:0:
112,356,24979,5,0,3:0:0:0:
120,352,25066,1,0,3:0:0:0:
240,328,25240,5,0,3:0:0:0:
260,296,25327,1,0,3:0:0:0:
380,252,25501,5,2,3:2:0:0:
388,184,25588,1,2,3:2:0:0:
496,124,25762,5,2,0:0:0:0:
360,64,25849,6,0,B|316:48|320:84|360:64,1,69.3333333333333,4|0,3:2|0:0,0:0:0:0:
360,64,26110,2,0,B|400:44|404:80|360:64,1,69.3333333333333,2|0,3:0|0:0,3:0:0:0:
360,64,26371,6,0,B|288:48|312:108|360:64,1,104.000003967285,8|0,3:1|0:0,0:0:0:0:
359,64,26632,2,0,B|407:20|431:80|359:64,1,104.000003967285,2|0,3:0|0:0,0:0:0:0:
359,64,26892,6,0,B|261:47|317:141|359:64,1,138.666666666667,0|0,3:0|0:0,0:0:0:0:
359,63,27153,2,0,B|400:-14|456:79|359:63,1,138.666666666667,2|2,3:3|3:0,0:0:0:0:
224,92,27414,6,0,P|156:108|120:56,1,138.666666666667,8|0,3:1|3:0,0:0:0:0:
180,48,27675,2,0,P|152:116|80:104,1,138.666666666667,10|0,3:3|3:0,0:0:0:0:
76,276,27936,6,0,P|40:308|108:320,1,138.666666666667,0|0,3:0|0:0,0:0:0:0:
100,334,28197,2,0,P|133:286|75:275,1,138.666666666667,2|0,3:0|0:0,0:0:0:0:
76,276,28458,6,0,P|40:308|108:320,1,138.666666666667,8|0,3:1|0:0,0:0:0:0:
100,334,28719,2,0,P|133:286|75:275,1,138.666666666667,2|0,3:0|0:0,0:0:0:0:
76,276,28979,6,0,P|40:308|108:320,1,138.666666666667,0|0,3:0|0:0,0:0:0:0:
100,334,29240,2,0,P|133:286|75:275,1,138.666666666667,2|0,3:0|0:0,0:0:0:0:
216,336,29501,6,0,P|288:344|336:300,1,138.666666666667,8|2,3:1|0:0,0:0:0:0:
329,178,29762,2,0,P|381:221|448:212,1,138.666666666667,8|0,3:0|0:0,0:0:0:0:
392,72,30023,6,0,B|350:-5|294:88|392:72,1,138.666666666667,0|0,3:0|0:0,0:0:0:0:
392,73,30284,2,0,B|489:56|433:150|392:73,1,138.666666666667,2|0,3:0|0:0,0:0:0:0:
392,73,30545,6,0,B|344:29|320:89|392:73,1,104.000003967285,8|0,3:1|0:0,0:0:0:0:
391,73,30806,2,0,B|463:57|439:117|391:73,1,104.000003967285,2|0,3:0|0:0,0:0:0:0:
391,73,31066,6,0,B|351:53|347:89|391:73,1,69.3333333333333,0|0,3:0|0:0,0:0:0:0:
391,73,31327,2,0,B|435:57|431:93|391:73,1,69.3333333333333,2|0,3:0|0:0,0:0:0:0:
280,64,31588,6,0,P|248:60|208:72,1,69.3333333333333,8|0,1:0|0:0,0:0:0:0:
124,40,31849,2,0,P|88:64|76:96,1,69.3333333333333,0|0,3:0|0:0,0:0:0:0:
16,164,32110,5,4,3:0:0:0:
16,164,32371,2,0,L|72:164,1,34.6666666666667,2|0,0:0|0:0,0:0:0:0:
152,184,32545,1,2,0:0:0:0:
168,200,32632,5,4,3:0:0:0:
192,288,32806,1,0,0:0:0:0:
188,308,32892,2,0,L|176:360,1,34.6666666666667,2|2,0:0|0:0,0:0:0:0:
76,376,33066,1,2,0:0:0:0:
64,360,33153,6,0,P|52:320|80:272,1,69.3333333333333,8|0,3:0|0:0,0:0:0:0:
276,288,33414,2,0,P|288:328|260:376,1,69.3333333333333,4|0,3:0|0:0,0:0:0:0:
168,200,33675,6,0,B|164:116|164:116|160:108|160:108|163:98|163:98|156:87|156:87|165:78|165:78|154:69|154:69|164:60|164:60|156:52|156:52|164:44,1,173.333333333333,4|0,0:0|0:0,0:0:0:0:
264,104,34197,6,0,P|288:124|328:128,1,69.3333333333333,0|0,1:0|0:0,0:0:0:0:
385,103,34458,2,0,P|358:124|324:128,1,69.3333333333333,2|0,0:0|0:0,0:0:0:0:
208,135,34719,6,0,P|257:152|308:144,1,104.000003967285,8|0,1:0|0:0,0:0:0:0:
367,66,34979,2,0,P|350:114|307:144,1,104.000003967285,2|0,0:0|0:0,0:0:0:0:
132,204,35240,6,0,P|199:216|260:184,1,138.666666666667,0|0,1:0|0:0,0:0:0:0:
295,60,35501,2,0,P|298:128|260:183,1,138.666666666667,2|0,0:0|0:0,0:0:0:0:
60,128,35762,6,0,B|12:88|20:32|20:32|32:44|32:44|24:64,1,138.666666666667,8|0,1:0|0:0,0:0:0:0:
113,36,36023,2,0,B|133:64|133:64|121:120|60:128,1,138.666666666667,6|0,3:0|0:0,0:0:0:0:
88,340,36284,6,0,P|160:336|208:284,1,138.666666666667,0|0,1:0|0:0,0:0:0:0:
199,163,36545,2,0,P|224:226|204:291,1,138.666666666667,2|0,0:0|0:0,0:0:0:0:
140,232,36806,6,0,P|197:267|256:232,1,138.666666666667,8|0,1:0|0:0,0:0:0:0:
368,231,37066,2,0,P|312:266|254:235,1,138.666666666667,2|0,0:0|0:0,0:0:0:0:
312,163,37327,6,0,P|287:226|307:291,1,138.666666666667,0|0,1:0|0:0,0:0:0:0:
424,339,37588,2,0,P|356:337|307:291,1,138.666666666667,2|0,0:0|0:0,0:0:0:0:
368,232,37849,6,0,B|381:193|408:172|408:172|424:216|424:216|464:208,1,138.666666666667,8|0,1:0|0:0,0:0:0:0:
468,124,38110,2,0,B|436:88|392:96|392:96|372:84|340:88,1,138.666666666667,10|0,3:0|0:0,0:0:0:0:
148,19,38371,6,0,P|145:87|184:143,1,138.666666666667,0|0,1:0|0:0,0:0:0:0:
312,164,38632,2,0,P|245:176|185:144,1,138.666666666667,2|0,0:0|0:0,0:0:0:0:
77,26,38892,6,0,P|94:74|137:104,1,104.000003967285,8|0,1:0|0:0,0:0:0:0:
236,95,39153,2,0,P|187:112|137:104,1,104.000003967285,2|0,0:0|0:0,0:0:0:0:
59,62,39414,6,0,P|85:84|120:88,1,69.3333333333333,0|0,1:0|0:0,0:0:0:0:
180,63,39675,2,0,P|154:84|120:88,1,69.3333333333333,2|0,0:0|0:0,0:0:0:0:
44,148,39936,6,0,P|32:184|40:216,1,69.3333333333333,8|0,1:0|0:0,0:0:0:0:
112,256,40197,2,0,P|124:292|116:324,1,69.3333333333333,4|0,3:0|0:0,0:0:0:0:
272,260,40458,6,0,L|184:276,1,69.3333333333333,8|0,3:0|0:0,0:0:0:0:
380,336,40719,2,0,L|448:344,1,69.3333333333333,0|0,3:0|0:0,0:0:0:0:
444,224,40979,2,0,P|468:168|464:148,1,69.3333333333333,0|2,3:0|0:0,0:0:0:0:
416,56,41240,1,0,3:0:0:0:
380,68,41327,1,0,3:0:0:0:
344,80,41414,1,0,3:0:0:0:
264,80,41501,6,0,L|176:92,1,69.3333333333333,0|0,1:0|0:0,0:0:0:0:
128,56,41762,2,0,L|32:56,1,69.3333333333333,0|0,1:0|0:0,0:0:0:0:
416,56,42197,5,2,0:0:0:0:
180,304,42458,1,2,0:0:0:0:
256,316,42545,6,0,L|344:328,1,69.3333333333333,0|0,1:0|0:0,0:0:0:0:
392,292,42806,2,0,L|488:292,1,69.3333333333333,0|0,1:0|0:0,0:0:0:0:
104,292,43241,5,2,0:0:0:0:
320,192,43501,5,2,0:0:0:0:
240,192,43588,2,0,L|144:192,1,69.3333333333333,0|0,1:0|0:0,0:0:0:0:
96,192,43849,1,0,1:0:0:0:
400,192,44023,5,4,0:0:0:0:
32,36,45588,5,0,3:2:0:0:
40,48,45675,1,2,3:2:0:0:
24,128,45936,1,2,3:2:0:0:
52,204,46197,1,2,3:2:0:0:
36,284,46458,1,2,3:2:0:0:
56,360,46719,6,0,P|104:368|132:348,1,69.3333333333333,2|0,0:1|0:0,0:0:0:0:
176,300,46979,2,0,L|164:264,2,34.6666666666667,0|0|0,0:3|0:3|0:3,0:0:0:0:
256,336,47240,1,8,0:3:0:0:
416,236,47414,6,0,B|432:244|432:244|472:224|480:264|480:264|501:274,1,104,2|0,0:0|0:0,0:0:0:0:
456,360,47762,6,0,P|408:368|380:348,1,69.3333333333333,2|0,0:1|0:0,0:0:0:0:
336,300,48022,2,0,L|348:264,2,34.6666666666667,0|0|0,0:3|0:3|0:3,0:0:0:0:
256,336,48283,1,8,3:0:0:0:
96,236,48458,6,0,B|80:244|80:244|40:224|32:264|32:264|11:274,1,104,2|0,0:0|0:0,0:0:0:0:
308,176,48806,6,0,P|320:168|328:144,1,34.6666666666667,2|0,0:1|0:0,0:0:0:0:
183,149,49066,2,0,P|190:165|204:176,1,34.6666666666667,2|2,0:0|0:0,0:0:0:0:
384,112,49327,6,0,P|392:88|392:72,1,34.6666666666667,8|0,3:0|0:0,0:0:0:0:
128,52,49588,5,2,3:2:0:0:
124,72,49675,1,2,3:2:0:0:
124,92,49762,1,2,3:2:0:0:
128,111,49849,6,0,P|112:118|94:119,1,34.6666666666667,2|0,0:0|0:0,0:0:0:0:
256,32,50110,1,0,0:0:0:0:
383,111,50284,6,0,P|399:118|432:120,1,34.6666666666667
492,104,50545,6,0,P|488:164|400:192,1,156.000005950928,0|0,1:0|0:0,0:0:0:0:
448,276,50892,6,0,P|388:288|376:312,1,69.3333333333333,2|0,3:1|0:0,0:0:0:0:
312,324,51153,2,0,P|308:344|308:364,2,34.6666666666667,0|0|0,3:3|3:3|3:3,0:0:0:0:
256,260,51414,1,8,0:3:0:0:
168,164,51588,6,0,B|116:172|116:172|84:180|96:200|96:200|120:192,1,104,2|0,0:0|0:0,0:0:0:0:
64,276,51936,6,0,P|124:288|136:312,1,69.3333333333333,2|0,3:1|0:0,0:0:0:0:
200,324,52197,2,0,P|204:344|204:364,2,34.6666666666667,0|0|0,3:0|3:0|3:0,0:0:0:0:
256,260,52458,1,8,3:0:0:0:
344,164,52632,6,0,B|396:172|396:172|428:180|416:200|416:200|392:192,1,104,2|0,0:0|0:0,0:0:0:0:
256,104,52979,6,0,L|256:68,1,34.6666666666667,2|0,3:1|0:0,0:0:0:0:
236,180,53240,1,0,3:0:0:0:
256,184,53327,1,0,3:0:0:0:
276,180,53414,1,0,3:0:0:0:
336,84,53501,6,0,P|344:64|344:48,1,34.6666666666667,8|0,0:3|0:0,0:0:0:0:
167,51,53762,2,0,P|168:68|176:84,1,34.6666666666667,2|0,0:0|0:0,0:0:0:0:
204,276,54023,5,0,1:0:0:0:
204,296,54110,1,0,3:0:0:0:
196,312,54197,1,0,3:0:0:0:
308,352,54284,5,2,3:0:0:0:
308,332,54371,1,2,3:0:0:0:
316,316,54458,1,2,3:0:0:0:
392,296,54545,6,0,L|432:292,1,34.6666666666667
484,288,54806,6,0,L|330:302,1,138.666666666667,0|2,0:0|0:0,0:0:0:0:
136,216,55066,6,0,P|104:236|56:232,1,69.3333333333333,4|0,0:0|0:0,0:0:0:0:
192,152,55327,2,0,L|216:180,2,34.6666666666667,0|0|0,3:0|3:0|3:0,0:0:0:0:
208,72,55588,1,8,3:0:0:0:
436,48,55762,6,0,B|432:84|432:84|456:104|436:120|436:120|432:172,1,104,2|0,0:0|0:0,0:0:0:0:
376,216,56110,6,0,P|408:236|456:232,1,69.3333333333333,2|0,3:1|0:0,0:0:0:0:
320,152,56371,2,0,L|296:180,2,34.6666666666667,0|0|0,3:0|3:0|3:0,0:0:0:0:
304,72,56632,1,8,3:0:0:0:
76,48,56806,6,0,B|80:84|80:84|56:104|76:120|76:120|80:172,1,104,2|0,0:0|0:0,0:0:0:0:
80,280,57153,6,0,B|84:316|84:316|88:376|120:324,1,104.000003967285,2|0,0:1|0:0,0:0:0:0:
302,300,57414,2,0,P|331:264|292:240,1,104.000003967285,2|0,0:0|0:0,0:0:0:0:
220,240,57675,6,0,P|180:264|209:300,1,104.000003967285,8|0,0:3|0:0,0:0:0:0:
394,327,57936,2,0,B|424:376|428:316|428:316|431:281,1,104.000003967285,2|0,0:0|0:0,0:0:0:0:
480,172,58197,6,0,L|436:180,1,34.6666666666667,0|2,0:0|3:0,0:0:0:0:
388,136,58458,1,2,3:0:0:0:
324,132,58545,1,2,3:0:0:0:
260,128,58632,1,2,3:0:0:0:
248,52,58719,6,0,L|204:44,1,34.6666666666667,0|0,1:0|1:0,0:0:0:0:
156,88,58980,1,2,3:0:0:0:
92,92,59067,1,2,3:0:0:0:
28,96,59154,1,2,3:0:0:0:
8,168,59240,6,0,P|52:180|60:220,1,69.3333333333333,2|0,1:0|0:0,0:0:0:0:
128,248,59501,2,0,L|120:288,2,34.6666666666667,0|0|0,3:0|3:0|3:0,0:0:0:0:
208,220,59762,1,8,0:3:0:0:
376,360,59936,6,0,B|420:360|420:360|480:376|432:316,1,104,2|0,0:0|0:0,0:0:0:0:
504,168,60284,6,0,P|460:180|452:220,1,69.3333333333333,2|0,1:0|0:0,0:0:0:0:
384,248,60545,2,0,L|392:288,2,34.6666666666667,0|0|0,3:0|3:0|3:0,0:0:0:0:
304,220,60806,1,8,0:3:0:0:
136,360,60979,6,0,B|92:360|92:360|32:376|80:316,1,104,2|0,0:0|0:0,0:0:0:0:
112,168,61327,6,0,P|96:128|104:80,1,69.3333333333333,0|0,1:0|0:0,0:0:0:0:
164,64,61588,6,0,L|172:104,1,34.6666666666667,2|0,0:0|0:0,0:0:0:0:
232,148,61762,6,0,L|240:108,1,34.6666666666667,2|0,0:0|0:0,0:0:0:0:
300,52,61936,6,0,L|308:92,1,34.6666666666667,2|0,0:0|0:0,0:0:0:0:
368,136,62110,6,0,L|376:96,1,34.6666666666667,2|0,0:0|0:0,0:0:0:0:
432,40,62284,5,2,0:0:0:0:
448,52,62371,2,0,P|460:88|448:136,1,69.3333333333333,0|0,1:0|0:0,0:0:0:0:
428,196,62632,2,0,P|416:232|428:280,1,69.3333333333333,0|0,0:3|0:0,0:0:0:0:
468,328,62892,1,0,1:1:0:0:
468,328,63066,6,0,B|440:320|440:320|416:320|416:320|416:332|416:332|396:332|396:332|396:324|396:324|380:324|380:324|380:328|380:328|360:328|360:328|360:320|360:320|344:320|344:320|344:336|344:336|328:336|328:336|328:332|328:332|312:332|312:332|312:336,1,208,8|0,2:3|0:0,0:0:0:0:
236,324,63414,5,4,0:0:0:0:
236,324,63675,2,0,L|144:328,1,69.3333333333333,8|0,0:0|0:0,0:0:0:0:
56,332,63936,6,0,P|32:288|56:232,1,104,0|8,3:0|0:0,0:0:0:0:
152,148,64371,1,0,3:0:0:0:
168,152,64458,6,0,P|184:199|160:244,1,104,0|8,3:0|0:0,0:0:0:0:
64,148,64892,1,0,3:0:0:0:
48,144,64979,6,0,P|31:96|56:52,1,104,0|8,3:0|0:0,0:0:0:0:
164,44,65414,1,0,3:0:0:0:
176,56,65501,6,0,B|196:80|196:80|256:72|256:72|240:48|240:48|274:44|274:44|290:67|290:67|336:60|336:60|324:36|324:36|351:33,1,277.333333333333,0|0,3:0|0:0,0:0:0:0:
420,28,66284,1,8,3:2:0:0:
416,64,66371,1,0,3:0:0:0:
412,100,66458,1,0,3:0:0:0:
444,148,66545,6,0,P|400:148|364:172,1,69.3333333333333,0|0,3:0|0:0,0:0:0:0:
304,140,66806,2,0,P|272:152|248:176,1,69.3333333333333,8|0,3:2|0:0,0:0:0:0:
172,168,67066,2,0,P|148:192|140:232,1,69.3333333333333,0|0,3:0|0:0,0:0:0:0:
64,240,67327,2,0,P|48:276|48:312,1,69.3333333333333,8|0,3:2|0:0,0:0:0:0:
0,360,67588,5,0,1:0:0:0:
0,360,67849,2,0,L|84:356,1,69.3333333333333,8|0,0:0|0:0,0:0:0:0:
144,304,68110,6,0,P|184:328|252:304,1,104,0|8,3:0|0:0,0:0:0:0:
328,224,68545,1,0,3:0:0:0:
336,216,68632,6,0,P|284:204|244:240,1,104,0|8,3:0|0:0,0:0:0:0:
408,268,69066,1,0,3:0:0:0:
412,280,69153,6,0,P|460:252|480:196,1,104,0|8,3:0|0:0,0:0:0:0:
412,96,69588,1,0,3:0:0:0:
404,80,69675,6,0,B|392:64|376:68|376:68|360:68|360:68|372:72|372:72|344:72|344:72|356:76|356:76|336:76|336:76|344:80|344:80|328:80|328:80|336:84|336:84|316:84|316:84|328:88|328:88|308:88|308:88|316:92|316:92|300:92|300:92|308:96|308:96|292:96|292:96|280:100|268:96,1,277.333333333333,0|0,3:0|0:0,0:0:0:0:
200,72,70458,1,8,3:2:0:0:
180,104,70545,1,0,3:0:0:0:
160,136,70632,1,0,3:0:0:0:
88,176,70719,6,0,P|72:136|80:108,1,69.3333333333333,0|0,1:0|0:0,0:0:0:0:
120,48,70979,1,8,0:0:0:0:
160,312,71153,6,0,P|176:272|156:216,1,104,0|8,1:0|0:0,0:0:0:0:
88,176,71501,2,0,L|56:180,4,17.3333333333333,2|2|2|2|2,0:3|0:3|0:3|0:3|0:3,0:0:0:0:
64,264,71762,6,0,B|60:280|60:280|64:276|64:276|60:292|60:292|64:288|64:288|60:304|60:304|64:300|64:300|56:320,1,69.3333333333333,4|0,0:0|0:0,0:0:0:0:
116,368,72023,1,0,3:0:0:0:
144,364,72110,1,0,3:0:0:0:
172,360,72197,1,0,3:0:0:0:
256,276,72284,6,0,B|252:260|252:260|256:264|256:264|252:248|252:248|256:252|256:252|252:236|252:236|256:240|256:240|248:220,1,69.3333333333333,8|0,1:0|0:0,0:0:0:0:
308,172,72545,1,0,3:0:0:0:
336,176,72632,1,0,3:0:0:0:
364,180,72719,1,0,3:0:0:0:
448,264,72806,6,0,B|452:280|452:280|448:276|448:276|452:292|452:292|448:288|448:288|452:304|452:304|448:300|448:300|456:320,1,69.3333333333333,0|0,1:0|0:0,0:0:0:0:
396,368,73067,1,0,3:0:0:0:
368,364,73154,1,0,3:0:0:0:
340,360,73241,1,0,3:0:0:0:
256,276,73328,6,0,B|260:260|260:260|256:264|256:264|260:248|260:248|256:252|256:252|260:236|260:236|256:240|256:240|264:220,1,69.3333333333333,8|0,1:0|0:0,0:0:0:0:
204,172,73589,1,0,3:0:0:0:
176,176,73676,1,0,3:0:0:0:
148,180,73763,1,0,3:0:0:0:
72,136,73849,6,0,B|64:104|64:104|72:108|72:108|64:72,1,69.3333333333333,0|0,1:0|0:0,0:0:0:0:
144,84,74110,5,0,3:0:0:0:
216,76,74197,1,2,3:2:0:0:
248,8,74284,1,2,3:2:0:0:
172,16,74371,1,8,1:0:0:0:
216,76,74458,1,2,3:2:0:0:
292,68,74545,1,0,3:0:0:0:
364,60,74632,6,0,P|404:66|444:56,1,69.3333333333333,0|0,0:3|0:0,0:0:0:0:
488,116,74892,2,0,P|496:147|484:196,1,69.3333333333333,0|0,1:1|0:0,0:0:0:0:
464,260,75153,2,0,P|436:280|400:284,1,69.3333333333333,0|0,3:0|0:0,0:0:0:0:
332,256,75414,6,0,B|308:312|284:264|284:264|308:292|260:320|232:268|232:268|264:308|200:356|136:284|140:244|204:180,1,346.666666666667,8|0,1:0|0:0,0:0:0:0:
112,176,75936,6,0,B|104:172|104:172|96:176|96:176|84:172|84:172|76:176|76:176|64:172|64:172|56:176|56:176|44:172|44:172|36:176,1,69.3333333333333,4|0,0:0|0:0,0:0:0:0:
116,92,76197,1,0,3:0:0:0:
144,88,76284,1,0,3:0:0:0:
172,84,76371,1,0,3:0:0:0:
256,92,76458,6,0,B|260:84|260:84|256:76|256:76|260:64|260:64|256:56|256:56|260:44|260:44|256:36|256:36|260:24|260:24|256:16,1,69.3333333333333,8|0,1:0|0:0,0:0:0:0:
336,52,76719,1,0,3:0:0:0:
340,80,76806,1,0,3:0:0:0:
344,108,76893,1,0,3:0:0:0:
400,208,76979,6,0,B|408:212|408:212|416:208|416:208|428:212|428:212|436:208|436:208|448:212|448:212|456:208|456:208|468:212|468:212|476:208,1,69.3333333333333,8|0,3:0|0:0,0:0:0:0:
396,292,77240,1,0,3:0:0:0:
368,296,77327,1,0,3:0:0:0:
340,300,77414,1,0,3:0:0:0:
256,292,77501,6,0,B|252:300|252:300|256:308|256:308|252:320|252:320|256:328|256:328|252:340|252:340|256:348|256:348|252:360|252:360|256:368,1,69.3333333333333,8|0,1:0|0:0,0:0:0:0:
176,332,77762,1,0,3:0:0:0:
172,304,77849,1,0,3:0:0:0:
168,276,77936,1,0,3:0:0:0:
256,192,78023,6,0,B|280:192|288:224|288:224|244:180|196:192|196:192|224:144|108:124|148:200|148:200|152:160|104:152|112:216|112:216|120:164|56:156|16:200|24:260|88:264,1,554.666666666667,8|0,3:0|0:0,0:0:0:0:
32,332,78806,5,2,3:2:0:0:
80,356,78892,1,2,3:2:0:0:
136,352,78979,1,2,3:2:0:0:
176,332,79066,6,0,P|205:333|244:364,1,69.3333333333333,0|0,1:0|0:0,0:0:0:0:
264,356,79327,1,0,1:0:0:0:
380,280,79501,5,0,1:0:0:0:
324,272,79588,1,2,0:0:0:0:
208,196,79762,5,2,1:0:0:0:
288,180,79849,1,0,1:0:0:0:
484,60,80023,5,2,1:0:0:0:
384,44,80110,6,0,B|324:40|324:40|340:56,1,69.3333333333333,2|0,0:0|2:0,0:0:0:0:
330,46,80371,2,0,B|390:50|390:50|374:34,1,69.3333333333333,2|0,0:0|2:0,0:0:0:0:
384,44,80632,6,0,B|324:40|324:40|340:56,1,69.3333333333333,2|0,0:0|2:0,0:0:0:0:
330,46,80893,2,0,B|390:50|390:50|374:34,1,69.3333333333333,2|0,0:0|2:0,0:0:0:0:
384,44,81153,6,0,B|324:40|324:40|340:56,1,69.3333333333333,2|0,0:0|2:0,0:0:0:0:
330,46,81414,2,0,B|390:50|390:50|374:34,1,69.3333333333333,2|0,0:0|1:0,0:0:0:0:
484,60,81675,6,0,L|464:232,1,138.666666666667,4|0,1:2|0:0,0:0:0:0:
476,184,81936,2,0,L|456:356,1,138.666666666667,0|0,1:0|0:0,0:0:0:0:
392,232,82197,6,0,P|352:180|276:196,1,138.666666666667,2|0,1:0|0:0,0:0:0:0:
328,308,82458,6,0,P|288:360|212:344,1,138.666666666667,2|0,1:0|0:0,0:0:0:0:
286,188,82719,6,0,P|246:136|170:152,1,138.666666666667,2|0,1:0|0:0,0:0:0:0:
222,264,82980,6,0,P|182:316|106:300,1,138.666666666667,2|0,1:0|0:0,0:0:0:0:
180,144,83240,6,0,P|140:92|64:108,1,138.666666666667,2|0,1:0|0:0,0:0:0:0:
116,220,83501,6,0,P|76:272|0:256,1,138.666666666667,2|0,1:0|1:0,0:0:0:0:
0,40,83762,6,0,B|68:8|68:84|140:32,1,138.666666666667,4|0,1:2|0:0,0:0:0:0:
204,16,84023,2,0,P|256:36|260:128,1,138.666666666667,4|0,1:2|0:0,0:0:0:0:
360,144,84284,6,0,B|372:184|372:184|360:216,1,69.3333333333333,4|0,0:0|0:0,0:0:0:0:
180,144,84545,1,0,3:0:0:0:
208,144,84632,1,0,3:0:0:0:
236,144,84719,1,0,3:0:0:0:
272,180,84806,6,0,B|284:220|284:220|272:252,1,69.3333333333333,8|0,1:0|0:0,0:0:0:0:
92,180,85066,1,0,3:0:0:0:
120,180,85153,1,0,3:0:0:0:
148,180,85240,1,0,3:0:0:0:
184,216,85327,6,0,B|196:256|196:256|184:288,1,69.3333333333333,4|0,2:0|0:0,0:0:0:0:
4,216,85588,1,0,3:0:0:0:
32,216,85675,1,0,3:0:0:0:
60,216,85762,1,0,3:0:0:0:
96,252,85849,6,0,B|108:292|108:292|96:324,1,69.3333333333333,8|0,1:0|0:0,0:0:0:0:
24,296,86110,6,0,B|12:336|12:336|24:368,1,69.3333333333333,4|0,1:3|0:0,0:0:0:0:
168,352,86371,6,0,L|240:352,1,69.3333333333333,0|0,3:0|0:0,0:0:0:0:
312,352,86632,2,0,L|384:352,1,69.3333333333333,0|0,3:0|0:0,0:0:0:0:
456,352,86892,1,8,1:0:0:0:
432,196,87066,5,0,1:0:0:0:
420,220,87153,1,0,0:0:0:0:
280,240,87327,5,0,1:0:0:0:
304,252,87414,2,0,L|308:172,1,69.3333333333333,0|0,0:0|1:0,0:0:0:0:
308,108,87675,1,0,0:0:0:0:
308,108,87849,6,0,P|300:60|252:100,1,104,0|0,1:0|0:0,0:0:0:0:
208,128,88197,1,2,3:2:0:0:
180,124,88284,1,2,3:2:0:0:
152,120,88371,1,2,3:2:0:0:
96,180,88458,6,0,L|116:252,1,69.3333333333333,6|0,1:0|0:0,0:0:0:0:
133,312,88719,2,0,L|114:245,1,69.3333333333333,2|0,1:0|0:0,0:0:0:0:
12,232,88979,6,0,L|114:245,1,104.000003967285,2|0,1:0|0:0,0:0:0:0:
217,258,89240,2,0,L|115:245,1,104.000003967285,2|0,1:0|0:0,0:0:0:0:
5,330,89501,6,0,L|114:244,1,138.666666666667,2|0,1:0|0:0,0:0:0:0:
222,158,89762,2,0,L|114:244,1,138.666666666667,2|0,1:0|1:0,0:0:0:0:
220,348,90023,6,0,P|288:368|284:316,1,138.666666666667,10|2,3:0|1:0,0:0:0:0:
464,304,90284,6,0,P|445:246|394:278,1,138.666666666667,4|2,3:0|1:0,0:0:0:0:
329,193,90545,6,0,B|241:141|241:141|201:129|237:189,1,138.666666666667,2|0,1:0|0:0,0:0:0:0:
137,233,90806,6,0,B|226:182|226:182|256:154|186:155,1,138.666666666667,2|0,1:0|1:0,0:0:0:0:
198,47,91066,6,0,B|196:149|196:149|206:189|240:128,1,138.666666666667,2|0,1:0|0:0,0:0:0:0:
388,219,91327,6,0,B|420:234|380:244|380:244|278:243,1,138.666666666667,2|0,1:0|0:0,0:0:0:0:
388,219,91587,6,0,B|385:184|413:214|413:214|464:304,1,138.666666666667,2|0,1:0|0:0,0:0:0:0:
388,219,91848,6,0,B|360:240|372:200|372:200|424:112,1,138.666666666667,2|0,1:0|0:0,0:0:0:0:
480,48,92110,6,0,P|420:16|340:44,1,138.666666666667,8|2,0:3|1:0,0:0:0:0:
288,104,92371,2,0,P|272:152|216:112,1,138.666666666667,4|2,0:3|1:0,0:0:0:0:
110,130,92632,6,0,P|82:194|130:242,1,138.666666666667,4|0,0:0|0:0,0:0:0:0:
156,292,92892,2,0,P|184:228|136:180,1,138.666666666667,2|0,1:0|0:0,0:0:0:0:
29,245,93153,6,0,P|76:263|122:240,1,104.000003967285,4|0,0:0|0:0,0:0:0:0:
235,175,93414,2,0,P|188:157|143:181,1,104.000003967285,2|0,1:0|0:0,0:0:0:0:
156,292,93675,6,0,P|149:259|121:240,1,69.3333333333333,4|0,2:0|0:0,0:0:0:0:
111,128,93936,2,0,P|115:162|143:181,1,69.3333333333333,2|0,1:0|0:0,0:0:0:0:
264,256,94197,6,0,P|300:260|336:232,1,69.3333333333333,0|2,1:0|1:0,0:0:0:0:
392,316,94458,2,0,P|428:312|464:340,1,69.3333333333333,4|2,3:0|1:0,0:0:0:0:
312,336,94719,6,0,L|240:380,1,69.3333333333333,4|0,1:0|0:0,0:0:0:0:
416,216,94979,2,0,P|424:176|412:140,1,69.3333333333333,0|2,3:0|2:1,0:0:0:0:
320,32,95240,2,0,P|268:20|244:28,1,69.3333333333333,2|2,3:1|3:1,0:0:0:0:
104,36,95501,5,2,2:0:0:0:
96,72,95588,1,2,3:0:0:0:
88,112,95675,1,2,3:0:0:0:
40,168,95762,2,0,L|72:240,1,69.3333333333333,0|0,1:0|0:0,0:0:0:0:
128,284,96023,2,0,L|96:356,1,69.3333333333333,2|0,1:0|1:0,0:0:0:0:
104,36,96458,5,4,0:0:0:0:
424,112,96719,1,2,1:2:0:0:
472,168,96806,2,0,L|440:240,1,69.3333333333333,0|0,1:0|0:0,0:0:0:0:
384,284,97067,2,0,L|416:356,1,69.3333333333333,2|0,1:0|1:0,0:0:0:0:
408,36,97501,5,4,0:0:0:0:
156,176,97762,5,2,1:2:0:0:
124,244,97849,2,0,P|168:252|196:240,1,69.3333333333333,0|0,1:0|0:0,0:0:0:0:
388,244,98110,1,2,1:0:0:0:
256,340,98284,1,0,1:0:0:0:
256,56,98545,1,4,0:0:0:0:
256,56,98806,5,4,0:0:0:0:
388,244,98893,2,0,P|344:252|316:240,1,69.3333333333333,2|0,1:0|0:0,0:0:0:0:
124,244,99154,1,2,1:0:0:0:
256,340,99327,2,0,B|304:340|288:280|260:276|216:288|212:336|256:340|256:340|304:336|280:276|237:277|212:310|256:340,1,294.666666666667,4|0,0:0|0:0,0:0:0:0:
256,340,101849,5,8,3:0:0:0:
256,348,101936,1,8,3:0:0:0:
256,356,102023,1,4,3:0:0:0:
