osu file format v12

[General]
AudioFilename: Nekomata Master feat. JUNE - being torn the sky.mp3
AudioLeadIn: 2000
PreviewTime: 96227
Countdown: 0
SampleSet: Soft
StackLeniency: 0.7
Mode: 0
LetterboxInBreaks: 0

[Editor]
DistanceSpacing: 1.3
BeatDivisor: 4
GridSize: 4

[Metadata]
Title:being torn the sky
TitleUnicode:being torn the sky
Artist:Nekomata Master+ feat. JUNE
ArtistUnicode:猫叉Master+ feat. JUNE
Creator:Leader
Version:Hyper
Source:beatmania IIDX
Tags:17 SIRIUS Leyko Nemis Electro Pop OST
BeatmapID:246299
BeatmapSetID:90777

[Difficulty]
HPDrainRate:5
CircleSize:4
OverallDifficulty:5
ApproachRate:6
SliderMultiplier:1.4
SliderTickRate:2

[Events]
//Background and Video events
0,0,"skybg2.png",0,0
//Break Periods
//Storyboard Layer 0 (Background)
//Storyboard Layer 1 (Fail)
//Storyboard Layer 2 (Pass)
//Storyboard Layer 3 (Foreground)
//Storyboard Sound Samples
//Background Colour Transformations
3,100,163,162,255

[TimingPoints]
346,588.235294117647,4,2,1,20,1,0
9757,-100,4,2,1,20,0,0
17993,-100,4,2,1,5,0,0
19169,-100,4,2,1,30,0,0
35640,-100,4,2,2,20,0,0
37110,-100,4,2,2,30,0,0
55640,-100,4,2,1,20,0,0
56816,-100,4,2,2,40,0,0
94463,-100,4,2,2,20,0,0
94757,-100,4,2,2,5,0,0
96228,-100,4,2,2,40,0,0
96816,-100,4,2,2,50,0,1
134463,-100,4,2,2,30,0,0
134610,-100,4,2,2,5,0,0

[Colours]
Combo1 : 17,254,176
Combo2 : 173,255,95
Combo3 : 255,88,100
Combo4 : 255,94,55

[HitObjects]
68,140,346,2,2,P|126:96|196:105,1,140,2|0,0:0|0:0,0:0:0:0:
180,248,1228,2,0,P|160:216|148:180,1,70,2|0,0:0|0:0,0:0:0:0:
276,92,1816,2,0,L|296:60,5,35,2|0|2|0|2|0,0:0|0:0|0:0|0:0|0:0|0:0,0:0:0:0:
336,32,2698,6,2,P|404:48|452:104,1,140,2|0,0:0|0:0,0:0:0:0:
424,248,3581,2,2,P|424:208|436:172,2,70,2|0|2,0:0|0:0|0:0,0:0:0:0:
360,304,4463,2,2,L|292:316,1,70,0|2,0:0|0:0,0:0:0:0:
220,272,5051,6,2,P|164:232|92:240,1,140,2|0,0:0|0:0,0:0:0:0:
48,88,5934,2,0,P|64:124|68:160,1,70,2|0,0:0|0:0,0:0:0:0:
56,312,6522,2,0,L|40:352,5,35,2|0|2|0|2|0,0:0|0:0|0:0|0:0|0:0|0:0,0:0:0:0:
84,348,7404,6,2,P|120:348|156:340,1,70,2|0,0:0|0:0,0:0:0:0:
180,316,7845,1,0,0:0:0:0:
220,308,7993,1,0,0:0:0:0:
260,316,8140,1,0,0:0:0:0:
292,328,8287,2,2,P|416:336|464:208,1,280,2|0,0:0|0:0,0:0:0:0:
424,136,9757,6,0,L|388:72,1,70,0|8,1:0|0:0,0:0:0:0:
316,36,10345,1,8,0:0:0:0:
316,36,10640,1,8,0:0:0:0:
268,104,10934,2,0,P|224:116|188:116,1,70,8|8,0:0|0:0,0:0:0:0:
92,48,11522,2,0,P|136:36|172:36,1,70,8|8,0:0|0:0,0:0:0:0:
148,176,12110,6,0,L|132:244,1,70,10|8,0:0|0:0,0:0:0:0:
172,320,12698,1,8,0:0:0:0:
172,320,12993,1,8,0:0:0:0:
268,296,13287,2,0,P|284:264|288:220,1,70,8|8,0:0|0:0,0:0:0:0:
264,88,13875,2,0,P|248:120|244:164,1,70,10|8,0:0|0:0,0:0:0:0:
180,228,14463,6,0,L|108:236,1,70,0|8,1:0|0:0,0:0:0:0:
48,176,15051,1,8,0:0:0:0:
48,176,15345,1,8,0:0:0:0:
80,84,15640,2,0,P|112:64|156:52,1,70,8|8,0:0|0:0,0:0:0:0:
256,104,16228,2,0,P|224:124|180:136,1,70,8|8,0:0|0:0,0:0:0:0:
180,228,16816,5,10,0:0:0:0:
180,228,17110,1,8,0:0:0:0:
256,300,17404,1,8,0:0:0:0:
256,300,17698,1,8,0:0:0:0:
256,192,17993,12,2,19169,2:0:0:0:
112,76,19757,6,0,P|136:108|152:136,1,70,0|0,1:0|0:0,0:0:0:0:
140,224,20345,2,0,L|112:256,2,35,0|0|0,1:0|0:0|0:0,0:0:0:0:
228,252,20934,2,0,P|268:256|304:256,1,70,0|0,1:0|0:0,0:0:0:0:
424,192,21522,6,0,P|384:188|348:188,1,70,0|0,1:0|0:0,0:0:0:0:
300,116,22110,2,0,L|328:84,2,35,0|0|0,1:0|0:0|0:0,0:0:0:0:
212,88,22698,1,0,1:0:0:0:
212,88,22993,1,0,0:0:0:0:
124,116,23287,1,0,1:0:0:0:
124,116,23581,1,0,0:0:0:0:
68,196,23875,6,0,P|120:224|148:296,1,140,2|0,0:0|1:0,0:0:0:0:
228,344,24757,2,0,L|300:336,1,70,0|0,0:0|1:0,0:0:0:0:
300,244,25345,2,0,L|372:236,1,70,0|0,0:0|1:0,0:0:0:0:
432,172,25934,1,0,0:0:0:0:
404,84,26228,5,0,1:0:0:0:
404,84,26816,1,0,1:0:0:0:
234,49,27404,2,0,P|198:41|162:45,1,70,0|0,1:0|0:0,0:0:0:0:
64,120,27993,2,0,P|100:128|136:124,1,70,0|0,1:0|0:0,0:0:0:0:
200,204,28581,6,0,L|212:272,2,70,0|0|0,1:0|0:0|1:0,0:0:0:0:
116,236,29463,2,0,L|108:312,2,70,0|0|0,0:0|1:0|0:0,0:0:0:0:
52,168,30345,1,0,1:0:0:0:
188,44,30934,6,0,P|228:40|264:44,1,70,0|0,1:0|0:0,0:0:0:0:
328,104,31522,2,0,P|368:108|408:104,1,70,0|0,1:0|0:0,0:0:0:0:
480,64,32110,1,0,1:0:0:0:
480,64,32404,1,0,0:0:0:0:
468,168,32698,1,0,1:0:0:0:
468,168,32993,1,0,0:0:0:0:
392,240,33287,6,0,P|328:268|300:328,1,140,0|0,1:0|1:0,0:0:0:0:
208,340,34169,2,0,P|164:332|132:332,2,70,0|0|0,0:0|1:0|0:0,0:0:0:0:
240,256,35051,1,0,1:0:0:0:
184,184,35345,2,0,L|188:152,4,17.5,2|0|0|0|0,0:0|0:0|0:0|0:0|1:0,0:0:0:0:
92,236,35934,5,0,0:0:0:0:
36,156,36228,2,2,P|44:120|60:92,1,70,8|0,0:0|1:0,0:0:0:0:
172,40,36816,2,2,L|160:72,1,35
160,116,37110,2,2,P|164:152|160:192,1,70,0|0,1:0|0:0,0:0:0:0:
132,216,37551,2,0,P|92:252|80:304,1,105,0|4,0:0|0:0,0:0:0:0:
208,344,38434,5,0,0:0:0:0:
244,320,38581,2,0,L|316:308,1,70,8|0,0:0|0:0,0:0:0:0:
408,284,39169,2,0,P|408:248|400:216,1,70,0|0,1:0|0:0,0:0:0:0:
332,156,39757,1,8,0:0:0:0:
320,64,40051,1,0,0:0:0:0:
232,92,40345,6,0,P|180:108|128:104,1,105,0|0,1:0|0:0,0:0:0:0:
92,84,40934,2,0,L|32:40,2,70,8|0|0,0:0|0:0|1:0,0:0:0:0:
104,176,41816,2,0,P|104:216|96:248,1,70,0|8,0:0|0:0,0:0:0:0:
136,328,42404,1,0,0:0:0:0:
220,296,42698,6,0,P|268:288|324:296,1,105,0|0,1:0|0:0,0:0:0:0:
364,304,43287,2,0,L|400:328,2,35,8|0|0,0:0|0:0|0:0,0:0:0:0:
432,244,43875,2,0,P|448:212|460:176,1,70,0|0,1:0|0:0,0:0:0:0:
440,92,44463,1,8,0:0:0:0:
352,72,44757,1,0,0:0:0:0:
300,148,45051,6,0,P|228:152|168:184,1,140,0|8,1:0|0:0,0:0:0:0:
80,168,45934,1,0,0:0:0:0:
140,100,46228,2,0,P|148:64|152:28,2,70,0|0|8,1:0|0:0|0:0,0:0:0:0:
80,168,47110,6,0,L|74:204,2,35,8|0|0,1:2|0:0|1:0,0:0:0:0:
144,340,47993,2,0,P|180:336|224:316,1,70,8|0,0:0|0:0,0:0:0:0:
236,240,48581,2,0,P|304:220|364:248,1,140,0|8,1:0|0:0,0:0:0:0:
448,288,49463,1,0,0:0:0:0:
468,200,49757,6,0,P|436:148|440:72,1,140,0|8,1:0|0:0,0:0:0:0:
360,40,50640,1,0,0:0:0:0:
288,92,50934,2,0,P|256:112|220:120,1,70,0|0,1:0|0:0,0:0:0:0:
92,100,51522,2,0,P|120:76|156:68,1,70,8|0,0:0|0:0,0:0:0:0:
180,188,52110,6,0,P|192:252|148:312,1,140,0|8,1:0|0:0,0:0:0:0:
60,308,52993,1,0,0:0:0:0:
48,292,53140,1,0,0:0:0:0:
40,272,53287,2,0,L|32:236,4,35,0|0|0|0|8,1:0|0:0|0:0|0:0|0:0,0:0:0:0:
104,184,54169,1,0,0:0:0:0:
76,88,54463,6,0,P|108:76|144:72,1,70,0|0,1:0|0:0,0:0:0:0:
216,128,55051,2,0,P|252:136|296:132,1,70,8|0,0:0|0:0,0:0:0:0:
368,64,55640,6,8,L|400:80,3,35,8|8|0|0,0:0|0:0|0:0|1:0,0:0:0:0:
400,124,56228,2,8,L|420:152,3,35,8|8|0|0,0:0|0:0|1:0|0:0,0:0:0:0:
432,196,56816,6,0,P|440:264|412:328,1,140,4|8,0:0|0:0,0:0:0:0:
324,312,57698,1,0,0:0:0:0:
240,344,57993,2,0,P|208:356|168:360,1,70,0|0,1:0|0:0,0:0:0:0:
48,316,58581,2,0,P|80:304|120:300,1,70,8|0,0:0|0:0,0:0:0:0:
180,216,59169,6,0,L|212:148,1,70,0|0,1:0|0:0,0:0:0:0:
92,172,59757,2,0,L|108:104,1,70,8|0,0:0|0:0,0:0:0:0:
44,44,60345,2,0,P|108:68|172:40,1,140,0|8,1:0|0:0,0:0:0:0:
256,92,61228,6,0,L|292:108,2,35,0|0|0,0:0|0:0|1:0,0:0:0:0:
224,176,61816,1,0,0:0:0:0:
268,256,62110,2,0,P|304:256|336:264,1,70,8|0,0:0|0:0,0:0:0:0:
456,340,62698,2,0,P|420:340|388:332,1,70,0|0,1:0|0:0,0:0:0:0:
432,252,63287,1,8,0:0:0:0:
460,164,63581,1,0,0:0:0:0:
404,88,63875,6,0,L|336:60,1,70,0|0,1:0|0:0,0:0:0:0:
268,116,64463,2,0,L|196:104,1,70,8|0,0:0|0:0,0:0:0:0:
148,180,65051,2,0,L|72:188,2,70,0|0|8,1:0|0:0|0:0,0:0:0:0:
232,232,65934,1,0,0:0:0:0:
264,324,66228,6,0,L|300:344,2,35,0|0|0,1:0|0:0|0:0,0:0:0:0:
324,248,66816,2,0,P|336:216|332:176,1,70,8|0,0:0|0:0,0:0:0:0:
296,84,67404,2,0,L|312:48,2,35,0|0|0,1:0|0:0|0:0,0:0:0:0:
204,116,67993,2,0,P|168:112|132:96,1,70,8|0,0:0|0:0,0:0:0:0:
64,32,68581,6,0,P|39:94|62:164,1,140,0|8,1:0|0:0,0:0:0:0:
124,228,69463,1,0,0:0:0:0:
60,292,69757,2,0,P|92:320|112:344,1,70,0|0,1:0|0:0,0:0:0:0:
124,228,70345,2,0,P|160:236|196:252,1,70,8|0,0:0|0:0,0:0:0:0:
260,308,70934,6,0,P|304:324|364:316,1,105,0|0,1:0|0:0,0:0:0:0:
392,288,71522,2,0,L|448:244,1,70,8|0,0:0|0:0,0:0:0:0:
440,148,72110,2,0,P|408:112|396:56,1,105,0|0,1:0|0:0,0:0:0:0:
360,32,72698,2,0,L|288:24,1,70,8|0,0:0|0:0,0:0:0:0:
196,52,73287,6,0,L|152:64,3,35,0|0|0|0,1:0|0:0|0:0|0:0,0:0:0:0:
152,100,73875,2,0,L|124:128,3,35,8|0|0|0,0:0|0:0|0:0|0:0,0:0:0:0:
128,168,74463,2,0,L|120:208,3,35,0|0|0|0,1:0|0:0|0:0|0:0,0:0:0:0:
144,240,75051,2,0,L|148:280,3,35,8|0|0|0,0:0|0:0|0:0|0:0,0:0:0:0:
147,274,75640,5,4,0:0:0:0:
228,304,75934,2,0,P|292:320|364:304,1,140,0|0,1:0|1:0,0:0:0:0:
428,232,76816,1,0,1:0:0:0:
428,232,77257,2,0,L|412:192,1,35,0|8,1:0|0:0,0:0:0:0:
408,100,77698,6,0,L|416:64,2,35,0|0|0,0:0|0:0|1:0,0:0:0:0:
304,108,78287,1,0,1:0:0:0:
216,52,78581,1,8,0:0:0:0:
112,72,78875,1,0,1:0:0:0:
72,184,79169,2,0,L|40:172,2,35,0|0|0,1:0|1:0|1:0,0:0:0:0:
136,296,79757,2,0,P|160:268|172:232,1,70,8|0,0:0|0:0,0:0:0:0:
168,148,80345,6,0,P|204:204|272:204,1,140,0|8,1:0|0:0,0:0:0:0:
356,152,81228,2,0,L|376:116,2,35,0|0|0,1:0|0:0|1:0,0:0:0:0:
424,232,81816,1,0,0:0:0:0:
384,328,82110,1,8,0:0:0:0:
280,332,82404,1,0,0:0:0:0:
212,252,82698,6,0,P|176:236|136:232,1,70,0|0,1:0|1:0,0:0:0:0:
40,152,83287,2,0,P|72:128|104:72,1,105,8|0,0:0|0:0,0:0:0:0:
136,44,83875,2,0,L|216:32,1,70,0|0,1:0|1:0,0:0:0:0:
276,112,84463,2,0,L|344:128,1,70,8|0,0:0|0:0,0:0:0:0:
444,192,85051,6,0,P|424:232|416:264,1,70,4|0,0:0|1:0,0:0:0:0:
320,336,85640,2,0,P|264:320|208:320,1,105,8|0,0:0|0:0,0:0:0:0:
176,336,86228,2,0,L|112:304,1,70,0|0,1:0|0:0,0:0:0:0:
80,184,86816,2,0,L|144:216,1,70,8|0,0:0|0:0,0:0:0:0:
240,212,87404,6,0,L|276:200,2,35,0|0|0,1:0|0:0|1:0,0:0:0:0:
192,104,87993,2,0,L|216:68,2,35,8|0|0,0:0|0:0|1:0,0:0:0:0:
76,80,88581,2,0,P|64:48|40:16,2,70,0|0|8,1:0|1:0|0:0,0:0:0:0:
144,168,89463,1,0,0:0:0:0:
76,256,89757,6,0,P|108:316|176:328,1,140,0|8,1:0|0:0,0:0:0:0:
268,284,90640,2,0,L|280:240,2,35,0|0|0,1:0|0:0|1:0,0:0:0:0:
364,324,91228,1,0,0:0:0:0:
448,264,91522,1,8,0:0:0:0:
448,160,91816,1,0,1:0:0:0:
380,80,92110,6,0,P|340:88|304:88,1,70,0|0,1:0|1:0,0:0:0:0:
192,56,92698,2,0,P|160:60|120:80,1,70,8|0,0:0|1:0,0:0:0:0:
100,112,93140,2,0,L|88:148,3,35,0|0|0|0,0:0|1:0|1:0|1:0,0:0:0:0:
120,260,93875,1,8,0:0:0:0:
256,192,94463,5,2,0:0:0:0:
256,192,94757,12,8,96228,0:0:0:0:
344,248,96816,6,0,P|380:196|368:124,1,140,4|8,0:0|0:0,0:0:0:0:
296,48,97698,1,0,0:0:0:0:
276,52,97845,1,0,0:0:0:0:
256,56,97993,2,0,P|220:52|184:56,2,70,0|0|8,1:0|0:0|0:0,0:0:0:0:
268,164,98875,6,0,P|240:184|216:216,1,70,0|0,0:0|1:0,0:0:0:0:
204,344,99463,2,0,P|192:312|172:280,1,70,0|8,0:0|0:0,0:0:0:0:
96,232,100051,2,0,L|68:192,1,35
48,172,100345,2,0,L|60:100,1,70,0|0,1:0|0:0,0:0:0:0:
144,52,100934,1,8,0:0:0:0:
228,100,101228,1,0,0:0:0:0:
308,44,101522,6,0,P|376:44|440:76,1,140,0|8,1:0|0:0,0:0:0:0:
472,168,102404,1,0,0:0:0:0:
460,184,102551,1,0,0:0:0:0:
448,200,102698,2,0,P|444:240|452:276,2,70,0|0|8,1:0|0:0|0:0,0:0:0:0:
344,208,103581,6,0,L|316:232,2,35,0|0|0,0:0|0:0|1:0,0:0:0:0:
292,124,104169,1,0,0:0:0:0:
212,68,104463,2,0,P|172:64|128:76,1,70,8|0,0:0|0:0,0:0:0:0:
100,92,104904,2,0,L|68:112,1,35,0|0,0:0|1:0,0:0:0:0:
112,212,105345,1,0,0:0:0:0:
156,324,105640,1,8,0:0:0:0:
276,320,105934,1,0,0:0:0:0:
292,196,106228,6,0,B|284:172|284:148|304:128|312:100|308:84|296:56,1,140,4|8,0:0|0:0,0:0:0:0:
196,44,107110,1,0,0:0:0:0:
176,48,107257,1,0,0:0:0:0:
156,56,107404,2,0,P|112:108|120:176,1,140,0|8,1:0|0:0,0:0:0:0:
256,340,108581,6,0,P|276:308|280:272,1,70,0|0,1:0|0:0,0:0:0:0:
264,136,109169,2,0,P|244:168|240:204,1,70,8|0,0:0|0:0,0:0:0:0:
336,204,109757,1,0,1:0:0:0:
416,284,110051,1,0,0:0:0:0:
484,192,110345,1,8,0:0:0:0:
404,112,110640,1,0,0:0:0:0:
328,48,110934,6,0,P|260:32|192:44,1,140,0|8,1:0|0:0,0:0:0:0:
132,116,111816,1,0,0:0:0:0:
56,184,112110,2,0,P|116:216|196:196,1,140,0|8,1:0|0:0,0:0:0:0:
272,148,112993,1,0,0:0:0:0:
372,124,113287,6,0,L|432:164,1,70,0|0,1:0|0:0,0:0:0:0:
376,248,113875,2,0,L|412:312,1,70,8|0,0:0|0:0,0:0:0:0:
316,340,114463,2,0,P|264:336|208:352,1,105,0|0,1:0|0:0,0:0:0:0:
164,344,115051,1,8,0:0:0:0:
72,292,115345,1,0,0:0:0:0:
160,236,115640,6,0,P|100:188|32:192,1,140,4|8,0:0|0:0,0:0:0:0:
44,92,116522,1,0,0:0:0:0:
60,80,116669,1,0,0:0:0:0:
76,72,116816,2,0,L|60:4,2,70,0|0|8,1:0|0:0|0:0,0:0:0:0:
164,180,117698,6,0,L|136:204,2,35,0|0|0,0:0|0:0|1:0,0:0:0:0:
244,108,118287,2,0,L|244:72,2,35,0|0|8,0:0|0:0|0:0,0:0:0:0:
328,184,118875,1,0,0:0:0:0:
312,280,119169,2,0,P|352:328|428:332,1,140,0|8,1:0|0:0,0:0:0:0:
468,244,120051,1,0,0:0:0:0:
432,156,120345,6,0,P|428:88|380:32,1,140,0|8,1:0|0:0,0:0:0:0:
288,56,121228,1,0,0:0:0:0:
268,60,121375,1,0,0:0:0:0:
248,60,121522,2,0,P|212:52|176:52,2,70,0|0|8,1:0|0:0|0:0,0:0:0:0:
296,148,122404,2,0,L|264:184,1,35
236,200,122698,2,0,P|168:216|104:192,1,140,0|8,1:0|0:0,0:0:0:0:
68,72,123581,6,0,L|40:40,2,35,0|0|0,0:0|0:0|1:0,0:0:0:0:
176,124,124169,1,0,0:0:0:0:
308,100,124463,1,8,0:0:0:0:
256,220,124757,1,0,0:0:0:0:
192,320,125051,6,0,P|256:344|320:320,1,140,4|8,0:0|0:0,0:0:0:0:
408,264,125934,2,0,L|428:228,1,35
424,188,126228,2,0,P|412:124|420:48,1,140,0|8,1:0|0:0,0:0:0:0:
420,50,127404,1,0,1:0:0:0:
316,92,127698,6,0,P|283:107|244:112,1,70,0|8,0:0|0:0,0:0:0:0:
168,44,128287,2,0,P|132:44|96:52,1,70,0|0,0:0|1:0,0:0:0:0:
44,188,128875,2,0,P|76:188|116:180,1,70,0|8,0:0|0:0,0:0:0:0:
212,236,129463,1,0,0:0:0:0:
292,156,129757,6,0,P|320:220|312:288,1,140,0|8,1:0|0:0,0:0:0:0:
212,340,130640,1,0,0:0:0:0:
104,312,130934,2,0,B|68:256|80:192|140:164|148:104|112:48,1,280,0|0,1:0|1:0,0:0:0:0:
36,112,132404,6,0,L|8:140,2,35,0|0|8,0:0|0:0|0:0,0:0:0:0:
144,140,132993,2,0,L|168:168,1,35
208,188,133287,6,0,L|248:180,3,35,0|0|0|0,1:0|0:0|0:0|0:0,0:0:0:0:
284,200,133875,2,0,L|328:204,3,35,8|0|0|0,0:0|0:0|0:0|0:0,0:0:0:0:
356,228,134463,5,2,0:0:0:0:
256,192,134610,12,2,136669,0:0:0:0:
