osu file format v14

[General]
AudioFilename: sq192ver.mp3
AudioLeadIn: 0
PreviewTime: 84045
Countdown: 0
SampleSet: Soft
StackLeniency: 0.7
Mode: 0
LetterboxInBreaks: 1
WidescreenStoryboard: 1

[Editor]
Bookmarks: 11098,12361,22466,32571,52782,62887,72993,74256,84361,94466,114677
DistanceSpacing: 1.2
BeatDivisor: 4
GridSize: 4
TimelineZoom: 1.4

[Metadata]
Title:squall
TitleUnicode:squall
Artist:Nekomata Master+
ArtistUnicode:Nekomata Master+
Creator:Fizz
Version:Hyper
Source:jubeat saucer
Tags:Naoyuki Sato bemani konami nerodae mira-san [-mrsergio-]
BeatmapID:705465
BeatmapSetID:316611

[Difficulty]
HPDrainRate:6
CircleSize:4
OverallDifficulty:6.5
ApproachRate:8.2
SliderMultiplier:1.4
SliderTickRate:1

[Events]
//Background and Video events
0,0,"bg.png",0,0
//Break Periods
//Storyboard Layer 0 (Background)
//Storyboard Layer 1 (Fail)
//Storyboard Layer 2 (Pass)
//Storyboard Layer 3 (Foreground)
//Storyboard Sound Samples

[TimingPoints]
993,315.789473684211,4,2,1,50,1,0
993,-133.333333333333,4,2,1,50,0,0
6045,-133.333333333333,4,3,1,50,0,0
11098,-166.666666666667,4,2,1,50,0,0
12361,-133.333333333333,4,2,1,50,0,0
21203,-133.333333333333,4,2,2,50,0,0
22466,-100,4,2,2,90,0,0
47887,-100,4,3,1,70,0,0
48361,-100,4,2,2,90,0,0
52782,-111.111111111111,4,2,2,90,0,0
62887,-133.333333333333,4,2,2,80,0,0
74256,-166.666666666667,4,2,2,50,0,0
84361,-100,4,2,2,90,0,1
104571,-166.666666666667,4,3,1,50,0,0
106782,-166.666666666667,4,2,2,50,0,0
107098,-166.666666666667,4,3,1,50,0,0
109624,-166.666666666667,4,2,2,65,0,0

[Colours]
Combo1 : 97,97,97
Combo2 : 9,186,196
Combo3 : 192,192,192
Combo4 : 0,84,168

[HitObjects]
200,224,993,6,0,L|128:228,1,52.5000020027161,2|0,0:0|0:0,0:0:0:0:
84,180,1308,1,2,0:0:0:0:
180,56,1624,1,2,0:0:0:0:
288,172,1940,1,2,0:0:0:0:
432,104,2256,6,0,L|436:172,1,52.5000020027161,2|0,0:0|0:0,0:0:0:0:
444,236,2571,1,2,0:0:0:0:
344,360,2887,1,2,0:0:0:0:
200,292,3203,6,0,L|176:296,8,13.125000500679
284,160,3835,5,2,0:0:0:0:
128,176,4150,1,2,0:0:0:0:
40,308,4466,1,2,0:0:0:0:
4,156,4782,6,0,L|0:96,1,52.5000020027161,2|0,0:0|0:0,0:0:0:0:
56,48,5098,1,2,0:0:0:0:
200,108,5414,2,0,P|236:112|296:104,1,78.7500030040742,2|0,0:0|0:0,0:0:0:0:
316,124,5729,2,0,L|320:200,1,52.5000020027161,2|2,0:0|0:0,0:0:0:0:
264,232,6045,6,0,L|192:240,2,70.0000026702882
336,308,6677,2,0,L|405:315,2,70.0000026702882
372,208,7308,2,0,P|376:172|376:120,2,70.0000026702882
268,220,7940,2,0,L|172:212,2,70.0000026702882
464,148,8782,6,0,L|460:68,1,70.0000026702882
360,44,9203,2,0,P|316:44|276:48,2,70.0000026702882
360,148,9835,6,0,P|356:208|360:248,1,70.0000026702882
416,304,10256,1,0,0:0:0:0:
312,308,10466,2,0,P|272:308|224:316,1,70.0000026702882
192,332,10782,2,0,L|128:328,2,35.0000013351441
200,244,11098,6,0,L|192:176,1,55.9999982910157
148,120,11519,2,0,L|152:80,2,27.9999991455078
248,124,11940,2,0,L|320:128,1,55.9999982910157
376,176,12361,6,0,P|380:224|380:284,1,105.000004005432,4|0,1:2|0:0,0:0:0:0:
320,332,12835,2,0,L|216:328,1,105.000004005432,0|0,0:0|0:0,0:0:0:0:
156,280,13308,2,0,L|52:284,2,105.000004005432,0|0|2,0:0|0:0|0:0,0:0:0:0:
224,136,14256,2,0,L|296:132,1,52.5000020027161,0|2,0:0|0:0,0:0:0:0:
344,92,14571,1,0,0:0:0:0:
416,128,14729,1,0,0:0:0:0:
440,204,14887,6,0,L|444:320,1,105.000004005432,0|0,1:0|0:0,0:0:0:0:
368,332,15361,2,0,P|320:328|264:292,1,105.000004005432,2|0,0:0|0:0,0:0:0:0:
224,236,15835,2,0,B|220:184|220:184|232:124,2,105.000004005432,2|0|0,0:0|0:0|0:0,0:0:0:0:
68,256,16782,1,0,0:0:0:0:
60,176,16940,1,2,0:0:0:0:
60,176,17019,1,0,0:0:0:0:
60,176,17098,2,0,L|64:112,1,52.5000020027161
168,64,17414,6,0,P|208:56|288:72,1,105.000004005432,4|0,1:2|0:0,0:0:0:0:
332,112,17887,2,0,P|383:121|435:112,1,105.000004005432,2|0,0:0|0:0,0:0:0:0:
488,172,18361,2,0,L|492:276,2,105.000004005432,2|0|0,0:0|0:0|0:0,0:0:0:0:
332,200,19308,2,0,L|264:196,1,52.5000020027161,0|2,0:0|0:0,0:0:0:0:
204,228,19624,1,0,0:0:0:0:
232,304,19782,1,0,0:0:0:0:
172,356,19940,6,0,P|132:368|68:356,1,105.000004005432,0|0,1:0|0:0,0:0:0:0:
20,252,20414,2,0,L|24:140,1,105.000004005432,0|0,1:0|0:0,0:0:0:0:
92,52,20887,1,0,1:0:0:0:
204,164,21203,5,8,0:0:0:0:
300,120,21414,2,0,L|376:116,2,70.0000026702882,0|0|0,1:0|1:0|1:0,1:0:0:0:
100,316,22466,6,0,B|140:312|140:312|184:320|184:320|240:316,1,140,6|8,0:0|0:0,0:0:0:0:
316,348,22940,1,0,0:0:0:0:
316,348,23098,2,0,L|388:352,1,70,0|2,0:0|0:0,0:0:0:0:
324,224,23414,2,0,L|254:227,1,70,8|0,0:0|0:0,0:0:0:0:
172,244,23729,6,0,P|164:204|180:84,1,140,2|8,0:0|0:0,0:0:0:0:
120,40,24203,1,0,0:0:0:0:
252,76,24361,2,0,P|288:84|348:72,1,70,0|2,0:0|0:0,0:0:0:0:
240,156,24677,2,0,P|271:174|332:181,1,70,8|0,0:0|0:0,0:0:0:0:
364,244,24993,6,0,L|504:236,2,140,2|8|0,0:0|0:0|0:0,0:0:0:0:
304,328,25782,1,2,0:0:0:0:
208,288,25940,2,0,L|132:292,1,70,8|0,0:0|0:0,0:0:0:0:
40,212,26256,6,0,L|194:204,1,140,2|8,0:0|0:0,0:0:0:0:
280,252,26729,1,0,0:0:0:0:
356,176,26887,2,0,P|360:139|356:100,1,70,0|2,0:0|0:0,0:0:0:0:
357,106,27124,1,0,0:0:0:0:
357,106,27203,1,8,0:0:0:0:
264,52,27361,1,0,0:0:0:0:
172,108,27519,6,0,P|164:152|168:260,1,140,6|8,0:0|0:0,0:0:0:0:
184,328,27993,1,0,0:0:0:0:
264,348,28150,2,0,L|340:344,1,70,0|2,0:0|0:0,0:0:0:0:
404,296,28466,2,0,P|408:248|408:220,1,70,8|0,0:0|0:0,0:0:0:0:
472,172,28782,6,0,L|316:184,1,140,2|8,0:0|0:0,0:0:0:0:
268,128,29256,1,0,0:0:0:0:
268,264,29414,2,0,L|272:336,1,70,0|2,0:0|0:0,0:0:0:0:
160,336,29729,2,0,L|156:266,1,70,8|0,0:0|0:0,0:0:0:0:
120,188,30045,5,2,0:0:0:0:
136,72,30203,1,0,0:0:0:0:
233,135,30361,2,0,L|269:127,2,35,8|0|0,0:0|0:0|0:0,0:0:0:0:
336,192,30677,2,0,P|376:184|416:180,1,70,0|2,0:0|0:0,0:0:0:0:
480,272,30993,2,0,P|440:280|400:284,1,70,8|0,0:0|0:0,0:0:0:0:
340,328,31308,6,0,P|292:344|192:324,1,140,2|8,0:0|0:0,0:0:0:0:
116,276,31782,1,8,0:0:0:0:
76,180,31940,2,0,L|80:140,3,35,0|0|8|0,0:0|0:0|0:0|0:0,0:0:0:0:
100,108,32256,2,0,L|96:68,3,35,0|0|2|0,0:0|0:0|0:0|0:0,0:0:0:0:
120,40,32571,6,0,P|160:36|248:60,1,105,6|0,0:0|0:0,0:0:0:0:
240,88,32887,2,0,L|236:164,1,70,8|0,0:0|0:0,0:0:0:0:
292,220,33203,2,0,L|376:216,1,70,0|2,0:0|0:0,0:0:0:0:
436,168,33519,2,0,P|440:124|436:92,1,70,8|0,0:0|0:0,0:0:0:0:
344,48,33835,6,0,P|300:60|216:44,1,105,2|0,0:0|0:0,0:0:0:0:
200,63,34150,2,0,P|193:98|191:133,1,70,8|0,0:0|0:0,0:0:0:0:
232,212,34466,2,0,P|200:219|146:212,1,70,0|2,0:0|0:0,0:0:0:0:
76,228,34782,2,0,L|80:308,1,70,8|0,0:0|0:0,0:0:0:0:
96,316,35019,1,0,0:0:0:0:
116,328,35098,6,0,L|236:320,1,105,2|0,0:0|0:0,0:0:0:0:
260,304,35414,2,0,L|360:308,1,70,8|0,0:0|0:0,0:0:0:0:
444,340,35729,2,0,P|448:296|444:252,1,70,0|2,0:0|0:0,0:0:0:0:
388,208,36045,2,0,L|396:120,1,70,8|0,0:0|0:0,0:0:0:0:
432,64,36361,6,0,P|384:84|328:72,1,105,2|0,0:0|0:0,0:0:0:0:
292,88,36677,2,0,P|280:132|280:176,1,70,8|0,0:0|0:0,0:0:0:0:
216,236,36993,2,0,L|220:288,2,35,0|0|2,0:0|0:0|0:0,0:0:0:0:
136,176,37308,1,8,0:0:0:0:
56,240,37466,1,2,0:0:0:0:
56,240,37545,1,2,0:0:0:0:
56,240,37624,6,0,L|64:344,1,105,6|0,0:0|0:0,0:0:0:0:
100,368,37940,2,0,L|188:360,1,70,8|0,0:0|0:0,0:0:0:0:
272,312,38256,2,0,L|360:320,1,70,0|2,0:0|0:0,0:0:0:0:
448,352,38571,1,8,0:0:0:0:
492,248,38729,1,0,0:0:0:0:
392,196,38887,6,0,L|258:185,1,105,2|0,0:0|0:0,0:0:0:0:
248,172,39203,2,0,P|248:124|252:88,1,70,8|0,0:0|0:0,0:0:0:0:
164,56,39519,2,0,P|120:72|76:68,1,70,0|2,0:0|0:0,0:0:0:0:
48,156,39835,2,0,P|48:204|44:240,1,70,8|0,0:0|0:0,0:0:0:0:
88,312,40150,6,0,L|216:308,1,105,2|0,0:0|0:0,0:0:0:0:
228,284,40466,2,0,P|232:232|228:204,1,70,8|0,0:0|0:0,0:0:0:0:
292,160,40782,2,0,L|384:164,1,70,0|2,0:0|0:0,0:0:0:0:
440,132,41098,1,8,0:0:0:0:
488,200,41256,1,0,0:0:0:0:
436,264,41414,5,2,0:0:0:0:
340,332,41571,2,0,L|292:336,2,35,0|0|8,0:0|0:0|0:0,0:0:0:0:
344,212,41887,1,0,0:0:0:0:
240,264,42045,1,0,0:0:0:0:
240,264,42124,1,0,0:0:0:0:
240,264,42203,1,2,0:0:0:0:
144,196,42361,2,0,L|152:152,3,35,8|0|0|0,0:0|0:0|0:0|0:0,0:0:0:0:
148,120,42677,6,0,L|24:124,1,105,6|0,0:0|0:0,0:0:0:0:
24,160,42993,2,0,P|20:204|24:236,1,70,8|0,0:0|0:0,0:0:0:0:
80,312,43308,2,0,L|149:309,1,70,0|2,0:0|0:0,0:0:0:0:
240,264,43624,2,0,P|244:220|240:188,1,70,8|0,0:0|0:0,0:0:0:0:
292,124,43940,6,0,P|332:148|408:128,1,105,2|0,0:0|0:0,0:0:0:0:
428,128,44256,2,0,L|432:56,1,70,8|0,0:0|0:0,0:0:0:0:
312,48,44571,2,0,P|268:52|228:80,1,70,0|2,0:0|0:0,0:0:0:0:
140,128,44887,2,0,L|60:120,1,70,8|0,0:0|0:0,0:0:0:0:
40,44,45203,6,0,L|32:164,1,105,2|0,0:0|0:0,0:0:0:0:
44,188,45519,2,0,P|48:236|48:268,1,70,8|0,0:0|0:0,0:0:0:0:
104,328,45835,2,0,P|144:340|180:328,1,70,0|2,0:0|0:0,0:0:0:0:
240,280,46150,1,8,0:0:0:0:
224,192,46308,1,0,0:0:0:0:
288,132,46466,6,0,L|412:136,1,105,2|0,0:0|0:0,0:0:0:0:
428,160,46782,2,0,P|432:208|428:232,1,70,8|0,0:0|0:0,0:0:0:0:
364,284,47098,2,0,L|304:280,2,46.6666666666667,0|2|2,0:0|0:0|0:0,0:0:0:0:
312,360,47414,2,0,L|252:356,2,46.6666666666667,8|8|8,0:0|0:0|0:0,0:0:0:0:
364,376,47729,5,0,0:0:0:0:
460,312,47887,2,0,L|488:316,8,17.5
380,228,48361,2,2,L|340:224,2,35
476,164,48677,2,0,L|472:64,1,70,12|0,0:0|0:0,0:0:0:0:
404,48,48993,6,0,P|368:68|284:52,1,105,2|0,0:0|0:0,0:0:0:0:
268,80,49308,2,0,P|260:128|264:164,1,70,8|0,0:0|0:0,0:0:0:0:
180,200,49624,2,0,L|88:196,1,70,0|2,0:0|0:0,0:0:0:0:
48,272,49940,2,0,L|117:275,1,70,8|0,0:0|0:0,0:0:0:0:
188,320,50256,6,0,L|344:312,1,140,2|8,0:0|0:0,0:0:0:0:
416,256,50729,2,0,P|420:196|416:104,1,140,0|2,0:0|0:0,0:0:0:0:
332,52,51203,2,0,L|256:56,1,70,8|0,0:0|0:0,0:0:0:0:
168,108,51519,6,0,L|172:148,3,35,2|0|0|0,0:0|0:0|0:0|0:0,0:0:0:0:
148,176,51835,2,0,L|144:210,3,35,8|0|0|0,0:0|0:0|0:0|0:0,0:0:0:0:
172,244,52150,2,0,P|208:268|295:238,1,140,0|8,0:0|0:0,0:0:0:0:
224,68,52782,6,0,L|232:204,1,125.999996154785,6|8,0:0|0:0,0:0:0:0:
243,342,53256,2,0,P|312:322|359:271,1,125.999996154785,6|0,0:0|0:0,0:0:0:0:
336,176,53729,1,8,0:0:0:0:
196,124,54045,6,0,P|144:128|104:120,1,62.9999980773926,2|0,0:0|0:0,0:0:0:0:
72,184,54361,2,0,P|68:232|76:320,2,125.999996154785,8|0|8,0:0|0:0|0:0,0:0:0:0:
176,240,55150,1,2,0:0:0:0:
284,192,55308,6,0,B|340:188|340:188|348:192|348:192|428:188,1,125.999996154785,2|8,0:0|0:0,0:0:0:0:
448,116,55782,2,0,P|480:152|468:248,1,125.999996154785,2|0,0:0|0:0,0:0:0:0:
424,288,56256,1,8,0:0:0:0:
280,328,56571,6,0,L|188:332,1,62.9999980773926,2|0,0:0|0:0,0:0:0:0:
136,288,56887,2,0,P|132:248|136:200,1,62.9999980773926,8|2,0:0|0:0,0:0:0:0:
188,140,57203,1,0,0:0:0:0:
188,140,57361,1,8,0:0:0:0:
360,128,57519,1,0,0:0:0:0:
360,128,57677,1,8,0:0:0:0:
418,184,57835,6,0,P|440:121|408:63,1,125.999996154785,6|8,0:0|0:0,0:0:0:0:
332,32,58308,2,0,L|192:36,1,125.999996154785,2|0,0:0|0:0,0:0:0:0:
132,88,58782,1,8,0:0:0:0:
224,208,59098,6,0,L|228:288,1,62.9999980773926,2|0,0:0|0:0,0:0:0:0:
312,236,59414,2,0,L|448:228,2,125.999996154785,8|0|8,0:0|0:0|0:0,0:0:0:0:
316,320,60203,1,2,0:0:0:0:
240,360,60361,6,0,P|208:368|104:336,1,125.999996154785,2|8,0:0|0:0,0:0:0:0:
68,272,60835,2,0,L|72:128,1,125.999996154785,2|0,0:0|0:0,0:0:0:0:
136,84,61308,1,8,0:0:0:0:
316,128,61624,6,0,P|281:129|240:128,1,62.9999980773926
172,176,61940,2,0,P|137:174|96:176,1,62.9999980773926,8|2,0:0|0:0,0:0:0:0:
40,108,62256,1,0,0:0:0:0:
40,108,62414,1,8,0:0:0:0:
32,296,62571,1,0,0:0:0:0:
32,296,62729,1,8,0:0:0:0:
112,340,62887,6,0,L|276:336,1,157.500006008148,4|4,1:2|1:2,0:0:0:0:
420,72,64782,1,2,3:0:0:0:
420,72,64940,2,0,L|424:140,1,52.5000020027161,8|0,0:0|0:0,0:0:0:0:
332,184,65256,1,8,0:0:0:0:
240,128,65414,6,0,L|72:136,1,157.500006008148,4|4,1:2|1:2,0:0:0:0:
260,304,66835,1,2,3:0:0:0:
260,304,66993,2,0,B|312:336|312:336|416:320,1,157.500006008148,8|0,0:0|0:0,0:0:0:0:
468,260,67624,2,0,L|460:200,2,35.0000013351441,8|8|8,0:0|0:0|0:0,0:0:0:0:
388,248,67940,6,0,P|352:216|284:200,1,105.000004005432,4|8,1:2|0:0,0:0:0:0:
216,218,68414,2,0,P|170:244|105:220,1,105.000004005432,4|0,1:2|0:0,0:0:0:0:
56,168,68887,2,0,L|41:63,1,105.000004005432,0|0,3:0|3:0,0:0:0:0:
145,59,69361,2,0,L|160:164,1,105.000004005432,0|2,3:0|3:0,0:0:0:0:
232,240,69835,2,0,P|228:292|236:352,1,105.000004005432,0|2,3:0|3:0,0:0:0:0:
404,356,70466,6,0,P|452:332|504:328,1,105.000004005432,0|8,1:0|0:0,0:0:0:0:
504,236,70940,2,0,P|500:192|504:112,1,105.000004005432,4|0,1:2|0:0,0:0:0:0:
436,68,71414,2,0,L|316:76,1,105.000004005432,0|0,3:0|3:0,0:0:0:0:
232,200,72045,2,0,L|236:308,2,105.000004005432,0|2|2,0:0|0:0|0:0,0:0:0:0:
340,160,72993,6,0,L|416:152,2,70.0000026702882,2|2|2,0:0|0:0|0:0,0:0:0:0:
256,116,73624,2,0,L|186:108,2,70.0000026702882,2|0|0,0:0|0:0|0:0,0:0:0:0:
264,208,74256,6,0,P|264:256|268:304,1,83.9999974365235,6|8,0:0|0:0,0:0:0:0:
204,344,74729,2,0,P|168:348|108:336,1,83.9999974365235,0|8,0:0|0:0,0:0:0:0:
72,276,75203,2,0,L|76:180,2,83.9999974365235,8|2|8,0:0|0:0|0:0,0:0:0:0:
232,256,76150,2,0,L|288:252,1,41.9999987182618,0|8,0:0|0:0,0:0:0:0:
344,288,76466,1,8,0:0:0:0:
400,233,76624,1,0,0:0:0:0:
356,168,76782,6,0,L|360:72,1,83.9999974365235,2|8,0:0|0:0,0:0:0:0:
280,116,77256,2,0,P|252:124|192:108,1,83.9999974365235,2|0,0:0|0:0,0:0:0:0:
136,64,77729,2,0,P|96:52|55:60,2,83.9999974365235,8|8|8,0:0|0:0|0:0,0:0:0:0:
124,236,78677,2,0,L|128:288,1,41.9999987182618,0|0,3:0|3:0,0:0:0:0:
216,312,78993,2,0,L|212:270,1,41.9999987182618,0|0,3:0|3:0,0:0:0:0:
224,176,79308,6,0,P|252:172|320:188,1,83.9999974365235,6|8,0:0|0:0,0:0:0:0:
372,232,79782,2,0,L|472:220,1,83.9999974365235,0|8,0:0|0:0,0:0:0:0:
436,304,80256,2,8,L|352:314,2,83.9999974365235,8|10|8,0:0|0:0|0:0,0:0:0:0:
496,152,81203,2,0,L|492:100,1,41.9999987182618,8|0,0:0|0:0,0:0:0:0:
436,52,81519,1,2,3:0:0:0:
360,80,81677,1,2,3:0:0:0:
288,44,81835,6,0,L|200:40,1,83.9999974365235,2|8,0:0|0:0,0:0:0:0:
144,99,82308,2,0,P|121:134|119:176,1,83.9999974365235,2|0,0:0|0:0,0:0:0:0:
187,236,82782,6,0,B|144:275|101:284|35:257|11:213|15:136|69:64,1,335.999989746094
228,68,84361,6,0,L|356:64,1,105,6|0,0:0|0:0,0:0:0:0:
368,92,84677,1,8,0:0:0:0:
448,152,84835,2,0,P|452:216|444:300,1,140,2|8,0:0|0:0,0:0:0:0:
344,272,85308,2,0,L|264:276,1,70,8|2,0:0|0:0,0:0:0:0:
256,296,85545,1,2,0:0:0:0:
244,320,85624,6,0,L|164:324,1,70,2|0,0:0|0:0,0:0:0:0:
108,272,85940,1,8,0:0:0:0:
124,188,86098,1,2,0:0:0:0:
140,104,86256,2,0,P|136:64|144:32,1,70,0|8,0:0|0:0,0:0:0:0:
232,72,86571,2,0,P|266:75|301:75,1,70,8|2,0:0|0:0,0:0:0:0:
372,120,86887,6,0,B|384:172|384:172|364:240,1,105,2|0,0:0|0:0,0:0:0:0:
336,248,87203,1,8,0:0:0:0:
244,224,87361,2,0,L|104:216,1,140,2|8,0:0|0:0,0:0:0:0:
176,140,87835,2,0,L|180:68,1,70,8|2,0:0|0:0,0:0:0:0:
200,52,88071,1,2,0:0:0:0:
224,40,88150,6,0,P|280:40|312:44,1,70,2|0,0:0|0:0,0:0:0:0:
412,84,88466,2,0,L|404:172,1,70,8|2,0:0|0:0,0:0:0:0:
340,256,88782,2,0,L|348:296,3,35,0|0|8|0,0:0|0:0|0:0|0:0,0:0:0:0:
320,324,89098,2,0,L|313:358,3,35,8|0|2|0,0:0|0:0|0:0|0:0,0:0:0:0:
272,372,89414,6,0,P|228:360|144:364,1,105,6|0,0:0|0:0,0:0:0:0:
132,336,89729,1,8,0:0:0:0:
72,252,89887,2,0,L|220:264,1,140,2|8,0:0|0:0,0:0:0:0:
288,208,90361,2,0,L|276:136,1,70,8|2,0:0|0:0,0:0:0:0:
272,112,90598,1,2,0:0:0:0:
274,85,90677,6,0,L|362:93,1,70,2|0,0:0|0:0,0:0:0:0:
408,160,90993,1,8,0:0:0:0:
436,248,91150,1,2,0:0:0:0:
288,208,91308,2,0,L|218:201,1,70,0|8,0:0|0:0,0:0:0:0:
162,317,91624,2,0,L|232:324,1,70,8|2,0:0|0:0,0:0:0:0:
312,296,91940,6,0,B|376:284|376:284|432:308,1,105,2|0,0:0|0:0,0:0:0:0:
444,328,92256,1,8,0:0:0:0:
488,236,92414,2,0,B|468:172|468:172|484:88,1,140,2|8,0:0|0:0,0:0:0:0:
396,44,92887,2,0,P|352:72|264:44,1,140,8|2,0:0|0:0,0:0:0:0:
172,80,93361,2,0,L|92:76,2,70,0|8|2,0:0|0:0|0:0,0:0:0:0:
236,160,93835,5,0,0:0:0:0:
348,176,93993,1,8,0:0:0:0:
332,288,94150,1,2,0:0:0:0:
220,272,94308,1,8,0:0:0:0:
236,160,94466,6,0,L|248:40,1,105,6|0,0:0|0:0,0:0:0:0:
280,28,94782,1,8,0:0:0:0:
376,68,94940,2,0,P|456:80|484:148,1,140,2|8,0:0|0:0,0:0:0:0:
428,212,95414,2,0,L|432:284,1,70,8|2,0:0|0:0,0:0:0:0:
416,304,95650,1,2,0:0:0:0:
399,325,95729,6,0,L|320:328,1,70,2|0,0:0|0:0,0:0:0:0:
248,348,96045,1,8,0:0:0:0:
180,300,96203,1,2,0:0:0:0:
244,248,96361,2,0,P|248:208|244:168,1,70,0|8,0:0|0:0,0:0:0:0:
312,124,96677,2,0,P|351:132|391:132,1,70,8|2,0:0|0:0,0:0:0:0:
216,100,96993,6,0,P|184:84|96:92,1,105,2|0,0:0|0:0,0:0:0:0:
88,116,97308,1,8,0:0:0:0:
40,204,97466,2,0,L|48:356,1,140,2|8,0:0|0:0,0:0:0:0:
140,304,97940,2,0,L|212:296,1,70,8|2,0:0|0:0,0:0:0:0:
236,304,98177,1,2,0:0:0:0:
260,316,98256,6,0,L|334:308,1,70,2|0,0:0|0:0,0:0:0:0:
408,340,98571,2,0,P|412:288|388:252,1,70,8|2,0:0|0:0,0:0:0:0:
324,224,98887,2,0,L|276:230,3,35,0|0|8|0,0:0|0:0|0:0|0:0,0:0:0:0:
256,204,99203,2,0,L|208:210,3,35,8|0|2|0,0:0|0:0|0:0|0:0,0:0:0:0:
184,192,99519,6,0,P|172:140|172:64,1,105,6|0,0:0|0:0,0:0:0:0:
200,60,99835,1,8,0:0:0:0:
288,108,99993,2,0,L|428:96,1,140,2|8,0:0|0:0,0:0:0:0:
488,176,100466,2,0,P|488:220|484:260,1,70,8|2,0:0|0:0,0:0:0:0:
472,268,100703,1,2,0:0:0:0:
456,288,100782,6,0,L|460:360,1,70,2|0,0:0|0:0,0:0:0:0:
364,336,101098,1,8,0:0:0:0:
272,304,101256,1,2,0:0:0:0:
184,348,101414,2,0,L|112:352,1,70,0|8,0:0|0:0,0:0:0:0:
40,288,101729,2,0,B|36:252|40:196,1,70,8|2,0:0|0:0,0:0:0:0:
108,148,102045,6,0,P|116:104|104:36,1,105,2|0,0:0|0:0,0:0:0:0:
72,24,102361,1,8,0:0:0:0:
188,40,102519,2,0,P|224:52|336:40,1,140,2|8,0:0|0:0,0:0:0:0:
404,12,102993,1,8,0:0:0:0:
256,192,103071,12,0,104256,0:0:0:0:
216,228,104571,6,0,L|140:232,2,55.9999982910157,4|0|0,0:2|0:0|0:0,0:0:0:0:
312,248,105203,2,0,L|367:250,2,55.9999982910157
280,164,105835,2,0,P|284:136|282:108,2,55.9999982910157
192,128,106466,2,0,L|128:124,1,55.9999982910157
100,92,106782,6,0,L|98:81,8,10.4999996795654
36,168,107308,6,0,L|32:232,1,55.9999982910157
104,292,107729,2,0,L|108:356,2,55.9999982910157
136,200,108361,6,0,P|164:196|216:204,2,55.9999982910157
204,288,108993,2,0,L|280:280,1,62.9999980773926
292,264,109308,2,0,P|292:236|288:208,1,41.9999987182618
300,136,109624,6,0,L|356:128,1,41.9999987182618,2|0,0:0|0:0,0:0:0:0:
416,164,109940,1,2,0:0:0:0:
300,40,110256,1,2,0:0:0:0:
156,132,110571,1,2,0:0:0:0:
328,148,110887,6,0,L|384:140,1,41.9999987182618,2|0,0:0|0:0,0:0:0:0:
440,192,111203,1,2,0:0:0:0:
344,336,111519,1,2,0:0:0:0:
180,284,111835,6,0,L|164:288,8,10.4999996795654
220,116,112466,5,2,0:0:0:0:
268,280,112782,1,2,0:0:0:0:
220,116,113098,1,2,0:0:0:0:
380,52,113414,6,0,L|440:56,1,41.9999987182618,2|0,0:0|0:0,0:0:0:0:
488,108,113729,1,2,0:0:0:0:
472,276,114045,2,0,L|408:284,1,62.9999980773926,2|2,0:0|0:0,0:0:0:0:
388,296,114361,2,0,P|386:322|388:352,1,41.9999987182618,2|2,0:0|0:0,0:0:0:0:
