osu file format v14

[General]
AudioFilename: sq192ver.mp3
AudioLeadIn: 0
PreviewTime: 84045
Countdown: 0
SampleSet: Soft
StackLeniency: 0.7
Mode: 0
LetterboxInBreaks: 1
WidescreenStoryboard: 0

[Editor]
Bookmarks: 11098,12361,17203,22466,32571,52782,62887,72993,74256,84361,94466,114677
DistanceSpacing: 1.2
BeatDivisor: 4
GridSize: 4
TimelineZoom: 1.6

[Metadata]
Title:squall
TitleUnicode:squall
Artist:Nekomata Master+
ArtistUnicode:Nekomata Master+
Creator:Fizz
Version:Extreme
Source:jubeat saucer
Tags:Naoyuki Sato bemani konami nerodae mira-san [-mrsergio-]
BeatmapID:705408
BeatmapSetID:316611

[Difficulty]
HPDrainRate:7
CircleSize:4.5
OverallDifficulty:8
ApproachRate:9.3
SliderMultiplier:1.7
SliderTickRate:1

[Events]
//Background and Video events
0,0,"bg.png",0,0
//Break Periods
//Storyboard Layer 0 (Background)
//Storyboard Layer 1 (Fail)
//Storyboard Layer 2 (Pass)
//Storyboard Layer 3 (Foreground)
//Storyboard Sound Samples

[TimingPoints]
993,315.789473684211,4,2,1,50,1,0
993,-166.666666666667,4,2,1,50,0,0
6045,-166.666666666667,4,3,1,50,0,0
11098,-166.666666666667,4,2,1,50,0,0
12361,-133.333333333333,4,2,1,50,0,0
21835,-166.666666666667,4,2,1,50,0,0
22150,-100,4,2,2,90,0,0
47887,-100,4,3,1,70,0,0
48361,-100,4,2,2,90,0,0
52466,-166.666666666667,4,2,2,90,0,0
52782,-111.111111111111,4,2,2,90,0,0
62887,-133.333333333333,4,2,2,80,0,0
63677,-200,4,2,2,30,0,0
64782,-133.333333333333,4,2,2,80,0,0
66203,-200,4,2,2,30,0,0
66993,-133.333333333333,4,2,2,40,0,0
67940,-133.333333333333,4,2,2,80,0,0
74256,-166.666666666667,4,2,2,60,0,0
84361,-100,4,2,2,90,0,1
104571,-166.666666666667,4,3,1,50,0,0
106782,-166.666666666667,4,2,1,50,0,0
107098,-166.666666666667,4,3,1,50,0,0
109624,-166.666666666667,4,2,2,65,0,0

[Colours]
Combo1 : 97,97,97
Combo2 : 9,186,196
Combo3 : 192,192,192
Combo4 : 0,84,168

[HitObjects]
128,216,993,6,0,L|124:152,1,50.9999984436036,2|0,0:0|0:0,0:0:0:0:
240,72,1308,2,0,L|236:136,1,50.9999984436036,2|0,0:0|0:0,0:0:0:0:
344,248,1624,2,0,L|340:184,1,50.9999984436036,2|0,0:0|0:0,0:0:0:0:
456,104,1940,2,0,L|452:168,1,50.9999984436036,2|0,0:0|0:0,0:0:0:0:
368,272,2256,6,0,L|432:264,1,50.9999984436036,2|0,0:0|0:0,0:0:0:0:
246,310,2571,2,0,L|196:304,1,50.9999984436036,2|0,0:0|0:0,0:0:0:0:
288,196,2887,2,0,P|284:160|288:124,1,50.9999984436036,2|0,0:0|0:0,0:0:0:0:
368,60,3203,6,0,L|364:40,8,12.7499996109009
360,76,3835,6,0,L|292:80,1,50.9999984436036,2|0,0:0|0:0,0:0:0:0:
208,216,4150,2,0,L|258:213,1,50.9999984436036,2|0,0:0|0:0,0:0:0:0:
432,244,4466,2,0,P|436:280|432:312,1,50.9999984436036,2|0,0:0|0:0,0:0:0:0:
312,288,4782,6,0,L|261:290,1,50.9999984436036,2|0,0:0|0:0,0:0:0:0:
128,252,5098,2,0,L|132:324,1,50.9999984436036,2|0,0:0|0:0,0:0:0:0:
24,172,5414,2,0,L|20:86,1,76.4999976654054,2|2,0:0|0:0,0:0:0:0:
44,72,5729,1,2,0:0:0:0:
28,260,5887,2,0,L|4:264,3,12.7499996109009
56,276,6045,6,0,L|52:352,2,67.9999979248048
160,152,6677,1,0,0:0:0:0:
368,164,6887,1,0,0:0:0:0:
244,328,7098,1,0,0:0:0:0:
168,219,7308,6,0,P|160:175|160:151,2,67.9999979248048
328,284,7940,2,0,P|336:328|336:352,1,67.9999979248048
184,368,8361,1,0,0:0:0:0:
48,292,8571,5,0,0:0:0:0:
160,168,8782,2,0,L|156:84,1,67.9999979248048
324,216,9203,2,0,L|327:283,1,67.9999979248048
232,240,9624,1,0,0:0:0:0:
116,120,9835,6,0,P|72:120|44:124,2,67.9999979248048
296,156,10466,2,0,L|372:152,1,67.9999979248048
400,168,10782,5,0,0:0:0:0:
396,252,10887,1,0,0:0:0:0:
392,337,10992,1,0,0:0:0:0:
312,368,11098,6,0,L|240:364,1,67.9999979248048,2|0,0:0|0:0,0:0:0:0:
152,360,11519,1,0,0:0:0:0:
92,300,11624,1,0,0:0:0:0:
100,280,11677,2,0,L|99:257,1,16.9999994812012
60,168,11940,2,0,L|64:92,1,67.9999979248048
172,56,12361,6,0,B|212:80|212:80|308:64,1,127.500004863739,6|0,1:2|0:0,0:0:0:0:
444,148,12835,2,0,P|456:200|448:276,1,127.500004863739
280,340,13308,2,0,L|344:344,1,63.7500024318696
212,280,13624,1,0,0:0:0:0:
376,244,13782,2,0,L|312:240,1,63.7500024318696,0|2,0:0|0:0,0:0:0:0:
280,340,14098,1,0,0:0:0:0:
176,256,14256,5,0,0:0:0:0:
172,364,14414,1,2,0:0:0:0:
96,168,14571,1,0,0:0:0:0:
216,236,14729,1,0,0:0:0:0:
340,176,14887,6,0,L|476:180,1,127.500004863739,0|0,1:0|0:0,0:0:0:0:
392,64,15361,2,0,P|332:72|264:73,1,127.500004863739,2|0,0:0|0:0,0:0:0:0:
96,168,15835,2,0,L|92:100,1,63.7500024318696,2|0,0:0|0:0,0:0:0:0:
156,40,16150,1,0,0:0:0:0:
168,208,16308,2,0,P|170:235|171:271,1,63.7500024318696
236,320,16624,1,0,0:0:0:0:
232,144,16782,5,2,0:0:0:0:
96,168,16940,1,2,0:0:0:0:
64,170,17018,1,0,0:0:0:0:
32,172,17097,1,0,0:0:0:0:
0,44,17256,1,0,0:0:0:0:
144,80,17414,6,0,L|296:72,1,127.500004863739,4|0,1:2|0:0,0:0:0:0:
237,192,17887,2,0,P|233:244|237:332,1,127.500004863739,2|0,0:0|0:0,0:0:0:0:
336,256,18361,2,0,L|416:252,1,63.7500024318696,2|0,0:0|0:0,0:0:0:0:
504,196,18677,1,0,0:0:0:0:
316,120,18835,1,0,0:0:0:0:
316,120,18914,1,0,0:0:0:0:
316,120,18993,2,0,L|320:56,1,63.7500024318696,2|0,0:0|0:0,0:0:0:0:
396,20,19308,5,0,0:0:0:0:
384,256,19466,1,2,0:0:0:0:
504,196,19624,1,0,0:0:0:0:
380,268,19782,1,0,0:0:0:0:
268,204,19940,6,0,P|264:156|268:92,1,95.6250036478044,2|0,1:2|0:0,0:0:0:0:
292,80,20256,1,0,0:0:0:0:
144,92,20414,2,0,P|96:100|24:100,1,95.6250036478044,2|0,1:2|0:0,0:0:0:0:
20,76,20729,1,0,0:0:0:0:
8,200,20887,2,0,L|16:328,1,127.500004863739,2|0,1:2|0:0,0:0:0:0:
188,360,21414,5,0,1:0:0:0:
352,228,21624,1,0,1:0:0:0:
280,32,21835,2,0,L|296:128,1,76.4999976654053,0|0,1:0|0:0,0:0:0:0:
312,116,22150,6,0,P|376:96|448:124,1,127.5
472,144,22466,6,0,L|480:228,1,85,6|0,0:0|0:0,0:0:0:0:
432,344,22782,1,8,0:0:0:0:
288,280,22940,2,0,L|280:228,1,42.5
176,192,23098,2,0,L|182:234,1,42.5
208,328,23256,1,2,0:0:0:0:
80,296,23414,2,0,P|32:296|4:320,1,85,8|0,0:0|0:0,0:0:0:0:
144,224,23729,6,0,P|140:160|144:52,1,170,0|8,0:0|0:0,0:0:0:0:
388,108,24203,1,0,0:0:0:0:
356,135,24281,1,0,0:0:0:0:
316,150,24360,1,0,0:0:0:0:
274,151,24439,1,0,0:0:0:0:
234,137,24518,1,2,0:0:0:0:
144,224,24677,1,8,0:0:0:0:
228,316,24835,1,0,0:0:0:0:
344,268,24993,6,0,P|388:264|428:276,1,85,2|0,0:0|0:0,0:0:0:0:
204,340,25308,2,0,P|160:344|120:332,1,85,8|0,0:0|0:0,0:0:0:0:
60,268,25545,1,0,0:0:0:0:
60,268,25624,2,0,L|64:212,1,42.5
120,116,25782,1,2,0:0:0:0:
320,168,25940,2,0,L|220:160,1,85,8|0,0:0|0:0,0:0:0:0:
148,192,26177,1,0,0:0:0:0:
160,216,26256,6,0,L|60:224,1,85,2|0,0:0|0:0,0:0:0:0:
208,300,26571,1,8,0:0:0:0:
288,220,26729,1,0,0:0:0:0:
200,144,26887,2,0,L|208:44,1,85,0|2,0:0|0:0,0:0:0:0:
332,84,27124,1,0,0:0:0:0:
352,68,27203,2,0,P|396:72|456:56,1,85,8|0,0:0|0:0,0:0:0:0:
468,284,27519,6,0,B|460:256|460:256|472:184,1,85,6|0,0:0|0:0,0:0:0:0:
340,224,27835,1,8,0:0:0:0:
208,300,27993,2,0,L|144:304,1,42.5
220,204,28150,2,0,L|262:201,1,42.5
372,296,28308,1,2,0:0:0:0:
188,328,28466,2,0,L|103:322,1,85,8|0,0:0|0:0,0:0:0:0:
236,232,28782,6,0,L|405:221,1,170,2|8,0:0|0:0,0:0:0:0:
480,340,29256,1,0,0:0:0:0:
438,329,29334,1,0,0:0:0:0:
396,327,29413,1,0,0:0:0:0:
354,334,29492,1,0,0:0:0:0:
314,349,29571,1,2,0:0:0:0:
236,232,29729,1,8,0:0:0:0:
320,120,29887,1,0,0:0:0:0:
512,196,30045,6,0,L|436:200,1,85,2|0,0:0|0:0,0:0:0:0:
296,192,30361,2,0,L|253:190,1,42.5,8|0,0:0|0:0,0:0:0:0:
220,164,30519,1,0,0:0:0:0:
104,232,30677,2,0,P|96:280|108:324,1,85,0|2,0:0|0:0,0:0:0:0:
224,368,30993,1,8,0:0:0:0:
172,272,31150,1,0,0:0:0:0:
136,164,31308,6,0,L|144:68,1,85,2|0,0:0|0:0,0:0:0:0:
303,107,31624,2,0,L|295:191,1,85,8|8,0:0|0:0,0:0:0:0:
344,332,31940,1,2,0:0:0:0:
382,316,32018,1,0,0:0:0:0:
424,322,32097,1,8,0:0:0:0:
457,348,32176,1,0,0:0:0:0:
448,312,32255,1,0,0:0:0:0:
451,263,32334,1,0,0:0:0:0:
460,220,32413,1,2,0:0:0:0:
446,179,32492,1,0,0:0:0:0:
437,142,32571,6,0,P|372:126|308:187,1,127.5,6|0,0:0|0:0,0:0:0:0:
252,248,32887,2,0,L|260:356,1,85,8|0,0:0|0:0,0:0:0:0:
393,291,33203,2,0,L|387:207,1,85,0|2,0:0|0:0,0:0:0:0:
360,184,33440,1,0,0:0:0:0:
332,164,33519,1,8,0:0:0:0:
224,264,33677,1,0,0:0:0:0:
104,172,33835,6,0,L|240:184,1,127.5,2|0,0:0|0:0,0:0:0:0:
224,264,34150,2,0,L|328:260,1,85,8|0,0:0|0:0,0:0:0:0:
188,336,34466,2,0,P|144:336|103:339,1,85,0|2,0:0|0:0,0:0:0:0:
20,332,34782,1,8,0:0:0:0:
72,192,34940,1,0,0:0:0:0:
73,149,35018,1,0,0:0:0:0:
75,107,35098,6,0,P|128:88|208:120,1,127.5,2|0,0:0|0:0,0:0:0:0:
308,144,35414,2,0,B|320:104|320:104|316:44,1,85,8|0,0:0|0:0,0:0:0:0:
416,184,35729,2,0,B|404:224|404:224|408:284,1,85,0|2,0:0|0:0,0:0:0:0:
428,300,35966,1,0,0:0:0:0:
448,336,36045,1,8,0:0:0:0:
488,112,36203,1,0,0:0:0:0:
332,232,36361,6,0,L|200:236,1,127.5,2|0,0:0|0:0,0:0:0:0:
60,172,36677,2,0,P|56:120|60:72,1,85,8|0,0:0|0:0,0:0:0:0:
168,252,36993,1,0,0:0:0:0:
171,294,37071,1,0,0:0:0:0:
170,336,37150,1,2,0:0:0:0:
276,368,37308,1,8,0:0:0:0:
376,316,37466,1,2,0:0:0:0:
376,316,37545,1,2,0:0:0:0:
376,316,37624,6,0,L|384:176,1,127.5,6|0,0:0|0:0,0:0:0:0:
412,156,37940,1,8,0:0:0:0:
208,176,38098,1,0,0:0:0:0:
412,156,38256,2,0,L|416:68,1,85,0|2,0:0|0:0,0:0:0:0:
396,48,38493,1,0,0:0:0:0:
380,24,38571,1,8,0:0:0:0:
272,128,38729,1,0,0:0:0:0:
136,72,38887,6,0,P|80:68|16:132,1,127.5,2|0,0:0|0:0,0:0:0:0:
12,152,39203,1,8,0:0:0:0:
188,168,39361,1,0,0:0:0:0:
80,312,39519,2,0,P|128:324|192:304,1,85,0|2,0:0|0:0,0:0:0:0:
192,296,39756,1,0,0:0:0:0:
188,260,39835,1,8,0:0:0:0:
260,176,39940,2,0,L|324:172,1,56.6666666666667
352,196,40150,6,0,P|360:240|360:324,1,127.5,2|0,0:0|0:0,0:0:0:0:
336,344,40466,1,8,0:0:0:0:
480,304,40571,2,0,L|476:244,1,56.6666666666667
464,152,40782,2,0,L|468:68,1,85,0|2,0:0|0:0,0:0:0:0:
436,60,41019,1,0,0:0:0:0:
404,64,41098,1,8,0:0:0:0:
352,196,41256,1,0,0:0:0:0:
208,124,41414,5,2,0:0:0:0:
352,196,41571,2,0,P|323:190|304:184,1,42.5
288,328,41729,1,8,0:0:0:0:
128,296,41887,2,0,L|100:300,3,21.25,8|8|8|8,0:0|0:0|0:0|0:0,0:0:0:0:
152,272,42045,2,0,L|156:216,1,42.5,8|0,0:0|0:0,0:0:0:0:
160,144,42203,1,2,0:0:0:0:
181,146,42282,1,0,0:0:0:0:
204,148,42361,5,8,0:0:0:0:
246,145,42439,1,0,0:0:0:0:
288,142,42518,1,2,0:0:0:0:
331,139,42597,1,0,0:0:0:0:
373,136,42677,6,0,P|380:192|384:280,1,127.5,6|0,0:0|0:0,0:0:0:0:
288,348,42993,2,0,L|196:344,1,85,8|0,0:0|0:0,0:0:0:0:
284,212,43308,2,0,L|368:208,1,85,0|2,0:0|0:0,0:0:0:0:
404,208,43545,1,0,0:0:0:0:
440,208,43624,1,8,0:0:0:0:
496,56,43782,1,0,0:0:0:0:
244,88,43940,6,0,P|248:156|248:232,1,127.5,2|0,0:0|0:0,0:0:0:0:
320,292,44256,2,0,L|408:284,1,85,8|0,0:0|0:0,0:0:0:0:
184,316,44571,2,0,P|143:321|99:323,1,85,0|2,0:0|0:0,0:0:0:0:
64,300,44808,1,0,0:0:0:0:
36,268,44887,1,8,0:0:0:0:
136,108,44993,2,0,L|76:112,1,56.6666666666667
16,188,45203,6,0,L|171:180,1,127.5,2|0,0:0|0:0,0:0:0:0:
300,200,45519,2,0,P|352:200|400:184,1,85,8|0,0:0|0:0,0:0:0:0:
212,260,45835,2,0,L|220:344,1,85,0|2,0:0|0:0,0:0:0:0:
220,344,46071,1,0,0:0:0:0:
220,344,46150,1,8,0:0:0:0:
380,360,46308,1,0,0:0:0:0:
480,236,46466,6,0,P|480:152|468:76,1,127.5,2|0,0:0|0:0,0:0:0:0:
448,76,46782,1,8,0:0:0:0:
352,148,46940,1,0,0:0:0:0:
248,88,47098,5,0,0:0:0:0:
191,91,47203,1,2,0:0:0:0:
134,95,47308,1,2,0:0:0:0:
140,188,47414,5,8,0:0:0:0:
177,185,47519,1,8,0:0:0:0:
215,182,47624,1,8,0:0:0:0:
253,180,47729,5,2,0:0:0:0:
440,168,47887,2,0,L|480:164,6,21.25
380,224,48150,2,0,L|384:260,3,28.3333333333333
328,160,48361,2,0,L|332:104,2,42.5,2|2|2,0:0|0:0|0:0,0:0:0:0:
248,272,48677,2,0,L|144:268,1,85,12|0,0:0|0:0,0:0:0:0:
60,168,48993,6,0,L|52:40,1,127.5,2|0,0:0|0:0,0:0:0:0:
84,12,49308,1,8,0:0:0:0:
104,252,49466,1,0,0:0:0:0:
243,166,49624,2,0,L|355:158,1,85,0|2,0:0|0:0,0:0:0:0:
208,280,49940,2,0,P|201:324|211:365,1,85,8|0,0:0|0:0,0:0:0:0:
415,313,50256,6,0,L|288:320,1,127.5,2|0,0:0|0:0,0:0:0:0:
280,360,50571,1,8,0:0:0:0:
256,176,50729,1,0,0:0:0:0:
92,272,50887,2,0,P|88:220|92:184,1,85,0|2,0:0|0:0,0:0:0:0:
120,156,51124,1,0,0:0:0:0:
156,136,51203,1,8,0:0:0:0:
268,264,51361,1,0,0:0:0:0:
416,180,51519,5,2,0:0:0:0:
457,178,51597,1,0,0:0:0:0:
493,199,51676,1,0,0:0:0:0:
512,237,51755,1,0,0:0:0:0:
506,278,51835,1,8,0:0:0:0:
464,288,51913,1,0,0:0:0:0:
421,283,51992,1,0,0:0:0:0:
379,292,52071,1,0,0:0:0:0:
336,287,52150,5,0,0:0:0:0:
328,246,52228,1,0,0:0:0:0:
320,204,52308,2,0,L|324:148,1,42.5,2|0,0:0|0:0,0:0:0:0:
200,116,52466,2,0,L|192:200,1,76.4999976654053,8|0,0:0|0:0,0:0:0:0:
172,224,52782,6,0,L|20:216,1,152.999995330811,6|8,0:0|0:0,0:0:0:0:
204,324,53256,2,0,L|356:316,1,152.999995330811,6|0,0:0|0:0,0:0:0:0:
464,344,53729,1,8,0:0:0:0:
440,236,53887,2,0,L|444:184,1,38.2499988327027
468,168,54045,6,0,L|462:83,1,76.4999976654053,2|0,0:0|0:0,0:0:0:0:
284,40,54361,2,0,P|224:32|124:64,1,152.999995330811,8|0,0:0|0:0,0:0:0:0:
32,28,54835,1,8,0:0:0:0:
20,224,54993,1,0,0:0:0:0:
58,221,55071,1,0,0:0:0:0:
96,218,55150,1,0,0:0:0:0:
134,215,55229,1,0,0:0:0:0:
172,212,55308,6,0,B|188:248|188:248|176:348,1,114.749996498108,2|0,0:0|0:0,0:0:0:0:
152,348,55624,1,8,0:0:0:0:
304,296,55782,2,0,B|288:260|288:260|300:160,1,114.749996498108,2|0,0:0|0:0,0:0:0:0:
324,160,56098,1,8,0:0:0:0:
440,124,56256,1,0,0:0:0:0:
220,100,56414,1,8,0:0:0:0:
200,101,56492,1,0,0:0:0:0:
180,104,56571,6,0,P|176:152|176:204,1,76.4999976654053,2|0,0:0|0:0,0:0:0:0:
244,300,56887,2,0,P|306:296|392:288,1,114.749996498108,8|0,0:0|0:0,0:0:0:0:
388,268,57203,1,0,0:0:0:0:
408,368,57361,1,8,0:0:0:0:
464,240,57519,1,0,0:0:0:0:
400,52,57677,1,8,0:0:0:0:
328,128,57835,6,0,L|172:120,1,152.999995330811,6|8,0:0|0:0,0:0:0:0:
20,148,58308,2,0,P|8:200|16:300,1,152.999995330811,2|0,0:0|0:0,0:0:0:0:
36,312,58703,1,0,0:0:0:0:
60,316,58782,1,8,0:0:0:0:
176,248,58940,1,0,0:0:0:0:
264,348,59098,6,0,L|356:340,1,76.4999976654053,2|0,0:0|0:0,0:0:0:0:
360,328,59335,1,0,0:0:0:0:
380,316,59414,1,8,0:0:0:0:
424,188,59571,1,2,0:0:0:0:
260,276,59729,1,0,0:0:0:0:
241,278,59807,1,0,0:0:0:0:
222,281,59887,1,8,0:0:0:0:
332,220,60045,1,0,0:0:0:0:
184,208,60203,1,0,0:0:0:0:
165,210,60281,1,0,0:0:0:0:
144,212,60361,6,0,P|136:264|144:344,1,114.749996498108,2|0,0:0|0:0,0:0:0:0:
172,352,60677,1,8,0:0:0:0:
304,204,60835,2,0,L|300:96,1,76.4999976654053,2|0,0:0|0:0,0:0:0:0:
236,72,61150,1,8,0:0:0:0:
236,72,61229,1,0,0:0:0:0:
236,72,61308,1,2,0:0:0:0:
136,172,61466,1,8,0:0:0:0:
260,336,61624,6,0,P|304:340|348:328,1,76.4999976654053,2|0,0:0|0:0,0:0:0:0:
335,333,61861,1,0,0:0:0:0:
335,333,61940,1,8,0:0:0:0:
420,240,62098,1,2,0:0:0:0:
196,280,62256,1,0,3:0:0:0:
156,284,62334,1,0,3:0:0:0:
120,270,62413,1,8,3:2:0:0:
80,274,62492,1,0,3:0:0:0:
44,261,62571,1,0,3:0:0:0:
50,223,62649,1,0,3:0:0:0:
54,185,62728,1,8,3:2:0:0:
55,147,62807,1,0,3:0:0:0:
53,108,62887,6,0,P|108:120|184:108,1,127.500004863739,4|0,1:2|0:0,0:0:0:0:
304,140,63361,1,4,1:2:0:0:
464,260,63677,6,0,L|472:348,3,85
376,232,64782,5,2,3:0:0:0:
296,272,64940,2,0,L|168:268,1,127.500004863739,8|8,0:0|0:0,0:0:0:0:
80,80,65414,6,0,P|72:144|72:224,1,127.500004863739,4|0,1:2|0:0,0:0:0:0:
92,304,65887,1,4,1:2:0:0:
152,106,66203,6,0,P|148:148|147:200,2,85
256,48,66993,6,8,L|280:44,7,15.9375006079674
212,116,67308,2,8,L|176:120,3,31.8750012159348
280,156,67624,2,8,L|332:148,2,42.5000016212464
220,216,67940,6,0,P|216:260|224:356,1,127.500004863739,4|0,1:2|0:0,0:0:0:0:
344,272,68414,2,0,L|480:268,1,127.500004863739,4|0,1:2|3:0,0:0:0:0:
312,176,68887,1,0,3:0:0:0:
312,176,68966,1,0,3:0:0:0:
440,40,69124,1,0,3:0:0:0:
440,40,69203,5,0,3:0:0:0:
288,64,69308,2,0,L|244:52,2,42.5000016212464,0|0|0,3:0|3:0|3:0,0:0:0:0:
270,229,69677,2,0,L|191:223,1,63.7500024318696,2|0,3:0|3:0,0:0:0:0:
136,260,69940,1,0,3:0:0:0:
136,260,70045,1,0,3:0:0:0:
308,160,70150,2,0,L|224:154,1,63.7500024318696,2|0,3:0|0:0,0:0:0:0:
108,28,70466,6,0,P|112:80|104:152,1,95.6250036478044,0|0,1:2|0:0,0:0:0:0:
88,148,70782,1,8,0:0:0:0:
196,208,70940,2,0,P|244:192|344:208,1,127.500004863739,4|0,1:2|0:0,0:0:0:0:
400,276,71414,2,0,L|396:320,1,31.8750012159348,0|0,3:0|3:0,3:0:0:0:
488,208,71571,2,0,L|490:176,1,31.8750012159348,0|0,3:0|3:0,3:0:0:0:
408,52,71729,6,0,L|404:128,1,63.7500024318696,0|0,3:0|3:0,0:0:0:0:
368,300,72045,1,0,0:0:0:0:
88,148,72361,1,2,0:0:0:0:
404,104,72677,1,2,0:0:0:0:
292,240,72993,6,0,P|296:288|292:332,2,85.0000032424928,2|2|2,0:0|0:0|0:0,0:0:0:0:
192,152,73624,2,0,P|188:104|192:60,2,85.0000032424928,2|0|0,0:0|0:0|0:0,0:0:0:0:
292,144,74256,6,0,L|408:132,1,101.999996887207,6|8,0:0|0:0,0:0:0:0:
484,212,74729,2,0,P|492:264|492:332,1,101.999996887207,0|8,0:0|0:0,0:0:0:0:
360,352,75203,2,0,L|356:296,1,50.9999984436036,8|0,0:0|0:0,0:0:0:0:
400,224,75519,1,2,0:0:0:0:
248,212,75677,2,0,L|252:268,1,50.9999984436036,0|8,0:0|0:0,0:0:0:0:
208,340,75993,1,2,0:0:0:0:
64,292,76150,5,0,0:0:0:0:
144,176,76308,1,8,0:0:0:0:
142,150,76386,1,0,0:0:0:0:
140,125,76465,1,8,0:0:0:0:
4,188,76624,1,0,0:0:0:0:
180,256,76782,6,0,L|300:248,1,101.999996887207,2|8,0:0|0:0,0:0:0:0:
488,296,77256,2,0,L|386:302,1,101.999996887207,2|8,0:0|0:0,0:0:0:0:
360,200,77729,2,0,P|355:173|360:128,1,50.9999984436036,8|0,0:0|0:0,0:0:0:0:
436,88,78045,1,8,0:0:0:0:
281,249,78203,1,0,3:0:0:0:
255,253,78281,1,0,3:0:0:0:
230,252,78360,1,0,3:0:0:0:
152,196,78519,1,0,3:0:0:0:
88,124,78677,5,0,3:0:0:0:
73,136,78756,1,0,3:0:0:0:
61,151,78835,1,0,3:0:0:0:
51,167,78913,1,0,3:0:0:0:
44,185,78992,1,0,3:0:0:0:
39,203,79071,1,0,3:0:0:0:
37,222,79150,1,0,3:0:0:0:
37,241,79229,1,0,3:0:0:0:
40,264,79308,6,0,L|36:328,1,50.9999984436036,4|0,0:0|0:0,0:0:0:0:
96,368,79624,1,8,0:0:0:0:
208,300,79782,2,0,L|212:236,1,50.9999984436036
152,196,80098,1,8,0:0:0:0:
288,168,80256,2,0,L|408:160,1,101.999996887207,8|2,0:0|0:0,0:0:0:0:
476,216,80729,1,0,0:0:0:0:
504,116,80887,2,0,L|500:44,1,50.9999984436036,8|0,0:0|0:0,0:0:0:0:
408,20,81203,5,0,0:0:0:0:
408,20,81361,1,0,0:0:0:0:
400,288,81519,1,2,3:0:0:0:
400,288,81677,1,2,3:0:0:0:
328,356,81835,6,0,L|220:368,1,101.999996887207,2|8,0:0|0:0,0:0:0:0:
248,160,82308,2,0,B|249:210|223:238|196:242,1,101.999996887207,2|0,0:0|0:0,0:0:0:0:
172,173,82782,6,0,B|156:103|216:36|356:40|380:172|310:265|272:292,1,407.999987548829,2|8,0:0|0:0,0:0:0:0:
456,104,84361,6,0,L|324:100,1,127.5,6|0,0:0|0:0,0:0:0:0:
296,72,84677,1,10,0:0:0:0:
108,148,84835,2,0,P|100:208|104:280,1,127.5,2|0,0:0|0:0,0:0:0:0:
76,308,85150,1,8,0:0:0:0:
40,80,85308,1,8,0:0:0:0:
224,180,85466,1,2,0:0:0:0:
244,176,85544,1,2,0:0:0:0:
268,172,85624,6,0,L|356:176,1,85,2|0,0:0|0:0,0:0:0:0:
280,304,85940,2,0,L|195:300,1,85,8|2,0:0|0:0,0:0:0:0:
353,264,86256,1,0,0:0:0:0:
224,180,86414,1,8,0:0:0:0:
264,32,86571,1,8,0:0:0:0:
417,24,86728,1,2,0:0:0:0:
471,167,86887,6,0,L|476:304,1,127.5,2|0,0:0|0:0,0:0:0:0:
456,332,87203,1,8,0:0:0:0:
328,224,87361,2,0,L|288:96,1,127.5,2|0,0:0|0:0,0:0:0:0:
296,60,87677,1,8,0:0:0:0:
208,216,87835,1,8,0:0:0:0:
80,112,87993,1,2,0:0:0:0:
80,112,88071,1,2,0:0:0:0:
80,112,88150,6,0,P|72:168|72:216,1,85,2|0,0:0|0:0,0:0:0:0:
256,340,88466,2,0,L|160:336,1,85,8|2,0:0|0:0,0:0:0:0:
170,203,88782,1,0,0:0:0:0:
202,168,88860,1,0,0:0:0:0:
248,155,88939,1,8,0:0:0:0:
294,166,89018,1,0,0:0:0:0:
328,199,89097,1,8,0:0:0:0:
342,244,89176,1,0,0:0:0:0:
332,290,89255,1,2,0:0:0:0:
300,325,89335,1,0,0:0:0:0:
255,339,89414,6,0,L|216:204,1,127.5,6|0,0:0|0:0,0:0:0:0:
252,248,89729,1,8,0:0:0:0:
364,76,89887,2,0,L|324:211,1,127.5,2|0,0:0|0:0,0:0:0:0:
252,248,90202,1,8,0:0:0:0:
96,184,90361,1,8,0:0:0:0:
168,60,90519,2,2,L|224:56,1,42.5
288,32,90677,6,0,P|332:40|392:40,1,85,2|0,0:0|0:0,0:0:0:0:
472,176,90993,2,0,L|476:264,1,85,8|2,0:0|0:0,0:0:0:0:
364,344,91308,1,0,0:0:0:0:
324,128,91466,1,8,0:0:0:0:
460,228,91624,1,8,0:0:0:0:
192,280,91782,1,2,0:0:0:0:
104,96,91940,6,0,P|96:160|96:256,1,127.5,2|0,0:0|0:0,0:0:0:0:
112,260,92256,1,8,0:0:0:0:
141,30,92414,2,0,P|70:28|29:98,1,127.5,2|0,0:0|0:0,0:0:0:0:
36,104,92729,1,8,0:0:0:0:
244,192,92887,2,0,L|308:188,1,42.5,8|0,0:0|0:0,0:0:0:0:
372,160,93045,1,2,0:0:0:0:
400,300,93203,5,2,0:0:0:0:
432,116,93361,1,0,0:0:0:0:
324,36,93519,1,8,0:0:0:0:
244,144,93677,1,2,0:0:0:0:
160,40,93835,6,0,L|104:44,1,42.5
36,164,93993,2,0,L|78:160,1,42.5,8|0,0:0|0:0,0:0:0:0:
208,224,94150,2,0,L|152:228,1,42.5,2|0,0:0|0:0,0:0:0:0:
84,348,94308,2,0,L|126:344,1,42.5,8|0,0:0|0:0,0:0:0:0:
260,312,94466,6,0,P|308:292|408:312,1,127.5,6|0,0:0|0:0,0:0:0:0:
408,332,94782,1,8,0:0:0:0:
488,196,94940,2,0,P|496:136|496:64,1,127.5,2|0,0:0|0:0,0:0:0:0:
468,36,95256,1,8,0:0:0:0:
304,136,95414,1,8,0:0:0:0:
128,60,95571,1,2,0:0:0:0:
128,60,95650,1,2,0:0:0:0:
128,60,95729,6,0,P|76:72|32:72,1,85,2|0,0:0|0:0,0:0:0:0:
83,255,96045,2,0,P|123:241|160:220,1,85,8|2,0:0|0:0,0:0:0:0:
272,136,96361,1,0,0:0:0:0:
328,320,96519,1,8,0:0:0:0:
340,88,96677,1,8,0:0:0:0:
320,336,96835,1,2,0:0:0:0:
240,288,96993,6,0,L|108:284,1,127.5,2|0,0:0|0:0,0:0:0:0:
84,256,97308,1,8,0:0:0:0:
292,220,97466,2,0,L|419:216,1,127.5,2|0,0:0|0:0,0:0:0:0:
448,188,97782,1,8,0:0:0:0:
201,119,97940,2,0,P|200:162|208:204,1,85,8|2,0:0|0:0,0:0:0:0:
228,224,98177,1,2,0:0:0:0:
256,224,98256,6,0,L|346:219,1,85,2|0,0:0|0:0,0:0:0:0:
444,328,98571,2,0,L|359:332,1,85,8|2,0:0|0:0,0:0:0:0:
228,304,98887,1,0,0:0:0:0:
196,299,98965,1,0,0:0:0:0:
165,302,99044,1,8,0:0:0:0:
135,314,99123,1,0,0:0:0:0:
110,333,99203,1,8,0:0:0:0:
117,292,99281,1,0,0:0:0:0:
120,249,99360,1,2,0:0:0:0:
117,207,99439,1,0,0:0:0:0:
110,165,99519,6,0,P|160:180|252:152,1,127.5,6|0,0:0|0:0,0:0:0:0:
260,132,99835,1,8,0:0:0:0:
424,192,99993,2,0,P|428:248|424:328,1,127.5,2|0,0:0|0:0,0:0:0:0:
400,352,100308,1,8,0:0:0:0:
264,308,100466,1,8,0:0:0:0:
196,184,100624,1,2,0:0:0:0:
199,163,100702,1,2,0:0:0:0:
204,144,100782,6,0,P|200:99|200:56,1,85,2|0,0:0|0:0,0:0:0:0:
419,107,101098,2,0,P|423:149|424:192,1,85,8|2,0:0|0:0,0:0:0:0:
320,268,101414,1,0,0:0:0:0:
308,48,101571,1,8,0:0:0:0:
204,144,101729,1,8,0:0:0:0:
257,357,101886,1,2,0:0:0:0:
156,300,102045,6,0,L|20:308,1,127.5,2|0,0:0|0:0,0:0:0:0:
4,344,102361,1,8,0:0:0:0:
16,64,102519,2,0,P|60:76|148:64,1,127.5,2|0,0:0|0:0,0:0:0:0:
168,36,102835,1,8,0:0:0:0:
320,112,102993,2,0,L|312:176,1,42.5,8|0,0:0|0:0,0:0:0:0:
272,228,103150,1,2,0:0:0:0:
160,176,103308,5,2,0:0:0:0:
60,264,103466,2,0,L|64:360,2,85,0|8|2,0:0|0:0|0:0,0:0:0:0:
160,84,103940,2,0,L|163:141,1,42.5
240,332,104098,2,8,L|237:289,1,42.5,8|0,0:0|0:0,0:0:0:0:
300,48,104256,2,0,L|303:105,1,42.5
380,296,104414,2,0,L|377:253,1,42.5,10|0,0:0|0:0,0:0:0:0:
440,132,104571,6,0,L|516:140,2,67.9999979248048,4|0|0,0:2|0:0|0:0,0:0:0:0:
300,48,105203,2,0,L|232:55,2,67.9999979248048
316,180,105835,2,0,P|312:228|316:268,1,67.9999979248048
360,328,106256,1,0,0:0:0:0:
228,344,106466,2,0,L|152:340,1,67.9999979248048
80,304,106782,6,0,L|56:308,8,12.7499996109009
188,196,107308,6,0,L|184:120,1,67.9999979248048
316,176,107729,2,0,L|319:243,1,67.9999979248048
440,316,108150,1,0,0:0:0:0:
316,176,108361,2,0,L|240:172,1,67.9999979248048
152,120,108782,1,0,0:0:0:0:
60,196,108993,2,0,P|56:240|64:296,1,76.4999976654053
76,292,109308,2,0,L|148:288,1,50.9999984436036
284,320,109624,6,0,P|288:280|288:252,1,50.9999984436036,2|0,0:0|0:0,0:0:0:0:
228,64,109940,2,0,P|224:104|224:132,1,50.9999984436036,2|0,0:0|0:0,0:0:0:0:
312,160,110256,2,0,L|380:156,1,50.9999984436036,2|0,0:0|0:0,0:0:0:0:
200,224,110571,2,0,L|132:228,1,50.9999984436036,2|0,0:0|0:0,0:0:0:0:
60,156,110887,6,0,L|56:84,1,50.9999984436036,2|0,0:0|0:0,0:0:0:0:
42,277,111203,2,0,L|40:328,1,50.9999984436036,2|0,0:0|0:0,0:0:0:0:
200,224,111519,2,0,P|236:224|272:228,1,50.9999984436036,2|0,0:0|0:0,0:0:0:0:
316,288,111835,6,2,L|312:312,8,12.7499996109009,0|0|0|0|0|0|0|0|0,0:0|0:0|0:0|0:0|0:0|0:0|0:0|0:0|0:0,0:0:0:0:
396,108,112466,6,0,L|456:104,1,50.9999984436036,2|0,0:0|0:0,0:0:0:0:
304,184,112782,2,0,L|253:180,1,50.9999984436036,2|0,0:0|0:0,0:0:0:0:
404,232,113098,2,0,P|408:264|408:292,1,50.9999984436036,2|0,0:0|0:0,0:0:0:0:
304,340,113414,6,0,L|253:336,1,50.9999984436036,2|0,0:0|0:0,0:0:0:0:
148,260,113729,2,0,L|152:192,1,50.9999984436036,2|0,0:0|0:0,0:0:0:0:
280,80,114045,2,0,P|244:92|196:80,1,76.4999976654053,2|2,0:0|0:0,0:0:0:0:
188,72,114361,2,0,L|120:68,1,50.9999984436036,2|2,0:0|0:0,0:0:0:0:
