osu file format v12

[General]
AudioFilename: nightbird lost wing.mp3
AudioLeadIn: 0
PreviewTime: 75628
Countdown: 0
SampleSet: Soft
StackLeniency: 0.7
Mode: 0
LetterboxInBreaks: 0
WidescreenStoryboard: 0

[Editor]
DistanceSpacing: 1
BeatDivisor: 4
GridSize: 4
TimelineZoom: 1

[Metadata]
Title:Nightbird Lost Wing
TitleUnicode:Nightbird Lost Wing
Artist:Nekomata Master+
ArtistUnicode:猫叉 Master+
Creator:TaMul
Version:Easy
Source:DanceDanceRevolution (2013)
Tags:TKSalt Leader Sonnyc Reflec Beat Colette Naoyuki Sato autumn
BeatmapID:365313
BeatmapSetID:128070

[Difficulty]
HPDrainRate:2
CircleSize:3
OverallDifficulty:2
ApproachRate:3
SliderMultiplier:0.9
SliderTickRate:2

[Events]
//Background and Video events
0,0,"356141.jpg",0,0
//Break Periods
//Storyboard Layer 0 (Background)
//Storyboard Layer 1 (Fail)
//Storyboard Layer 2 (Pass)
//Storyboard Layer 3 (Foreground)
//Storyboard Sound Samples
//Background Colour Transformations
3,100,163,162,255

[TimingPoints]
1418,315.789473684211,4,3,2,40,1,0
2523,-100,4,2,1,40,0,0
19733,-100,4,2,1,50,0,0
20049,-100,4,2,2,50,0,0
20207,-100,4,2,1,60,0,0
20681,-100,4,2,2,60,0,0
20839,-100,4,2,1,60,0,0
20996,-100,4,2,1,70,0,0
21628,-100,4,2,1,80,0,0
24154,-100,4,2,1,50,0,0
24470,-100,4,2,2,50,0,0
24628,-100,4,2,1,50,0,0
26207,-100,4,2,3,50,0,0
26365,-100,4,2,1,50,0,0
26996,-100,4,2,2,50,0,0
27154,-100,4,2,1,50,0,0
28733,-100,4,2,3,50,0,0
28891,-100,4,2,2,50,0,0
29049,-100,4,2,1,50,0,0
29996,-100,4,2,3,50,0,0
30154,-100,4,2,1,50,0,0
30786,-100,4,2,2,50,0,0
30944,-100,4,2,1,50,0,0
33312,-100,4,2,2,50,0,0
33628,-100,4,2,1,50,0,0
34575,-100,4,2,2,50,0,0
34733,-100,4,2,1,50,0,0
35049,-100,4,2,3,50,0,0
35207,-100,4,2,1,50,0,0
37102,-100,4,2,2,50,0,0
37260,-100,4,2,1,50,0,0
37575,-100,4,2,3,50,0,0
37733,-100,4,2,2,50,0,0
37891,-100,4,2,1,50,0,0
38839,-100,4,2,3,50,0,0
38996,-100,4,2,1,50,0,0
39628,-100,4,2,2,50,0,0
39786,-100,4,2,1,50,0,0
41365,-100,4,2,3,50,0,0
41523,-100,4,2,1,50,0,0
42628,-100,4,2,3,50,0,0
42786,-100,4,2,1,50,0,0
43418,-100,4,2,2,50,0,0
43575,-100,4,2,1,50,0,0
44681,-100,4,2,2,50,0,0
44839,-100,4,2,3,50,0,0
44996,-100,4,2,1,50,0,0
47207,-100,4,2,2,50,0,0
47365,-100,4,2,3,50,0,0
47523,-100,4,2,1,50,0,0
49733,-100,4,2,2,50,0,0
49891,-100,4,2,3,50,0,0
50049,-100,4,2,1,50,0,0
50839,-100,4,2,3,50,0,0
50996,-100,4,2,1,50,0,0
51470,-100,4,2,3,50,0,0
51628,-100,4,2,2,50,0,0
51786,-100,4,2,1,50,0,0
53996,-100,4,2,3,50,0,0
54154,-100,4,2,1,50,0,0
54786,-100,4,2,2,50,0,0
54944,-100,4,2,1,50,0,0
57312,-100,4,2,2,50,0,0
57470,-100,4,2,1,50,0,0
59839,-100,4,2,2,50,0,0
59996,-100,4,2,1,50,0,0
61575,-100,4,2,3,50,0,0
61733,-100,4,2,1,50,0,0
62365,-100,4,2,2,50,0,0
62523,-100,4,2,1,50,0,0
62839,-100,4,2,2,50,0,0
62996,-100,4,2,1,50,0,0
64575,-100,4,2,1,30,0,0
65839,-100,4,2,1,50,0,0
66154,-100,4,2,2,50,0,0
66312,-100,4,2,1,50,0,0
66628,-100,4,2,3,50,0,0
66786,-100,4,2,2,50,0,0
66944,-100,4,2,1,50,0,0
67891,-100,4,2,3,50,0,0
68049,-100,4,2,1,50,0,0
68681,-100,4,2,2,50,0,0
68839,-100,4,2,1,50,0,0
69154,-100,4,2,3,50,0,0
69312,-100,4,2,2,50,0,0
69470,-100,4,2,1,50,0,0
71681,-100,4,2,3,50,0,0
71839,-100,4,2,1,50,0,0
73575,-100,4,2,2,50,0,0
74365,-100,4,2,1,50,0,0
74839,-100,4,2,2,50,0,0
74996,-100,4,2,1,50,0,0
75944,-100,4,2,1,50,0,1
77207,-100,4,2,3,50,0,1
77365,-100,4,2,1,50,0,1
77996,-100,4,2,3,50,0,1
78154,-100,4,2,1,50,0,1
79260,-100,4,2,3,50,0,1
79418,-100,4,2,2,50,0,1
79575,-100,4,2,1,50,0,1
81312,-100,4,2,2,50,0,1
81470,-100,4,2,1,50,0,1
82260,-100,4,2,3,50,0,1
82418,-100,4,2,1,50,0,1
85733,-100,4,2,1,50,0,0
86049,-100,4,2,1,50,0,1
87312,-100,4,2,3,50,0,1
87470,-100,4,2,1,50,0,1
88891,-100,4,2,2,50,0,1
89049,-100,4,2,1,50,0,1
89839,-100,4,2,3,50,0,1
89996,-100,4,2,1,50,0,1
90628,-100,4,2,3,50,0,1
90786,-100,4,2,1,50,0,1
91891,-100,4,2,3,50,0,1
92049,-100,4,2,1,50,0,1
93154,-100,4,2,3,50,0,1
93312,-100,4,2,1,50,0,1
96154,-100,4,2,1,40,0,0
98681,-100,4,3,2,40,0,0
99944,-100,4,2,1,40,0,0

[Colours]
Combo1 : 255,128,64
Combo2 : 128,128,192
Combo3 : 255,128,192
Combo4 : 128,255,255
Combo5 : 128,255,128

[HitObjects]
256,192,1418,5,0,0:0:0:0:
256,192,2523,12,4,3944,0:0:0:0:
56,300,5839,5,0,0:0:0:0:
180,168,6470,2,0,P|256:116|224:264,1,360,4|0,0:0|0:0,0:0:0:0:
112,124,8365,2,0,P|188:48|264:36,1,180,0|4,0:0|0:0,0:0:0:0:
344,192,9628,5,0,0:0:0:0:
254,348,10260,2,0,P|169:323|112:256,2,180,0|0|4,0:0|0:0|0:0,0:0:0:0:
431,336,12154,6,0,P|408:304|408:256,1,90
460,180,12786,2,0,B|488:144|472:100|472:100|484:92|484:92|468:48|492:12,2,180,2|0|6,0:0|0:0|0:0,0:0:0:0:
284,132,14681,6,0,L|100:104,1,180,0|0,0:0|3:0,0:0:0:0:
72,280,15944,2,0,P|60:236|80:192,1,90
106,104,16575,6,0,P|172:152|160:244,1,180,4|0,0:0|0:0,0:0:0:0:
350,241,17839,2,0,P|337:157|405:104,1,180
440,279,19102,6,0,P|452:237|436:196,1,90,4|8,0:0|0:0,0:0:0:0:
350,241,19733,2,0,B|260:232|260:232|176:280,2,180,0|0|0,0:0|0:0|0:0,0:0:0:0:
256,192,21628,12,0,22891,0:0:0:0:
24,176,24154,6,0,B|88:144|140:224|204:200,1,180,6|0,0:0|0:0,0:0:0:0:
272,256,25102,1,8,0:0:0:0:
280,168,25418,6,0,P|264:136|216:116,1,89.9999999999999,0|8,0:0|0:0,0:0:0:0:
128,136,26049,2,0,P|124:92|148:52,1,89.9999999999999,0|8,0:0|0:0,0:0:0:0:
236,36,26681,6,0,P|288:52|360:152,1,180,0|0,0:0|0:0,0:0:0:0:
348,240,27628,2,0,P|340:264|352:332,2,89.9999999999999,8|2|8,0:0|0:0|0:0,0:0:0:0:
432,208,28575,6,0,P|368:152|280:180,1,180,0|4,0:0|0:0,0:0:0:0:
136,268,29839,2,0,P|148:228|136:180,1,89.9999999999999,0|8,0:0|0:0,0:0:0:0:
60,228,30470,6,0,P|52:304|136:356,1,180
256,228,31733,2,0,L|256:320,2,89.9999999999999,2|8|0,0:0|0:0|0:0,0:0:0:0:
381,356,32996,2,0,P|455:313|452:228,1,180,2|2,0:0|0:0,0:0:0:0:
372,268,33944,1,8,0:0:0:0:
292,308,34260,6,0,B|256:252|300:184|348:176|348:176|316:156|304:108|320:80,1,270,6|8,0:0|0:0,0:0:0:0:
408,104,35523,2,0,P|436:136|440:188,1,90,2|8,0:0|0:0,0:0:0:0:
384,252,36154,1,0,0:0:0:0:
472,272,36470,1,8,0:0:0:0:
412,340,36786,6,0,P|328:332|292:252,2,180,2|0|0,0:0|0:0|0:0,0:0:0:0:
340,176,38681,2,0,P|292:160|244:180,1,90,0|8,0:0|0:0,0:0:0:0:
192,236,39312,6,0,B|148:272|64:204|12:244,2,180,4|0|0,0:0|0:0|0:0,0:0:0:0:
240,312,40891,2,0,B|288:284|372:336|420:308,1,180,8|8,0:0|0:0,0:0:0:0:
484,372,41839,1,2,0:0:0:0:
508,288,42154,2,0,P|472:216|460:112,1,180,8|8,0:0|0:0,0:0:0:0:
372,140,43102,2,0,P|376:196|404:280,2,135,2|2|8,0:0|0:0|0:0,0:0:0:0:
300,84,44365,6,0,P|232:60|160:208,1,270,4|6,0:0|0:0,0:0:0:0:
204,280,45628,2,0,P|236:252|244:204,1,90,8|8,0:0|0:0,0:0:0:0:
316,156,46260,1,0,0:0:0:0:
400,192,46575,1,8,0:0:0:0:
392,104,46891,6,0,P|292:64|232:192,1,270,6|6,0:0|0:0,0:0:0:0:
252,272,48154,2,0,P|296:248|312:208,1,90,8|8,0:0|0:0,0:0:0:0:
396,184,48786,1,0,0:0:0:0:
384,272,49102,1,8,0:0:0:0:
468,240,49418,6,0,P|488:160|424:96,1,180,4|0,0:0|0:0,0:0:0:0:
344,136,50365,2,0,B|252:172|260:116|168:136,1,180,2|8,0:0|0:0,0:0:0:0:
87,96,51312,2,0,P|25:155|44:240,1,180,0|4,0:0|0:0,0:0:0:0:
168,292,52418,2,0,P|200:280|280:328,1,135,2|4,0:0|0:0,0:0:0:0:
408,88,53839,2,0,L|304:72,1,90,0|8,0:0|0:0,0:0:0:0:
268,152,54470,6,0,L|404:172,2,135,6|6|2,0:0|0:0|0:0,0:0:0:0:
192,40,55891,2,0,P|140:84|132:160,1,135,0|2,0:0|0:0,0:0:0:0:
44,120,56681,1,2,0:0:0:0:
60,212,56996,6,0,B|68:280|68:280|36:340,2,135,6|2|2,0:0|0:0|0:0,0:0:0:0:
172,288,58418,2,0,P|208:280|280:336,1,135,0|8,0:0|0:0,0:0:0:0:
360,296,59207,1,8,0:0:0:0:
436,344,59523,6,0,P|452:284|416:224,2,135,4|2|2,0:0|0:0|0:0,0:0:0:0:
328,200,61102,6,0,P|348:160|392:140,2,90,0|2|2,0:0|0:0|0:0,0:0:0:0:
240,184,62049,2,0,P|216:220|128:232,2,135,6|6|6,0:0|0:0|0:0,0:0:0:0:
256,192,63154,12,0,64733,0:0:0:0:
256,112,65839,6,0,B|168:140|168:88|80:112,2,180,6|0|2,0:0|0:0|0:0,0:0:0:0:
320,48,67418,1,8,0:0:0:0:
344,136,67733,2,0,L|336:232,1,89.9999999999999,0|8,0:0|0:0,0:0:0:0:
420,264,68365,6,0,L|436:80,2,180,2|0|2,0:0|0:0|0:0,0:0:0:0:
256,188,70260,1,0,0:0:0:0:
92,264,70891,6,0,P|48:264|8:292,1,90,6|8,0:0|0:0,0:0:0:0:
76,352,71523,2,0,P|124:352|160:328,1,90,0|8,0:0|0:0,0:0:0:0:
188,248,72154,2,0,P|164:208|168:164,1,89.9999999999999,2|8,0:0|0:0,0:0:0:0:
256,152,72786,1,0,0:0:0:0:
200,80,73102,1,8,0:0:0:0:
288,72,73418,6,0,B|348:88|368:172|312:220|312:220|356:244|356:292,1,270,8|8,0:0|0:0,0:0:0:0:
268,300,74681,6,0,P|256:348|224:376,1,90,12|8,0:0|0:0,0:0:0:0:
176,292,75312,2,2,P|132:284|104:168,1,180,8|6,0:0|0:0,0:0:0:0:
188,140,76260,5,8,0:0:0:0:
124,80,76575,1,0,0:0:0:0:
212,56,76891,2,0,B|260:-4|320:104|376:52,1,180,8|8,0:0|0:0,0:0:0:0:
392,140,77839,2,0,P|388:176|412:224,2,89.9999999999999,0|8|2,0:0|0:0|0:0,0:0:0:0:
480,160,78786,5,0,0:0:0:0:
504,248,79102,2,0,P|456:312|360:308,1,180,0|2,0:0|0:0,0:0:0:0:
292,264,80049,2,0,P|252:252|204:264,1,89.9999999999999,8|0,0:0|0:0,0:0:0:0:
148,332,80681,1,8,0:0:0:0:
116,248,80996,6,0,B|144:164|144:164|124:72,1,180,4|0,0:0|0:0,0:0:0:0:
60,136,81944,2,0,P|140:168|208:112,1,180,8|8,0:0|0:0,0:0:0:0:
256,40,82891,1,0,0:0:0:0:
296,120,83207,1,8,0:0:0:0:
348,48,83523,6,0,P|388:36|436:52,2,90,4|8|0,0:0|0:0|0:0,0:0:0:0:
388,128,84470,2,0,B|368:217|368:217|396:301,1,180,4|8,0:0|0:0,0:0:0:0:
488,308,85418,2,0,L|460:220,1,89.9999999999999,0|8,0:0|0:0,0:0:0:0:
488,136,86049,5,4,0:0:0:0:
436,64,86365,2,0,P|408:84|348:84,1,89.9999999999999,8|0,0:0|0:0,0:0:0:0:
276,132,86996,2,0,P|272:100|208:160,1,180,8|8,0:0|0:0,0:0:0:0:
244,220,87944,1,0,0:0:0:0:
156,232,88260,1,8,0:0:0:0:
80,180,88575,6,0,P|64:260|132:324,1,180,6|0,0:0|0:0,0:0:0:0:
216,304,89523,2,0,B|296:336|312:280|392:308,1,180,8|8,0:0|0:0,0:0:0:0:
452,240,90470,2,0,P|480:272|480:324,2,89.9999999999999,0|8|6,0:0|0:0|0:0,0:0:0:0:
376,192,91418,5,8,0:0:0:0:
452,144,91733,2,0,P|480:112|480:64,2,89.9999999999999,0|8|2,0:0|0:0|0:0,0:0:0:0:
368,108,92681,2,0,P|316:132|312:248,1,180,8|8,0:0|0:0,0:0:0:0:
224,280,93628,6,0,P|204:248|152:228,1,89.9999999999999,4|8,0:0|0:0,0:0:0:0:
68,216,94260,2,0,P|88:168|80:128,1,89.9999999999999,0|12,0:0|0:0,0:0:0:0:
340,52,95523,2,0,P|320:128|348:224,1,180,0|6,0:0|0:0,0:0:0:0:
256,192,96470,12,0,98681,0:0:0:0:
256,168,99944,5,0,0:0:0:0:
108,64,100575,2,0,P|152:76|196:64,1,89.9999999999999
284,56,101207,6,0,P|332:72|360:204,1,180,4|0,0:0|0:0,0:0:0:0:
224,292,102470,2,0,P|176:276|148:144,2,180
300,244,104049,5,0,0:0:0:0:
384,272,104365,2,0,P|388:220|368:184,1,89.9999999999999
444,136,104996,2,0,P|476:212|464:308,1,180,0|0,0:0|3:0,0:0:0:0:
396,364,105944,1,8,0:0:0:0:
