osu file format v14

[General]
AudioFilename: kungfuempire.mp3
AudioLeadIn: 0
PreviewTime: 138401
Countdown: 0
SampleSet: Soft
StackLeniency: 0.9
Mode: 0
LetterboxInBreaks: 0
EpilepsyWarning: 1
WidescreenStoryboard: 1

[Editor]
Bookmarks: 2130,12975,14331,25178,36026,46873,57721,63146,79416,90263,92975,98401,114672,125517,136365,139077,160772,171619,182466,193314,198738,215009,225856,236704,239416,261111,271958,293655,304500,315348,320803
DistanceSpacing: 1
BeatDivisor: 4
GridSize: 4
TimelineZoom: 1.999999

[Metadata]
Title:Kung-fu Empire
TitleUnicode:Kung-fu Empire
Artist:Nekomata Master+
ArtistUnicode:猫叉Master+
Creator:Damnae
Version:Backdrop
Source:beatmania IIDX
Tags:飛燕流舞 naoyuki sato hien ryuubu backdrops asian jangle jungle empress
BeatmapID:418725
BeatmapSetID:173288

[Difficulty]
HPDrainRate:7
CircleSize:4
OverallDifficulty:8
ApproachRate:9
SliderMultiplier:1.6
SliderTickRate:1

[Events]
//Background and Video events
0,0,"thanksobamacat.png",0,0
//Break Periods
2,90465,92207
2,193516,197292
//Storyboard Layer 0 (Background)
//Storyboard Layer 1 (Fail)
//Storyboard Layer 2 (Pass)
//Storyboard Layer 3 (Foreground)
//Storyboard Sound Samples

[TimingPoints]
2130,338.983050847458,4,2,5,20,1,0
2130,-133.333333333333,4,2,5,20,0,0
3824,-133.333333333333,4,3,5,10,0,0
4333,-133.333333333333,4,2,5,20,0,0
5350,-133.333333333333,4,3,5,10,0,0
6028,-133.333333333333,4,2,5,20,0,0
10774,-133.333333333333,4,3,5,10,0,0
11113,-133.333333333333,4,2,5,20,0,0
12807,-133.333333333333,4,2,5,15,0,0
12977,-100,4,2,3,50,0,0
13316,-100,4,2,3,30,0,0
13485,-100,4,2,3,50,0,0
13824,-100,4,2,3,40,0,0
13994,-100,4,2,3,30,0,0
14079,-100,4,2,3,35,0,0
14163,-100,4,2,3,40,0,0
14248,-100,4,2,3,45,0,0
14333,-100,4,2,3,50,0,0
34841,-100,4,2,3,20,0,0
35011,-100,4,2,3,50,0,0
35180,-100,4,2,3,20,0,0
35350,-100,4,2,3,50,0,0
36028,-100,4,2,3,60,0,0
42468,-100,4,2,3,30,0,0
42638,-100,4,2,3,60,0,0
43655,-100,4,2,3,5,0,0
43711,-100,4,2,3,60,0,0
45180,-100,4,2,3,50,0,0
46197,-100,4,2,3,30,0,0
46536,-100,4,2,3,35,0,0
46875,-100,4,2,3,50,0,0
48909,-100,4,2,3,30,0,0
49079,-100,4,2,3,50,0,0
50774,-100,4,2,3,30,0,0
50943,-100,4,2,3,50,0,0
51791,-100,4,2,3,30,0,0
51960,-100,4,2,3,50,0,0
53316,-100,4,2,3,30,0,0
53485,-100,4,2,3,30,0,0
53655,-100,4,2,3,50,0,0
57553,-100,4,2,3,60,0,0
60096,-100,4,3,3,60,0,0
60265,-100,4,2,3,60,0,0
64163,-100,4,3,3,60,0,0
64333,-100,4,2,3,60,0,0
79248,-100,4,2,3,40,0,0
79418,-100,4,2,3,50,0,0
79926,-100,4,2,3,40,0,0
80265,-100,4,2,3,50,0,0
89587,-100,4,3,3,50,0,0
89926,-100,4,2,3,50,0,0
92807,-100,4,2,3,60,0,0
95350,-100,4,3,3,60,0,0
95519,-100,4,2,3,60,0,0
100689,-100,4,2,3,40,0,0
100774,-100,4,2,3,60,0,0
114672,-133.333333333333,4,2,4,50,0,0
125519,-133.333333333333,4,2,4,40,0,0
127807,-133.333333333333,4,2,4,30,0,0
128062,-133.333333333333,4,2,4,20,0,0
128231,-133.333333333333,4,2,4,40,0,0
129587,-100,4,2,4,40,0,0
130265,-83.3333333333333,4,2,4,40,0,0
130943,-133.333333333333,4,2,4,40,0,0
135350,-100,4,2,4,40,0,0
135689,-83.3333333333333,4,2,4,40,0,0
136028,-83.3333333333333,4,2,1,40,0,0
138401,-83.3333333333333,4,2,4,5,0,0
138909,-83.3333333333333,4,2,3,50,0,0
139079,-83.3333333333333,4,2,3,70,0,1
148401,-83.3333333333333,4,2,3,50,0,1
148570,-83.3333333333333,4,2,3,70,0,1
153824,-83.3333333333333,4,2,4,70,0,1
153994,-83.3333333333333,4,2,3,70,0,1
171621,-100,4,2,3,60,0,0
182468,-100,4,2,3,50,0,0
197892,-100,4,2,3,20,0,0
198062,-100,4,2,3,50,0,0
198231,-100,4,2,3,20,0,0
198401,-100,4,2,3,30,0,0
198740,-100,4,2,3,60,0,0
215011,-133.333333333333,4,2,4,50,0,0
225858,-133.333333333333,4,2,4,40,0,0
228146,-133.333333333333,4,2,4,30,0,0
228401,-133.333333333333,4,2,4,20,0,0
228570,-133.333333333333,4,2,4,40,0,0
229587,-133.333333333333,4,2,4,44,0,0
229926,-100,4,2,4,48,0,0
230604,-83.3333333333333,4,2,4,52,0,0
231282,-133.333333333333,4,2,4,40,0,0
235689,-100,4,2,4,40,0,0
236028,-83.3333333333333,4,2,4,40,0,0
236367,-83.3333333333333,4,2,4,40,0,0
237892,-83.3333333333333,4,2,4,15,0,0
238062,-83.3333333333333,4,2,4,25,0,0
239248,-83.3333333333333,4,2,3,50,0,0
239418,-83.3333333333333,4,2,3,70,0,1
248740,-83.3333333333333,4,2,3,50,0,1
248909,-83.3333333333333,4,2,3,70,0,1
254163,-83.3333333333333,4,2,4,70,0,1
254333,-83.3333333333333,4,2,3,70,0,1
269248,-83.3333333333333,4,2,3,60,0,1
269587,-83.3333333333333,4,2,3,70,0,1
271621,-83.3333333333333,4,2,3,70,0,0
271960,-83.3333333333333,4,2,3,70,0,1
292299,-83.3333333333333,4,2,3,70,0,0
293655,-83.3333333333333,4,2,3,70,0,1
314672,-83.3333333333333,4,2,3,50,0,1
314841,-83.3333333333333,4,2,3,70,0,1
315350,-100,4,2,2,30,0,0
315689,-100,4,2,3,30,0,0
316367,344.827586206897,4,2,3,30,1,0
317229,344.827586206897,4,2,3,30,1,0
317918,394.736842105263,4,2,3,30,1,0
318707,428.571428571429,4,2,3,30,1,0
319349,468.75,4,2,3,20,1,0
320286,517.241379310345,4,2,3,10,1,0
320803,-100,4,2,1,5,0,0

[Colours]
Combo1 : 255,94,55
Combo2 : 173,255,95
Combo3 : 17,254,176
Combo4 : 255,88,100

[HitObjects]
147,48,2130,6,0,L|153:107,1,60.0000022888184,2|0,1:2|2:0,0:0:0:0:
224,172,2468,1,0,3:0:0:0:
60,124,2638,1,2,0:0:0:0:
60,124,2977,6,0,L|132:132,1,60.0000022888184,0|0,3:0|1:0,0:0:0:0:
184,201,3316,1,0,0:0:0:0:
288,80,3485,2,0,L|216:72,1,60.0000022888184,2|2,0:0|0:0,0:0:0:0:
228,74,3740,1,0,0:0:0:0:
228,74,3824,6,0,P|208:156|276:224,1,180.000006866455,0|2,0:0|3:2,0:0:0:0:
336,288,4502,1,2,0:0:0:0:
245,318,4672,1,0,0:0:0:0:
245,318,4757,1,0,0:0:0:0:
245,318,4841,1,2,1:2:0:0:
341,168,5011,2,0,L|413:176,1,60.0000022888184,0|0,0:0|3:0,0:0:0:0:
378,83,5350,6,0,P|293:89|287:241,1,240.000009155274,2|2,2:0|3:2,0:0:0:0:
267,221,6113,1,0,0:0:0:0:
267,221,6197,1,2,0:0:0:0:
462,294,6367,6,0,L|390:286,1,60.0000022888184,2|0,0:0|3:0,0:0:0:0:
234,338,6706,1,2,0:0:0:0:
234,338,6791,1,2,0:0:0:0:
234,338,6875,2,0,L|306:346,1,60.0000022888184,0|0,0:0|1:0,0:0:0:0:
267,221,7214,2,0,L|195:213,1,60.0000022888184,0|0,0:0|0:0,0:0:0:0:
40,180,7553,5,2,1:2:0:0:
132,156,7722,1,0,0:0:0:0:
56,96,7891,1,0,3:0:0:0:
116,240,8062,2,0,L|100:384,1,120.000004577637,2|0,0:0|3:0,0:0:0:0:
234,338,8570,2,0,L|242:266,1,60.0000022888184,0|0,1:0|3:0,0:0:0:0:
240,278,8824,1,0,0:0:0:0:
240,278,8909,5,2,0:0:0:0:
335,267,9079,2,0,L|371:263,3,30.0000011444092,2|0|0|0,0:0|0:0|0:0|0:0,0:0:0:0:
288,188,9418,2,0,L|270:186,3,15.0000005722046
376,187,9587,6,0,L|380:146,2,40.000001525879,0|2|0,0:0|0:0|3:0,0:0:0:0:
423,265,9926,2,0,L|418:305,2,40.000001525879,0|2|0,0:0|0:0|3:0,0:0:0:0:
464,185,10265,6,0,L|500:181,2,30.0000011444092,2|0|2,0:0|0:0|0:0,0:0:0:0:
417,107,10604,1,0,3:0:0:0:
376,187,10774,2,0,L|360:331,1,120.000004577637,2|0,2:0|0:0,0:0:0:0:
288,367,11282,2,0,L|144:351,1,120.000004577637,0|0,3:0|0:0,0:0:0:0:
214,268,11791,5,2,0:0:0:0:
23,345,11960,2,0,L|143:332,2,120.000004577637,0|0|0,3:0|0:0|1:0,0:0:0:0:
20,239,12807,1,0,1:0:0:0:
20,239,12977,6,0,P|92:249|191:257,1,160,0|12,1:0|0:0,0:0:0:0:
207,173,13485,2,0,P|127:166|48:155,1,160,0|12,1:0|0:0,0:0:0:0:
289,139,13994,1,12,0:0:0:0:
289,139,14079,1,8,0:0:0:0:
289,139,14163,1,0,1:0:0:0:
289,139,14248,1,0,1:0:0:0:
289,139,14333,6,0,P|320:137|368:132,1,80,4|2,1:0|0:0,0:0:0:0:
398,215,14672,2,0,P|358:219|318:222,1,80,0|0,3:0|0:0,0:0:0:0:
106,195,15011,1,2,0:0:0:0:
196,122,15180,2,0,P|202:201|214:281,1,160,0|0,3:0|3:0,0:0:0:0:
299,377,15689,6,0,P|302:337|306:298,1,80,0|2,0:0|0:0,0:0:0:0:
306,298,15943,1,2,0:0:0:0:
306,298,16028,2,0,P|345:294|385:291,1,80,0|0,3:0|0:0,0:0:0:0:
455,237,16367,2,0,L|458:197|461:157,1,80,2|0,0:0|3:0,0:0:0:0:
414,82,16706,6,0,L|368:78,1,40,0|0,3:0|3:0,0:0:0:0:
308,126,16875,2,0,L|262:129,1,40,0|0,0:0|3:0,0:0:0:0:
191,104,17045,1,0,1:0:0:0:
110,69,17214,5,2,0:0:0:0:
215,21,17384,1,0,3:0:0:0:
290,108,17553,2,0,P|301:188|308:268,1,160,0|0,0:0|3:0,0:0:0:0:
307,266,17977,1,2,0:0:0:0:
307,266,18062,1,2,0:0:0:0:
211,335,18231,1,0,3:0:0:0:
209,247,18401,5,0,0:0:0:0:
343,276,18570,2,0,P|415:286|514:294,1,160,2|0,0:0|0:0,0:0:0:0:
177,246,19079,2,0,P|97:252|18:263,1,160,2|0,0:0|0:0,0:0:0:0:
18,263,19502,1,0,3:0:0:0:
18,263,19587,1,0,0:0:0:0:
18,263,19672,1,0,3:0:0:0:
18,263,19757,6,0,P|20:232|25:184,1,80,4|2,0:0|0:0,0:0:0:0:
160,87,20096,2,0,P|170:159|178:258,1,160,0|2,3:0|0:0,0:0:0:0:
320,331,20604,2,0,P|326:252|337:173,1,160,0|0,3:0|0:0,0:0:0:0:
476,50,21113,6,0,P|481:90|484:130,1,80,0|2,0:0|0:0,0:0:0:0:
484,130,21367,1,2,0:0:0:0:
484,130,21452,2,0,P|445:126|405:123,1,80,0|0,3:0|0:0,0:0:0:0:
260,26,21791,2,0,P|256:80|249:133,1,106.666666666667,0|0,0:0|3:0,0:0:0:0:
195,144,22130,2,0,L|137:159,1,53.3333333333333,0|0,0:0|3:0,0:0:0:0:
105,197,22355,2,0,L|120:255,1,53.3333333333333
212,311,22638,5,2,0:0:0:0:
119,373,22807,1,0,3:0:0:0:
212,311,22977,2,0,P|291:317|370:328,1,160,0|0,0:0|3:0,0:0:0:0:
371,328,23401,1,2,0:0:0:0:
371,328,23485,1,0,0:0:0:0:
498,197,23655,6,0,P|426:207|327:215,1,160,0|2,3:0|0:0,0:0:0:0:
206,136,24163,2,0,P|245:137|285:142,1,80,0|2,3:0|0:0,0:0:0:0:
351,84,24502,1,0,0:0:0:0:
135,189,24672,2,0,P|95:185|55:180,1,80,0|0,3:0|0:0,0:0:0:0:
55,180,24926,1,0,3:0:0:0:
55,180,25011,1,0,0:0:0:0:
55,180,25096,1,0,3:0:0:0:
55,180,25180,6,0,P|65:252|73:351,1,160,4|0,0:1|3:0,0:0:0:0:
214,253,25689,2,0,P|220:173|231:94,1,160,2|0,0:0|3:0,0:0:0:0:
366,190,26197,2,0,P|371:230|374:270,1,80,2|0,0:0|3:0,0:0:0:0:
319,339,26536,5,0,0:0:0:0:
471,304,26706,1,2,0:0:0:0:
366,190,26875,1,0,3:0:0:0:
304,252,27045,1,0,0:0:0:0:
304,252,27130,1,0,0:0:0:0:
304,252,27214,2,0,P|264:248|224:245,1,80,2|0,0:0|3:0,0:0:0:0:
256,102,27553,1,0,3:0:0:0:
256,102,27638,1,0,3:0:0:0:
256,102,27723,1,0,0:0:0:0:
256,102,27807,1,0,3:0:0:0:
256,102,27892,6,0,P|295:104|335:108,1,80,0|2,0:0|0:0,0:0:0:0:
454,209,28231,1,0,3:0:0:0:
304,252,28401,2,0,P|232:262|133:270,1,160,0|0,0:0|3:0,0:0:0:0:
161,182,28909,2,0,P|158:142|154:102,1,80,2|0,0:0|3:0,0:0:0:0:
154,102,29163,1,0,0:0:0:0:
154,102,29248,6,0,P|193:99|233:95,1,80
103,248,29587,1,0,3:0:0:0:
165,322,29757,1,2,0:0:0:0:
224,258,29926,2,0,P|264:254|303:252,1,80,0|0,0:0|3:0,0:0:0:0:
409,136,30265,1,0,3:0:0:0:
403,155,30350,1,0,3:0:0:0:
402,175,30435,1,0,0:0:0:0:
405,194,30519,1,0,3:0:0:0:
410,213,30604,6,0,P|414:253|416:292,1,80,4|0,0:1|0:0,0:0:0:0:
348,349,30943,1,0,3:0:0:0:
224,258,31113,2,0,P|235:179|241:99,1,160,2|0,0:0|3:0,0:0:0:0:
175,40,31621,1,2,0:0:0:0:
329,109,31791,2,0,P|323:189|312:268,1,160,0|0,3:0|0:0,0:0:0:0:
312,268,32214,1,2,0:0:0:0:
312,268,32299,6,0,P|352:264|391:262,1,80,0|0,3:0|0:0,0:0:0:0:
183,337,32638,2,0,P|179:297|177:258,1,80
177,230,32864,2,0,P|150:227|124:225,3,53.3333333333333,0|0|0|2,3:0|0:0|3:0|0:0,0:0:0:0:
86,302,33316,6,0,P|72:341|66:352,2,40,2|2|2,0:0|0:0|0:0,0:0:0:0:
37,227,33655,1,0,3:0:0:0:
119,195,33824,2,0,P|130:116|136:36,2,160,0|0|0,0:0|3:0|3:0,0:0:0:0:
86,302,34672,1,2,0:0:0:0:
37,227,34842,5,4,0:0:0:0:
168,270,35011,1,0,3:0:0:0:
299,227,35180,1,8,0:0:0:0:
430,270,35350,1,0,3:0:0:0:
430,270,35435,6,0,P|426:230|424:191,1,80,0|0,3:0|3:0,0:0:0:0:
508,116,35689,1,0,0:0:0:0:
508,116,35774,2,0,P|505:155|502:195,1,80,0|0,3:0|3:0,0:0:0:0:
502,196,36028,5,4,1:2:0:0:
352,139,36197,1,2,0:0:0:0:
308,18,36367,1,0,3:0:0:0:
262,92,36536,2,0,P|183:103|103:109,1,160,4|0,1:1|3:0,0:0:0:0:
146,186,37045,2,0,P|185:183|225:179,1,80,0|0,0:0|3:0,0:0:0:0:
352,245,37384,5,0,1:0:0:0:
352,245,37468,1,0,0:0:0:0:
352,245,37553,1,2,0:0:0:0:
308,366,37723,1,0,3:0:0:0:
262,292,37892,2,0,P|183:281|103:275,1,160,0|0,1:0|3:0,0:0:0:0:
26,320,38401,1,0,3:0:0:0:
26,320,38485,1,0,3:0:0:0:
1,235,38655,1,0,3:0:0:0:
1,235,38740,1,4,1:2:0:0:
151,178,38909,5,2,0:0:0:0:
195,57,39079,1,0,3:0:0:0:
241,131,39248,2,0,P|300:139|360:143,1,120,4|0,1:1|0:0,0:0:0:0:
360,143,39587,2,0,P|358:163|357:182,4,40,0|0|0|0|0,3:0|0:0|0:0|0:0|3:0,0:0:0:0:
486,64,40096,1,0,1:0:0:0:
511,149,40265,1,2,0:0:0:0:
361,206,40435,5,0,3:0:0:0:
317,327,40605,1,0,1:0:0:0:
440,295,40774,1,0,1:0:0:0:
484,174,40944,1,2,0:0:0:0:
361,206,41113,2,0,P|321:209|281:211,1,80,0|0,3:0|0:0,0:0:0:0:
281,212,41367,1,0,3:0:0:0:
281,212,41452,6,0,P|287:132|298:53,1,160,4|0,1:2|3:0,0:0:0:0:
78,119,41960,2,0,P|89:198|95:278,1,160,4|0,1:1|3:0,0:0:0:0:
179,251,42468,2,0,P|180:211|185:171,1,80,8|0,0:3|3:0,0:0:0:0:
29,194,42807,5,0,1:0:0:0:
179,251,42976,1,2,0:0:0:0:
223,372,43146,1,0,3:0:0:0:
269,298,43315,2,0,P|348:287|456:281,1,186.666666666667,0|0,1:0|3:0,0:0:0:0:
477,295,43824,2,0,P|479:321|481:348,2,53.3333333333333,0|0|0,0:0|3:0|0:0,0:0:0:0:
427,199,44163,6,0,P|433:119|444:40,1,160,4|0,1:2|3:0,0:0:0:0:
347,135,44672,2,0,P|267:146|188:151,1,160,4|0,1:1|3:0,0:0:0:0:
125,214,45180,1,2,0:0:0:0:
119,233,45265,1,2,0:0:0:0:
118,253,45350,1,10,0:0:0:0:
121,272,45434,1,2,0:0:0:0:
126,290,45519,6,0,P|128:310|129:329,3,40,4|2|0|2,1:2|0:0|0:0|0:0,0:0:0:0:
212,260,45858,2,0,P|210:240|209:221,3,40,8|2|0|2,0:0|0:0|0:0|0:0,0:0:0:0:
291,297,46197,2,0,P|293:317|294:336,3,40,0|2|0|2,1:2|1:2|1:2|1:2,0:0:0:0:
377,267,46536,2,0,P|375:247|374:228,3,40,8|8|0|2,2:2|2:2|1:2|1:2,0:0:0:0:
377,267,46875,6,0,L|468:283,1,80,12|0,1:2|0:0,0:0:0:0:
455,280,47214,1,8,0:0:0:0:
377,148,47384,2,0,L|286:164,1,80,0|0,1:0|0:0,0:0:0:0:
136,45,47723,2,0,L|294:73,1,160,8|8,0:0|0:0,0:0:0:0:
293,72,48231,5,0,1:0:0:0:
147,133,48401,2,0,L|69:119,1,80,0|8,0:0|0:0,0:0:0:0:
206,198,48740,2,0,L|220:276,1,80,0|0,1:0|3:0,0:0:0:0:
356,220,49079,2,0,L|434:206,1,80,8|0,0:0|1:0,0:0:0:0:
434,206,49333,1,8,0:0:0:0:
434,206,49418,1,0,1:0:0:0:
434,206,49502,1,8,0:0:0:0:
434,206,49587,6,0,L|420:284,1,80,0|0,1:0|0:0,0:0:0:0:
273,88,49926,1,8,0:0:0:0:
342,143,50096,2,0,L|356:221,1,80,0|0,1:0|0:0,0:0:0:0:
245,246,50435,2,0,L|273:88,1,160,8|0,0:0|3:0,0:0:0:0:
171,183,50943,6,0,L|157:261,1,80,0|0,1:0|0:0,0:0:0:0:
79,120,51282,2,0,L|93:198,1,80,8|0,0:0|1:0,0:0:0:0:
171,57,51621,2,0,L|157:135,1,80,0|4,0:0|3:0,0:0:0:0:
273,88,51960,1,8,0:0:0:0:
293,88,52045,1,8,0:0:0:0:
313,88,52130,1,0,0:0:0:0:
332,88,52214,1,8,0:2:0:0:
352,88,52299,6,0,L|443:72,1,80,4|0,1:1|0:0,0:0:0:0:
430,75,52638,1,8,0:0:0:0:
352,207,52808,2,0,L|261:191,1,80,0|0,1:0|0:0,0:0:0:0:
99,234,53146,1,8,0:0:0:0:
82,75,53316,2,0,L|66:166,1,80,4|0,0:3|3:0,0:0:0:0:
155,166,53655,6,0,L|171:75,1,80,0|0,1:0|0:0,0:0:0:0:
202,245,53994,2,0,L|218:336,2,80,8|0|0,0:0|1:0|0:0,0:0:0:0:
256,175,54502,6,0,L|301:167,1,40,0|0,0:0|3:0,0:0:0:0:
372,194,54672,2,0,L|417:202,1,40,0|0,2:0|3:0,0:0:0:0:
487,175,54841,1,0,1:0:0:0:
487,175,54926,1,0,1:0:0:0:
487,175,55011,6,0,L|396:191,1,80,0|0,1:0|0:0,0:0:0:0:
337,137,55349,1,8,0:0:0:0:
217,307,55519,2,0,L|201:216,1,80,0|0,1:0|0:0,0:0:0:0:
175,137,55858,1,8,0:0:0:0:
336,136,56028,2,0,L|320:227,1,80,0|0,0:0|3:0,0:0:0:0:
103,188,56367,6,0,L|25:175,1,80,0|8,1:0|0:0,0:0:0:0:
25,175,56621,1,8,0:0:0:0:
25,175,56706,2,0,P|48:212|64:248,1,80,8|0,0:0|1:0,0:0:0:0:
175,137,57045,2,0,P|198:100|214:64,2,80,8|8|4,0:0|2:0|2:0,0:0:0:0:
337,137,57553,5,8,2:0:0:0:
356,134,57638,1,10,2:0:0:0:
375,131,57723,1,4,1:0:0:0:
175,246,57892,1,2,0:0:0:0:
156,250,57977,1,2,0:0:0:0:
137,253,58062,1,8,0:0:0:0:
336,355,58231,1,0,1:0:0:0:
356,359,58316,1,2,0:0:0:0:
374,362,58401,1,0,0:0:0:0:
257,238,58570,1,10,0:0:0:0:
253,218,58655,1,2,0:0:0:0:
250,200,58740,2,0,P|257:120|268:41,1,160,0|0,1:0|1:0,0:0:0:0:
175,246,59248,5,2,0:0:0:0:
178,265,59333,1,2,0:0:0:0:
181,284,59418,1,8,0:0:0:0:
66,84,59587,1,2,1:2:0:0:
62,65,59672,1,2,0:0:0:0:
59,46,59757,1,0,0:0:0:0:
21,201,59926,5,8,0:0:0:0:
175,246,60096,2,0,P|206:244|254:239,1,80,0|4,2:0|0:0,0:0:0:0:
402,190,60435,2,0,P|362:185|323:183,1,80,0|0,1:0|0:0,0:0:0:0:
256,123,60774,5,8,0:0:0:0:
452,167,60944,1,0,1:0:0:0:
365,98,61113,1,0,0:0:0:0:
452,279,61282,1,10,0:0:0:0:
471,282,61367,1,2,0:0:0:0:
490,285,61452,1,2,0:0:0:0:
256,324,61621,1,0,0:0:0:0:
365,349,61791,5,0,1:0:0:0:
207,223,61960,1,2,0:0:0:0:
188,226,62045,1,2,0:0:0:0:
169,229,62130,1,10,0:0:0:0:
147,98,62299,1,0,1:0:0:0:
256,123,62468,5,0,0:0:0:0:
60,279,62638,1,2,0:0:0:0:
41,282,62723,1,2,0:0:0:0:
22,285,62808,1,10,0:0:0:0:
218,318,62977,1,2,0:0:0:0:
237,321,63062,1,2,0:0:0:0:
256,324,63146,6,0,P|335:317|414:306,1,160,4|8,1:0|0:0,0:0:0:0:
394,220,63655,2,0,P|400:140|411:61,1,160,0|8,1:0|0:0,0:0:0:0:
178,33,64163,6,0,P|173:72|170:112,1,80,0|0,2:0|0:0,0:0:0:0:
226,180,64502,2,0,P|265:175|305:172,1,80,0|0,1:0|0:0,0:0:0:0:
256,324,64841,2,0,P|216:319|176:316,1,80,8|0,0:0|1:0,0:0:0:0:
125,244,65180,1,0,0:0:0:0:
226,180,65350,2,0,L|222:134,1,40,0|0,3:0|3:0,0:0:0:0:
150,106,65519,6,0,P|110:101|70:98,1,80,0|8,1:0|2:0,0:0:0:0:
362,106,65858,1,0,1:0:0:0:
362,106,66197,6,0,P|358:145|355:185,1,80,8|2,0:0|0:0,0:0:0:0:
125,244,66536,1,0,1:0:0:0:
125,244,66875,6,0,P|130:204|133:164,1,80,8|2,0:0|0:0,0:0:0:0:
226,180,67214,2,0,P|222:219|218:259,1,80,0|0,1:0|0:0,0:0:0:0:
225,311,67468,2,0,L|229:357,1,40,0|8,0:0|0:0,0:0:0:0:
329,151,67723,1,0,1:0:0:0:
321,100,67807,2,0,L|317:54,1,40,0|0,0:0|1:0,0:0:0:0:
420,242,68062,1,8,0:0:0:0:
414,293,68146,2,0,L|410:339,1,40,8|0,0:0|1:0,0:0:0:0:
167,260,68401,5,2,0:0:0:0:
148,263,68486,1,2,0:0:0:0:
129,266,68571,1,2,1:2:0:0:
329,151,68740,1,2,0:0:0:0:
348,147,68825,1,2,0:0:0:0:
367,144,68910,1,10,0:0:0:0:
168,42,69079,1,2,1:2:0:0:
148,38,69164,1,2,0:0:0:0:
130,35,69249,1,2,0:0:0:0:
247,159,69418,1,10,0:0:0:0:
251,179,69503,1,2,0:0:0:0:
254,197,69588,2,0,P|247:277|236:356,1,160,0|0,1:0|1:0,0:0:0:0:
129,266,70096,5,2,0:0:0:0:
125,246,70181,1,2,0:0:0:0:
122,228,70266,2,0,P|125:188|131:148,1,80,8|0,0:0|1:0,0:0:0:0:
390,228,70604,1,0,2:0:0:0:
346,90,70774,1,8,0:0:0:0:
390,228,70943,5,2,0:0:0:0:
412,247,71027,1,8,0:0:0:0:
435,267,71112,1,0,0:0:0:0:
459,285,71197,1,8,0:0:0:0:
483,302,71281,1,0,1:0:0:0:
254,244,71452,1,2,0:0:0:0:
254,244,71537,1,2,0:0:0:0:
254,244,71621,2,0,P|214:247|175:253,1,80,8|0,0:0|1:0,0:0:0:0:
420,45,71960,5,0,0:0:0:0:
390,156,72130,1,10,0:0:0:0:
386,176,72215,1,2,0:0:0:0:
383,194,72299,1,2,0:0:0:0:
198,227,72468,1,10,0:0:0:0:
195,208,72553,1,2,0:0:0:0:
192,189,72638,1,2,1:2:0:0:
350,291,72807,5,2,0:0:0:0:
346,311,72892,1,2,0:0:0:0:
343,329,72976,1,10,0:0:0:0:
158,362,73145,1,2,1:2:0:0:
155,343,73230,1,2,0:0:0:0:
152,324,73315,1,2,0:0:0:0:
92,112,73485,1,2,0:0:0:0:
95,131,73570,1,2,0:0:0:0:
98,150,73655,1,10,0:0:0:0:
58,285,73824,1,0,0:0:0:0:
246,285,73994,6,0,P|326:278|405:267,1,160,4|8,1:0|0:0,0:0:0:0:
484,229,74502,2,0,P|486:268|491:308,1,80,0|0,1:0|0:0,0:0:0:0:
403,297,74841,1,8,0:0:0:0:
416,148,75011,6,0,P|414:117|409:69,1,80,0|8,0:0|0:0,0:0:0:0:
335,215,75350,2,0,P|295:212|255:207,1,80,0|0,1:0|0:0,0:0:0:0:
255,207,75604,1,2,0:0:0:0:
255,207,75689,2,0,P|252:246|247:286,1,80,8|0,0:0|1:0,0:0:0:0:
31,248,76028,2,0,P|34:209|39:169,1,80,0|0,0:0|3:2,0:0:0:0:
39,168,76282,1,8,0:0:0:0:
39,168,76367,5,0,1:0:0:0:
163,96,76536,1,8,3:2:0:0:
255,207,76706,1,0,1:0:0:0:
255,207,77045,6,0,P|258:246|263:286,1,80,8|2,0:0|2:0,0:0:0:0:
479,248,77384,1,0,1:0:0:0:
479,248,77723,6,0,P|476:209|471:169,1,80,8|2,0:0|0:0,0:0:0:0:
349,96,78062,1,0,1:0:0:0:
292,163,78231,1,0,0:0:0:0:
292,163,78316,2,0,L|288:209,1,40,0|8,3:0|0:0,0:0:0:0:
181,54,78571,1,0,3:0:0:0:
181,54,78655,2,0,L|185:8,1,40,0|0,3:0|1:0,0:0:0:0:
90,145,78910,1,8,0:0:0:0:
90,145,78994,2,0,L|94:191,1,40,8|0,0:0|3:2,0:0:0:0:
292,163,79248,1,6,3:2:0:0:
202,304,79418,6,0,P|130:314|31:322,1,160,4|2,1:0|0:0,0:0:0:0:
15,238,79926,2,0,P|95:231|174:220,1,160,8|0,1:3|3:0,0:0:0:0:
339,229,80435,2,0,P|299:232|260:239,1,80,8|0,3:0|0:0,0:0:0:0:
416,272,80774,5,0,1:0:0:0:
456,194,80943,1,2,0:0:0:0:
504,268,81113,1,2,0:0:0:0:
416,272,81282,1,0,1:0:0:0:
368,198,81452,1,2,0:0:0:0:
408,120,81621,1,0,3:0:0:0:
328,276,81791,5,2,0:0:0:0:
328,276,81875,1,0,3:0:0:0:
232,128,82045,1,0,3:0:0:0:
232,128,82130,2,0,P|160:118|61:110,1,160,0|6,1:0|0:0,0:0:0:0:
192,206,82638,5,2,1:2:0:0:
192,206,82723,1,0,0:0:0:0:
272,50,82892,1,2,0:0:0:0:
272,50,82977,1,0,0:0:0:0:
328,276,83146,1,2,0:0:0:0:
328,276,83231,1,2,0:0:0:0:
328,276,83316,2,0,P|367:270|407:267,1,80,0|4,3:0|1:3,0:0:0:0:
328,108,83655,5,2,0:0:0:0:
328,108,83740,1,2,0:0:0:0:
328,108,83825,2,0,P|367:113|407:116,1,80,0|0,3:0|1:0,0:0:0:0:
286,193,84163,2,0,P|246:187|206:184,1,80,2|0,0:0|0:0,0:0:0:0:
84,260,84502,2,0,P|124:265|164:269,1,80,4|0,3:0|0:0,0:0:0:0:
163,268,84757,1,0,0:0:0:0:
163,268,84841,6,0,P|173:188|180:109,1,160,0|0,1:0|0:0,0:0:0:0:
98,82,85350,2,0,P|91:162|80:241,1,160,0|2,1:0|0:0,0:0:0:0:
261,352,85858,2,0,P|256:312|252:272,1,80,8|0,0:3|0:0,0:0:0:0:
252,273,86113,1,0,0:0:0:0:
252,273,86197,6,0,P|331:262|410:255,1,160,0|2,1:0|0:0,0:0:0:0:
439,338,86706,2,0,P|399:341|359:346,1,80,0|0,1:0|0:0,0:0:0:0:
323,176,87045,2,0,P|362:171|402:168,1,80,0|0,3:0|0:0,0:0:0:0:
484,203,87384,1,0,3:0:0:0:
412,253,87553,6,0,P|333:260|254:272,1,160,0|2,1:0|0:0,0:0:0:0:
253,272,88062,2,0,P|173:264|94:253,1,160,0|0,1:0|3:0,0:0:0:0:
109,168,88570,2,0,P|148:173|188:176,1,80,2|0,0:0|0:0,0:0:0:0:
188,176,88824,1,2,0:0:0:0:
188,176,88909,6,0,P|193:137|196:97,1,80,0|0,1:0|0:0,0:0:0:0:
253,272,89248,2,0,P|255:311|261:351,1,80,2|0,0:0|1:0,0:0:0:0:
349,357,89587,2,0,P|337:277|330:198,1,160,4|0,2:3|0:0,0:0:0:0:
377,123,90096,1,2,0:0:0:0:
135,123,90265,1,4,0:0:0:0:
135,123,92807,5,4,0:0:0:0:
196,186,92977,1,0,1:0:0:0:
271,141,93146,1,2,0:0:0:0:
274,122,93231,1,2,0:0:0:0:
277,103,93316,1,10,0:0:0:0:
162,303,93485,1,2,1:2:0:0:
158,322,93570,1,2,0:0:0:0:
155,341,93655,1,2,0:0:0:0:
339,202,93824,1,10,0:0:0:0:
358,205,93909,1,2,0:0:0:0:
377,208,93994,2,0,P|388:287|394:366,1,160,0|0,1:0|1:0,0:0:0:0:
161,303,94502,5,0,0:0:0:0:
142,306,94587,1,2,0:0:0:0:
123,309,94672,1,10,0:0:0:0:
323,194,94841,1,2,1:2:0:0:
342,190,94926,1,2,0:0:0:0:
361,187,95011,1,0,0:0:0:0:
201,63,95180,5,8,0:0:0:0:
145,168,95350,2,0,P|105:173|66:176,1,80,0|8,2:0|2:0,0:0:0:0:
231,146,95689,2,0,P|226:186|224:225,2,80,0|0|8,1:0|0:0|0:0,0:0:0:0:
286,77,96197,2,0,P|325:81|365:84,1,80,2|0,1:2|0:0,0:0:0:0:
452,68,96536,1,8,0:0:0:0:
452,68,96621,2,0,L|448:114,1,40,2|0,0:0|0:0,0:0:0:0:
430,344,96875,5,8,0:0:0:0:
300,248,97045,1,0,1:0:0:0:
451,198,97214,1,2,2:0:0:0:
451,198,97299,2,0,L|405:194,1,40,2|8,2:0|0:0,0:0:0:0:
175,176,97553,5,0,1:0:0:0:
300,248,97723,1,8,0:0:0:0:
109,298,97892,1,8,0:0:0:0:
106,317,97977,1,8,0:0:0:0:
103,336,98062,1,8,0:0:0:0:
30,143,98231,1,8,0:0:0:0:
26,124,98316,1,8,0:0:0:0:
23,105,98401,6,0,P|102:93|181:87,1,160,4|8,1:0|0:0,0:0:0:0:
386,346,98909,2,0,P|307:335|228:330,1,160,0|8,1:0|0:0,0:0:0:0:
220,240,99417,6,0,P|259:245|299:248,1,80,2|2,0:0|0:0,0:0:0:0:
367,192,99756,2,0,P|362:153|359:113,1,80,0|2,1:0|0:0,0:0:0:0:
131,112,100095,2,0,P|128:152|124:192,1,80,8|0,0:0|0:0,0:0:0:0:
74,266,100435,1,0,1:0:0:0:
268,162,100604,2,0,L|314:158,1,40,0|0,3:0|3:0,0:0:0:0:
342,86,100773,6,0,P|347:46|350:6,1,80,0|8,1:0|0:0,3:0:0:0:
342,298,101112,1,0,1:0:0:0:
342,298,101451,6,0,P|303:294|263:291,1,80,8|2,0:0|0:0,0:0:0:0:
204,61,101790,1,0,1:0:0:0:
204,61,102129,6,0,P|244:66|284:69,1,80,8|2,0:0|0:0,0:0:0:0:
268,162,102468,2,0,P|229:158|189:154,1,80,0|0,1:0|0:0,0:0:0:0:
140,173,102722,2,0,L|94:177,1,40,2|8,0:0|0:0,0:0:0:0:
360,199,102977,1,0,1:0:0:0:
411,193,103061,2,0,L|457:189,1,40,2|0,0:0|1:0,0:0:0:0:
196,286,103316,1,8,0:0:0:0:
144,280,103400,2,0,L|98:276,1,40,8|0,0:0|1:0,0:0:0:0:
360,373,103655,5,2,0:0:0:0:
363,354,103740,1,2,0:0:0:0:
366,335,103825,1,2,1:2:0:0:
196,286,103994,1,2,0:0:0:0:
192,267,104079,1,2,0:0:0:0:
189,248,104164,1,10,0:0:0:0:
360,199,104333,1,2,1:2:0:0:
380,203,104418,1,2,0:0:0:0:
398,206,104503,1,2,0:0:0:0:
197,136,104672,1,10,0:0:0:0:
177,140,104757,1,2,0:0:0:0:
159,143,104842,2,0,P|79:136|0:125,1,160,0|0,1:0|1:0,0:0:0:0:
189,248,105350,5,2,0:0:0:0:
209,244,105435,1,2,0:0:0:0:
227,241,105520,2,0,P|267:244|307:250,1,80,8|0,0:0|1:0,0:0:0:0:
387,117,105858,1,0,0:0:0:0:
256,55,106028,1,8,0:0:0:0:
387,117,106197,5,2,0:0:0:0:
406,94,106281,1,8,0:0:0:0:
426,71,106366,1,0,0:0:0:0:
444,47,106451,1,8,0:0:0:0:
461,23,106535,1,0,1:0:0:0:
403,253,106706,1,2,0:0:0:0:
403,253,106791,1,2,0:0:0:0:
403,253,106875,2,0,P|406:293|412:332,1,80,8|0,0:0|1:0,0:0:0:0:
397,24,107214,5,0,0:0:0:0:
308,167,107384,1,8,0:0:0:0:
288,163,107469,1,2,0:0:0:0:
270,160,107553,1,2,0:0:0:0:
55,168,107722,1,10,0:0:0:0:
74,165,107807,1,2,0:0:0:0:
93,162,107892,1,0,1:2:0:0:
285,276,108061,5,0,0:0:0:0:
305,272,108146,1,2,0:0:0:0:
323,269,108230,1,10,0:0:0:0:
88,278,108401,1,2,1:2:0:0:
69,275,108484,1,2,0:0:0:0:
50,272,108569,1,2,0:0:0:0:
131,48,108739,1,2,0:0:0:0:
134,67,108824,1,2,0:0:0:0:
137,86,108909,1,8,0:0:0:0:
306,37,109079,1,4,0:0:0:0:
267,117,109248,6,0,P|278:196|285:276,1,160,4|8,1:0|0:0,0:0:0:0:
355,110,109757,2,0,P|394:108|434:103,1,80,0|0,1:0|0:0,0:0:0:0:
434,102,110096,1,8,0:0:0:0:
285,276,110265,6,0,P|245:278|205:283,1,80
163,106,110605,2,0,P|160:146|155:186,1,80,0|0,1:0|0:0,0:0:0:0:
155,186,110859,1,2,0:0:0:0:
155,186,110944,2,0,P|194:189|234:194,1,80,8|0,0:0|1:0,0:0:0:0:
469,332,111283,2,0,P|430:329|390:324,1,80,0|0,0:0|3:0,0:0:0:0:
389,324,111537,1,10,0:0:0:0:
389,324,111622,5,0,1:0:0:0:
317,200,111791,1,8,3:2:0:0:
428,108,111961,1,0,1:0:0:0:
428,108,112300,6,0,P|389:111|349:116,1,80,8|2,0:0|0:0,0:0:0:0:
99,284,112639,1,0,1:0:0:0:
99,284,112978,6,0,P|138:281|178:276,1,80,8|2,0:0|0:0,0:0:0:0:
251,154,113317,1,0,1:0:0:0:
184,97,113486,1,0,0:0:0:0:
184,97,113571,2,0,L|138:93,1,40,2|8,0:0|0:0,0:0:0:0:
266,67,113824,1,0,1:0:0:0:
266,67,113910,2,0,L|270:21,1,40,2|0,0:0|1:0,0:0:0:0:
166,184,114163,1,10,0:0:0:0:
166,184,114249,2,0,L|170:230,1,40,10|0,0:0|1:0,0:0:0:0:
135,305,114503,1,0,0:0:0:0:
253,234,114672,6,0,P|282:229|312:227,1,60.0000022888184,0|0,1:0|0:0,0:0:0:0:
312,227,114926,1,0,0:0:0:0:
312,227,115011,1,8,0:0:0:0:
174,297,115180,2,0,P|153:242|165:184,1,120.000004577637,0|8,1:0|0:0,0:0:0:0:
210,43,115689,2,0,P|216:73|218:103,1,60.0000022888184,0|8,1:0|0:0,0:0:0:0:
218,102,115943,1,8,0:0:0:0:
218,102,116028,5,0,1:0:0:0:
104,130,116197,1,0,1:0:0:0:
312,227,116367,2,0,P|318:257|320:287,1,60.0000022888184,8|0,0:0|1:0,0:0:0:0:
224,186,116706,2,0,P|219:157|217:127,1,60.0000022888184,0|8,1:0|0:0,0:0:0:0:
216,126,117045,1,8,0:0:0:0:
174,297,117214,1,4,0:0:0:0:
320,286,117384,6,0,P|291:291|261:293,1,60.0000022888184,0|0,1:0|0:0,0:0:0:0:
261,293,117638,1,0,0:0:0:0:
261,293,117723,1,8,0:0:0:0:
399,222,117892,2,0,P|420:277|407:335,1,120.000004577637,0|8,1:0|0:0,0:0:0:0:
327,157,118401,2,0,P|329:127|335:97,1,60.0000022888184,0|8,1:0|0:0,0:0:0:0:
335,98,118655,1,8,0:0:0:0:
335,98,118740,1,0,1:0:0:0:
502,123,118909,2,0,P|500:153|494:183,1,60.0000022888184,0|8,1:0|0:0,0:0:0:0:
495,183,119248,5,4,0:0:0:0:
335,98,119418,1,4,1:0:0:0:
431,59,119587,1,0,1:0:0:0:
495,183,119757,1,8,0:0:0:0:
399,222,119926,1,4,3:2:0:0:
431,59,120096,6,0,P|426:30|424:0,1,60.0000022888184,0|0,1:0|0:0,0:0:0:0:
424,0,120350,1,0,0:0:0:0:
424,0,120435,1,8,0:0:0:0:
335,98,120604,2,0,P|356:153|344:211,1,120.000004577637,0|8,1:0|0:0,0:0:0:0:
271,275,121113,2,0,P|242:270|212:268,1,60.0000022888184,0|8,1:0|0:0,0:0:0:0:
212,268,121367,1,8,0:0:0:0:
212,268,121452,5,0,1:0:0:0:
77,251,121621,1,0,1:0:0:0:
152,192,121791,2,0,P|158:162|160:132,1,60.0000022888184,8|0,0:0|1:0,0:0:0:0:
68,277,122130,2,0,P|62:307|60:337,1,60.0000022888184,0|8,1:0|0:0,0:0:0:0:
61,337,122469,1,8,0:0:0:0:
271,275,122638,1,4,0:0:0:0:
152,191,122807,6,0,P|157:162|159:132,1,60.0000022888184,0|0,1:0|0:0,0:0:0:0:
159,132,123061,1,0,0:0:0:0:
159,132,123146,1,8,0:0:0:0:
242,183,123316,2,0,P|297:204|355:192,1,120.000004577637,0|8,1:0|0:0,0:0:0:0:
426,127,123824,2,0,P|456:129|486:135,1,60.0000022888184,0|8,1:0|0:0,0:0:0:0:
485,135,124078,1,8,0:0:0:0:
485,134,124163,5,0,1:0:0:0:
350,218,124333,1,0,1:0:0:0:
327,51,124502,1,8,0:0:0:0:
249,142,124672,2,0,P|219:140|189:134,1,60.0000022888184,0|8,1:0|0:0,0:0:0:0:
189,134,125011,5,4,0:0:0:0:
213,301,125180,1,0,1:0:0:0:
350,218,125350,1,4,0:0:0:0:
118,198,125519,6,0,P|88:200|58:206,1,60.0000022888184,2|0,1:2|0:0,0:0:0:0:
59,206,125773,1,0,0:0:0:0:
59,205,125858,1,2,0:0:0:0:
100,291,126028,2,0,P|108:333|109:384,2,90.0000034332277,4|2|0,0:0|0:0|0:0,0:0:0:0:
71,109,126706,1,0,0:0:0:0:
71,109,126791,1,0,0:0:0:0:
71,109,126875,6,0,P|73:79|79:49,1,60.0000022888184,2|0,1:2|0:0,0:0:0:0:
286,87,127214,2,0,P|284:117|279:147,1,60.0000022888184,2|0,0:0|1:0,0:0:0:0:
183,144,127553,2,0,P|175:99|174:55,2,90.0000034332277,4|4|4,0:0|0:0|0:0,0:0:0:0:
216,234,128231,6,0,P|224:279|225:323,1,90.0000034332277,0|0,1:0|0:0,0:0:0:0:
225,323,128570,2,0,P|255:325|285:330,1,60.0000022888184,2|4,0:0|1:0,0:0:0:0:
429,293,128909,2,0,P|399:291|370:287,1,60.0000022888184,2|2,0:0|0:0,0:0:0:0:
326,200,129248,6,0,P|328:170|332:141,1,60.0000022888184,0|4,1:0|0:0,0:0:0:0:
441,113,129587,6,0,P|438:155|432:195,1,80,0|4,1:0|0:0,0:0:0:0:
216,234,129926,2,0,P|218:192|224:151,1,80,2|0,0:0|1:0,0:0:0:0:
326,200,130265,6,0,P|322:251|315:300,1,95.9999970703126,0|4,1:0|0:0,0:0:0:0:
18,217,130604,2,0,P|21:166|28:116,1,95.9999970703126,2|0,0:0|1:0,0:0:0:0:
86,45,130943,6,0,P|116:43|146:37,1,60.0000022888184,2|2,1:2|0:0,0:0:0:0:
145,37,131197,1,0,0:0:0:0:
145,37,131282,1,0,0:0:0:0:
218,100,131452,2,0,P|213:159|203:219,1,120.000004577637,4|2,0:0|0:0,0:0:0:0:
296,43,131960,1,2,0:0:0:0:
427,97,132130,1,0,0:0:0:0:
427,97,132215,1,0,0:0:0:0:
427,97,132299,6,0,P|397:99|367:105,1,60.0000022888184,2|0,1:2|0:0,0:0:0:0:
363,128,132553,1,2,0:0:0:0:
358,151,132638,1,2,0:0:0:0:
353,174,132723,1,2,0:0:0:0:
348,197,132807,1,2,1:2:0:0:
36,274,133146,5,2,0:0:0:0:
124,235,133316,1,0,1:0:0:0:
114,330,133485,1,0,0:0:0:0:
46,179,133655,1,4,1:0:0:0:
46,179,134163,5,4,1:0:0:0:
46,179,135011,6,0,L|140:194,1,90.0000034332277,4|0,0:0|0:0,0:0:0:0:
150,222,135350,6,0,L|287:200,1,120,4|0,0:0|0:0,0:0:0:0:
288,176,135689,6,0,L|425:199,1,95.9999970703126,4|0,0:0|1:0,0:0:0:0:
472,135,136028,1,8,0:0:0:0:
390,274,136197,1,8,0:0:0:0:
293,54,136367,1,4,1:0:0:0:
256,192,136452,12,0,138401,3:0:0:0:
163,253,138909,5,2,0:0:0:0:
163,253,138994,1,2,0:0:0:0:
163,253,139079,2,2,B|206:256|206:256|299:211|299:211|343:214,1,191.999994140625,4|10,1:2|0:1,0:0:0:0:
399,291,139587,1,0,1:0:0:0:
348,218,139757,2,0,L|356:122,1,95.9999970703126,2|0,0:0|2:0,0:0:0:0:
151,65,140096,2,2,L|167:257,1,191.999994140625,8|0,0:0|1:0,0:0:0:0:
351,212,140605,5,2,0:0:0:0:
257,232,140774,2,0,L|249:328,1,95.9999970703126,10|2,0:1|1:2,0:0:0:0:
347,183,141113,2,2,L|339:87,1,95.9999970703126,2|2,0:0|1:1,0:0:0:0:
247,356,141452,1,10,0:1:0:0:
378,286,141621,1,10,0:0:0:0:
200,271,141791,6,2,L|8:255,1,191.999994140625,0|10,1:0|0:0,0:0:0:0:
247,356,142299,5,2,1:2:0:0:
342,363,142468,1,0,0:0:0:0:
200,271,142638,5,0,0:0:0:0:
105,278,142807,1,8,0:0:0:0:
265,156,142977,5,0,1:0:0:0:
360,149,143146,1,4,1:2:0:0:
218,241,143316,5,0,0:0:0:0:
123,234,143485,1,8,2:0:0:0:
77,143,143655,1,2,1:2:0:0:
176,154,143824,6,0,L|168:250,1,95.9999970703126,4|8,1:2|0:0,0:0:0:0:
81,147,144163,2,0,L|89:51,1,95.9999970703126,8|2,0:0|1:2,0:0:0:0:
89,51,144418,1,8,0:0:0:0:
89,51,144503,6,2,B|132:48|132:48|225:93|225:93|269:90,1,191.999994140625,4|10,1:0|0:1,0:0:0:0:
331,164,145011,1,0,1:0:0:0:
254,219,145181,2,0,L|158:211,1,95.9999970703126,2|0,0:0|0:0,0:0:0:0:
293,306,145520,2,2,L|485:290,1,191.999994140625,8|0,0:0|1:0,0:0:0:0:
293,306,146028,5,0,0:0:0:0:
254,219,146197,1,10,0:1:0:0:
331,164,146367,1,2,1:2:0:0:
370,251,146536,1,0,1:0:0:0:
175,274,146706,5,12,0:0:0:0:
136,187,146875,1,10,0:2:0:0:
213,132,147045,1,4,0:0:0:0:
286,334,147214,6,2,L|94:318,1,191.999994140625,4|10,1:0|0:1,0:0:0:0:
34,238,147723,2,0,L|226:222,1,191.999994140625,0|2,1:0|0:0,0:0:0:0:
34,238,148231,1,8,0:0:0:0:
3,146,148401,1,8,0:0:0:0:
3,146,148485,1,8,0:0:0:0:
3,146,148570,6,0,L|11:50,1,95.9999970703126,0|2,1:0|0:0,0:0:0:0:
105,29,148909,2,0,L|97:125,1,95.9999970703126,8|0,0:0|1:0,0:0:0:0:
183,275,149248,1,0,1:0:0:0:
183,275,149333,1,0,1:0:0:0:
183,275,149418,2,0,L|175:179,1,95.9999970703126,8|8,0:0|0:0,0:0:0:0:
289,197,149757,1,0,1:0:0:0:
289,197,149841,1,8,0:0:0:0:
289,197,149926,6,2,B|332:200|332:200|425:155|425:155|469:158,1,191.999994140625,4|10,1:0|0:1,0:0:0:0:
337,280,150435,1,0,1:0:0:0:
241,114,150604,2,0,L|145:106,1,95.9999970703126,2|0,0:0|0:0,0:0:0:0:
289,197,150943,5,10,0:1:0:0:
337,280,151113,1,8,2:0:0:0:
267,346,151282,1,0,1:0:0:0:
219,263,151452,1,0,1:0:0:0:
219,263,151536,1,0,1:0:0:0:
219,263,151621,1,8,2:0:0:0:
289,197,151791,1,2,2:2:0:0:
289,197,151875,1,8,2:2:0:0:
289,197,151960,6,2,L|385:189,1,95.9999970703126,8|2,0:0|1:1,1:0:0:0:
267,346,152299,2,0,L|171:354,1,95.9999970703126,6|2,0:2|0:0,0:0:0:0:
27,247,152638,6,2,L|219:263,1,191.999994140625,0|10,1:0|0:1,0:0:0:0:
333,254,153146,1,2,1:0:0:0:
322,140,153316,1,0,0:0:0:0:
333,254,153485,1,0,0:0:0:0:
322,140,153655,2,0,L|418:132,1,95.9999970703126,8|2,2:0|0:0,0:0:0:0:
220,351,153994,6,2,L|124:343,1,95.9999970703126,0|2,1:0|2:1,0:0:0:0:
124,343,154248,1,0,0:0:0:0:
124,343,154333,1,2,0:1:0:0:
27,247,154503,1,4,1:2:0:0:
123,138,154672,5,6,0:0:0:0:
146,139,154756,1,2,0:0:0:0:
170,141,154841,1,2,0:0:0:0:
194,143,154926,1,2,0:0:0:0:
218,145,155010,1,2,0:0:0:0:
242,147,155095,1,2,0:0:0:0:
266,149,155180,1,0,0:0:0:0:
290,151,155265,1,0,0:0:0:0:
314,153,155350,6,2,B|311:196|311:196|356:289|356:289|353:333,1,191.999994140625,4|10,1:0|0:1,0:0:0:0:
449,342,155858,1,0,1:0:0:0:
409,161,156028,2,0,L|417:65,1,95.9999970703126,2|0,0:2|0:0,0:0:0:0:
346,234,156367,6,2,L|154:250,1,191.999994140625,8|0,0:0|1:0,0:0:0:0:
154,249,156875,1,0,0:0:0:0:
94,85,157045,2,0,L|86:181,1,95.9999970703126,10|0,0:1|1:0,0:0:0:0:
162,345,157384,2,2,L|154:249,1,95.9999970703126,0|2,0:0|0:1,0:0:0:0:
215,175,157723,1,10,0:1:0:0:
294,228,157892,1,4,0:0:0:0:
247,312,158062,6,0,L|55:296,1,191.999994140625,4|8,1:1|0:0,0:0:0:0:
294,228,158570,2,0,L|486:244,1,191.999994140625,0|0,1:0|0:0,0:0:0:0:
162,345,159079,6,0,L|154:249,1,95.9999970703126,8|2,0:0|0:0,0:0:0:0:
156,224,159332,1,2,0:0:0:0:
158,200,159417,1,2,1:2:0:0:
160,176,159502,1,2,0:0:0:0:
162,152,159586,1,2,0:0:0:0:
164,128,159671,1,2,0:0:0:0:
166,104,159757,6,0,L|158:8,1,95.9999970703126,8|8,0:0|1:0,0:0:0:0:
343,55,160096,2,0,L|351:151,1,95.9999970703126,0|8,0:0|0:0,0:0:0:0:
253,211,160435,2,0,L|261:115,1,95.9999970703126,0|6,1:0|0:2,0:0:0:0:
443,125,160774,6,0,P|431:220|422:316,1,191.999994140625,12|8,2:1|0:0,0:0:0:0:
336,358,161282,2,0,P|332:310|327:262,1,95.9999970703126,0|0,1:0|0:0,0:0:0:0:
159,220,161621,1,0,0:0:0:0:
327,262,161791,1,8,0:0:0:0:
257,105,161960,1,0,0:0:0:0:
164,253,162130,6,0,P|169:300|172:348,1,95.9999970703126,0|0,1:0|0:0,0:0:0:0:
41,237,162468,2,0,P|44:189|49:141,1,95.9999970703126,8|0,0:0|1:0,0:0:0:0:
121,76,162807,1,0,0:0:0:0:
205,122,162977,1,0,0:0:0:0:
294,87,163146,1,8,0:0:0:0:
294,87,163231,1,0,0:1:0:0:
378,133,163401,1,8,0:0:0:0:
378,133,163485,6,0,P|383:180|386:228,1,95.9999970703126,0|0,1:0|0:0,0:0:0:0:
455,295,163824,1,8,0:0:0:0:
305,280,163994,2,0,P|209:288|114:300,1,191.999994140625,0|0,1:0|0:0,0:0:0:0:
41,237,164502,1,8,0:0:0:0:
41,237,164587,1,0,0:0:0:0:
41,237,164672,1,0,0:0:0:0:
41,237,164757,1,0,0:0:0:0:
41,237,164841,6,0,P|44:189|49:141,1,95.9999970703126,0|0,1:0|1:0,0:0:0:0:
164,253,165180,2,0,P|169:300|172:348,1,95.9999970703126,8|2,0:0|2:2,0:0:0:0:
180,320,165434,1,2,0:0:0:0:
195,295,165519,1,2,1:2:0:0:
215,275,165604,1,2,0:0:0:0:
239,260,165688,1,2,1:2:0:0:
267,250,165773,1,2,0:0:0:0:
295,249,165858,1,8,0:0:0:0:
324,254,165943,1,0,0:0:0:0:
350,265,166027,1,8,0:0:0:0:
373,283,166112,1,8,0:0:0:0:
390,305,166197,6,0,P|378:210|369:114,1,191.999994140625,4|8,1:0|0:0,0:0:0:0:
260,93,166705,2,0,P|212:97|164:102,1,95.9999970703126,0|0,1:0|0:0,0:0:0:0:
122,270,167044,1,0,1:0:0:0:
7,172,167214,1,8,0:0:0:0:
164,102,167383,1,2,0:0:0:0:
155,265,167553,6,0,P|202:260|250:257,1,95.9999970703126,0|2,1:0|0:0,0:0:0:0:
250,256,167807,1,2,0:2:0:0:
250,256,167892,2,0,P|245:303|242:351,1,95.9999970703126,8|0,0:0|1:0,0:0:0:0:
446,193,168231,2,0,P|451:146|454:98,1,95.9999970703126,4|0,0:3|0:0,0:0:0:0:
327,192,168570,6,0,P|330:240|336:288,1,95.9999970703126,8|2,0:0|0:0,0:0:0:0:
335,287,168824,1,2,0:0:0:0:
335,287,168909,2,0,P|239:295|144:307,1,191.999994140625,0|8,1:0|0:0,0:0:0:0:
5,212,169418,2,0,P|100:204|195:192,1,191.999994140625,0|0,1:0|1:0,0:0:0:0:
364,31,169926,6,0,P|317:36|269:39,1,95.9999970703126,8|0,0:0|1:0,0:0:0:0:
268,39,170180,1,0,1:0:0:0:
268,39,170265,2,0,P|263:86|260:134,1,95.9999970703126,4|0,1:0|1:0,0:0:0:0:
260,135,170519,1,0,1:0:0:0:
260,135,170604,5,8,0:0:0:0:
90,242,170774,1,0,1:0:0:0:
161,305,170943,2,0,P|208:302|256:296,1,95.9999970703126,12|0,0:1|1:0,0:0:0:0:
406,208,171282,2,0,P|358:211|311:217,1,95.9999970703126,8|0,0:0|1:0,0:0:0:0:
310,217,171536,1,0,3:3:0:0:
310,217,171621,6,0,P|300:289|292:388,1,160,4|0,1:2|3:0,0:0:0:0:
161,305,172130,2,0,P|171:233|179:134,1,160,0|0,1:0|3:0,0:0:0:0:
335,112,172638,2,0,P|295:109|256:105,1,80,2|0,0:0|3:0,0:0:0:0:
183,53,172977,5,0,1:0:0:0:
310,217,173146,1,0,0:0:0:0:
310,217,173231,1,0,0:0:0:0:
310,217,173316,1,0,3:0:0:0:
422,163,173485,1,0,1:0:0:0:
368,51,173655,1,0,0:0:0:0:
256,105,173824,2,0,P|216:102|176:97,1,80,0|0,0:0|3:0,0:0:0:0:
176,97,174079,2,0,P|173:136|168:176,1,80,0|0,3:0|3:0,0:0:0:0:
168,177,174333,6,0,P|96:167|-3:159,1,160,0|0,1:0|3:0,0:0:0:0:
256,105,174841,2,0,P|328:115|427:123,1,160,0|2,1:0|0:0,0:0:0:0:
415,122,175350,6,0,L|419:168,1,40,0|0,3:0|3:0,0:0:0:0:
371,228,175519,2,0,L|368:274,1,40,0|0,0:0|3:0,0:0:0:0:
393,345,175689,1,0,1:0:0:0:
480,356,175858,5,0,0:0:0:0:
444,275,176028,1,0,3:0:0:0:
303,300,176197,1,2,1:2:0:0:
303,300,176282,1,2,0:0:0:0:
303,300,176366,6,0,P|283:298|264:297,3,40,2|2|0|2,1:2|0:0|0:0|0:0,0:0:0:0:
203,242,176705,2,0,P|183:244|164:245,3,40,0|2|0|2,1:0|0:0|0:0|0:0,0:0:0:0:
169,326,177045,6,0,P|97:316|-2:308,1,160,4|0,1:0|3:0,0:0:0:0:
81,177,177554,2,0,P|153:187|252:195,1,160,0|0,1:0|3:0,0:0:0:0:
254,107,178062,2,0,P|215:104|175:99,1,80,2|0,0:0|3:0,0:0:0:0:
320,47,178401,6,0,P|360:50|399:54,1,80,0|0,1:0|0:0,0:0:0:0:
399,54,178655,1,0,0:0:0:0:
399,54,178740,1,0,3:0:0:0:
255,107,178909,1,0,1:0:0:0:
201,219,179078,1,4,0:3:0:0:
89,165,179248,1,2,0:0:0:0:
89,165,179333,1,2,2:0:0:0:
89,165,179418,6,0,L|93:119,1,40,0|0,3:0|3:0,0:0:0:0:
143,53,179587,2,0,L|189:57,1,40,0|0,0:0|3:0,0:0:0:0:
256,107,179757,6,0,P|328:117|427:125,1,160,0|0,1:0|3:0,0:0:0:0:
344,256,180266,2,0,P|272:246|173:238,1,160,0|0,1:0|3:0,0:0:0:0:
89,165,180774,1,2,0:0:0:0:
89,165,180858,1,0,3:0:0:0:
89,165,180944,1,0,0:0:0:0:
89,165,181028,1,0,3:0:0:0:
89,165,181113,6,0,P|87:196|82:244,1,80,0|0,1:0|0:0,0:0:0:0:
81,244,181367,1,0,0:0:0:0:
81,244,181452,2,0,P|121:247|160:251,1,80,0|4,3:0|1:3,0:0:0:0:
255,107,181791,1,8,0:3:0:0:
89,165,181960,5,8,0:0:0:0:
235,301,182130,1,8,0:0:0:0:
255,107,182299,1,0,1:0:0:0:
255,107,182384,1,0,1:0:0:0:
255,107,182468,6,0,L|346:91,1,80,4|0,1:2|0:0,0:0:0:0:
333,93,182807,1,8,0:0:0:0:
255,226,182977,2,0,L|164:210,1,80,0|0,1:0|0:0,0:0:0:0:
176,212,183231,1,0,0:0:0:0:
176,212,183316,2,0,L|204:370,1,160,8|8,0:0|0:0,0:0:0:0:
117,347,183824,5,0,1:0:0:0:
31,325,183994,2,0,L|45:247,1,80,0|8,0:0|0:0,0:0:0:0:
45,137,184333,2,0,L|31:59,1,80,0|0,1:0|0:0,0:0:0:0:
253,75,184672,2,0,L|267:153,1,80,8|0,0:0|0:0,0:0:0:0:
267,153,184926,1,8,0:0:0:0:
267,153,185011,1,0,0:0:0:0:
267,153,185095,1,8,0:0:0:0:
267,153,185180,6,0,L|189:139,1,80,0|0,1:0|0:0,0:0:0:0:
120,84,185519,1,8,0:0:0:0:
189,139,185689,2,0,L|203:217,1,80,0|0,1:0|0:0,0:0:0:0:
92,242,186028,2,0,L|120:84,1,160,8|4,0:0|0:3,0:0:0:0:
267,153,186536,6,0,L|281:231,1,80,0|0,1:0|0:0,0:0:0:0:
330,330,186875,2,0,L|252:316,1,80,8|0,0:0|1:0,0:0:0:0:
368,249,187214,2,0,L|446:235,1,80,0|8,0:0|0:0,0:0:0:0:
171,242,187553,1,8,0:0:0:0:
151,242,187638,1,8,0:0:0:0:
131,242,187723,1,0,0:0:0:0:
112,242,187807,1,8,0:0:0:0:
92,242,187892,6,0,L|1:226,1,80,4|0,1:1|0:0,0:0:0:0:
218,35,188231,1,8,0:0:0:0:
139,166,188401,2,0,L|61:153,1,80,0|0,1:0|0:0,0:0:0:0:
61,153,188740,1,8,0:0:0:0:
218,35,188909,2,0,L|202:126,1,80,0|0,0:0|0:0,0:0:0:0:
241,264,189248,6,0,L|255:186,1,80,4|0,1:3|0:0,0:0:0:0:
342,202,189587,2,0,L|433:186,2,80,8|0|0,0:0|1:0|0:0,0:0:0:0:
323,86,190095,6,0,L|315:131,1,40,0|0,3:0|3:0,0:0:0:0:
342,202,190265,2,0,L|350:247,1,40,0|0,0:0|3:0,0:0:0:0:
323,317,190434,1,0,1:0:0:0:
323,317,190519,1,0,1:0:0:0:
323,317,190604,6,0,L|339:226,1,80,0|0,1:0|0:0,0:0:0:0:
323,86,190943,1,8,0:0:0:0:
420,188,191112,2,0,L|342:202,1,80,0|0,1:0|0:0,0:0:0:0:
175,137,191451,1,8,0:0:0:0:
356,94,191621,2,0,L|435:107,1,80
151,112,191960,6,0,P|128:75|112:39,1,80,4|0,1:3|0:0,0:0:0:0:
113,41,192214,1,0,0:0:0:0:
113,41,192299,1,8,0:0:0:0:
256,63,192468,1,8,0:0:0:0:
175,226,192638,2,0,P|152:263|136:299,2,80,8|4|8,0:0|2:0|0:0,0:0:0:0:
362,134,193146,5,8,0:0:0:0:
362,134,193231,1,8,0:0:0:0:
362,134,193316,1,4,1:0:0:0:
295,140,197892,5,4,0:0:0:0:
344,67,198061,1,2,0:0:0:0:
383,147,198231,5,4,0:0:0:0:
295,140,198401,1,4,0:0:0:0:
344,67,198570,1,2,0:0:0:0:
256,60,198740,6,0,P|177:67|98:78,1,160,4|8,1:0|0:0,0:0:0:0:
62,160,199249,2,0,P|142:166|221:177,1,160,0|8,1:0|0:0,0:0:0:0:
253,258,199757,6,0,P|213:260|173:266,1,80
24,330,200096,2,0,P|64:327|104:322,1,80,0|0,1:0|0:0,0:0:0:0:
141,152,200435,2,0,P|101:155|62:160,1,80,8|0,0:0|1:0,0:0:0:0:
205,91,200774,1,0,0:0:0:0:
269,192,200944,2,0,L|315:188,1,40,0|0,1:0|3:0,0:0:0:0:
343,116,201113,6,0,P|348:76|351:36,1,80,0|8,1:0|0:0,0:0:0:0:
453,241,201452,1,0,1:0:0:0:
453,241,201791,6,0,P|414:245|374:248,1,80,8|2,0:0|0:0,0:0:0:0:
205,91,202130,1,0,1:0:0:0:
205,91,202469,6,0,P|200:131|197:171,1,80,8|2,0:0|0:0,0:0:0:0:
286,204,202808,2,0,P|290:165|294:125,1,80,0|0,1:0|0:0,0:0:0:0:
323,81,203062,2,0,L|369:77,1,40,2|8,0:0|0:0,0:0:0:0:
126,222,203316,1,0,1:0:0:0:
74,227,203400,2,0,L|28:231,1,40,2|0,0:0|1:0,0:0:0:0:
319,285,203656,1,8,0:0:0:0:
370,289,203740,2,0,L|416:293,1,40,8|0,0:0|1:0,0:0:0:0:
216,298,203995,5,2,0:0:0:0:
197,301,204080,1,2,0:0:0:0:
178,304,204163,1,4,1:0:0:0:
378,189,204334,1,2,0:0:0:0:
397,185,204419,1,2,0:0:0:0:
416,182,204502,1,10,0:0:0:0:
319,285,204673,1,2,1:2:0:0:
315,305,204758,1,2,0:0:0:0:
312,323,204841,1,2,0:0:0:0:
200,177,205012,1,10,0:0:0:0:
220,173,205097,1,2,0:0:0:0:
238,170,205180,2,2,P|318:177|397:188,1,160,0|0,1:0|1:0,0:0:0:0:
491,34,205690,5,2,0:0:0:0:
495,54,205775,1,2,0:0:0:0:
498,72,205858,2,2,P|495:112|489:152,1,80,8|2,0:0|1:0,0:0:0:0:
319,285,206198,1,2,0:0:0:0:
260,153,206367,1,8,0:0:0:0:
319,285,206536,5,0,1:0:0:0:
341,265,206620,1,8,0:0:0:0:
364,245,206705,1,0,1:0:0:0:
388,227,206790,1,8,0:0:0:0:
412,210,206874,1,0,1:0:0:0:
183,269,207045,1,2,0:0:0:0:
183,269,207130,1,2,0:0:0:0:
183,269,207215,2,2,P|143:266|104:260,1,80,8|0,0:0|1:0,0:0:0:0:
35,315,207554,5,0,0:0:0:0:
120,173,207723,1,10,0:0:0:0:
124,153,207808,1,2,0:0:0:0:
127,135,207892,1,2,0:0:0:0:
314,157,208062,1,10,0:0:0:0:
317,176,208147,1,2,0:0:0:0:
320,195,208232,1,2,1:0:0:0:
200,86,208401,5,2,0:0:0:0:
204,66,208486,1,2,0:0:0:0:
207,48,208570,1,10,0:0:0:0:
354,22,208739,1,2,1:0:0:0:
357,41,208824,1,2,0:0:0:0:
360,60,208909,1,2,0:0:0:0:
420,272,209079,1,2,0:0:0:0:
417,253,209164,1,2,0:0:0:0:
414,234,209249,1,10,0:0:0:0:
454,99,209418,1,0,0:0:0:0:
266,99,209588,6,2,P|186:110|107:116,1,160,4|8,1:0|0:0,0:0:0:0:
53,187,210096,2,0,P|58:226|60:266,1,80,0|0,1:0|0:0,0:0:0:0:
19,109,210435,1,8,0:0:0:0:
134,314,210604,6,0,P|165:312|213:307,1,80
269,146,210944,2,2,P|266:186|261:226,1,80,0|2,1:0|0:1,0:0:0:0:
261,226,211198,1,0,0:0:0:0:
261,226,211283,2,0,P|300:229|340:234,1,80,8|0,0:0|1:0,0:0:0:0:
493,105,211622,2,0,P|490:144|485:184,1,80,2|0,0:1|3:0,0:0:0:0:
485,185,211876,1,8,0:0:0:0:
485,185,211961,5,0,1:0:0:0:
361,257,212130,1,10,0:1:0:0:
269,146,212300,1,4,1:2:0:0:
269,146,212639,6,2,P|266:107|261:67,1,80,8|2,0:0|0:1,0:0:0:0:
45,105,212978,1,4,1:2:0:0:
45,105,213317,6,2,P|48:144|53:184,1,80,8|2,0:0|0:0,0:0:0:0:
175,257,213656,1,4,1:0:0:0:
270,146,213825,1,0,0:0:0:0:
270,146,213910,2,0,L|316:150,1,40,2|8,0:0|0:0,0:0:0:0:
175,257,214163,1,0,1:0:0:0:
175,257,214249,2,0,L|129:253,1,40,2|0,0:0|1:0,0:0:0:0:
245,48,214502,1,8,0:0:0:0:
245,48,214588,2,0,L|291:52,1,40,8|0,0:0|1:0,0:0:0:0:
469,88,214842,1,4,0:0:0:0:
259,150,215011,6,0,P|230:155|200:157,1,60.0000022888184,4|0,1:0|0:0,0:0:0:0:
200,157,215265,1,0,0:0:0:0:
200,157,215350,1,8,0:0:0:0:
338,87,215519,2,0,P|359:142|347:200,1,120.000004577637,0|8,1:0|0:0,0:0:0:0:
272,261,216028,2,0,P|242:263|212:269,1,60.0000022888184,0|8,1:0|0:0,0:0:0:0:
213,269,216282,1,8,0:0:0:0:
213,269,216367,5,0,1:0:0:0:
363,295,216536,1,0,1:0:0:0:
136,211,216706,2,0,P|130:181|128:151,1,60.0000022888184,8|0,0:0|1:0,0:0:0:0:
363,295,217045,2,0,P|368:324|370:354,1,60.0000022888184,0|8,1:0|0:0,0:0:0:0:
466,351,217384,1,8,0:0:0:0:
281,179,217553,1,4,0:0:0:0:
360,115,217723,6,0,P|389:110|419:108,1,60.0000022888184,4|0,1:0|0:0,0:0:0:0:
419,108,217977,1,0,0:0:0:0:
419,108,218062,1,8,0:0:0:0:
281,179,218231,2,0,P|260:124|273:66,1,120.000004577637,0|8,1:0|0:0,0:0:0:0:
172,83,218740,2,0,P|142:85|112:91,1,60.0000022888184,0|8,1:0|0:0,0:0:0:0:
113,91,218994,1,8,0:0:0:0:
113,91,219079,1,0,1:0:0:0:
139,259,219248,2,0,P|169:257|199:251,1,60.0000022888184,0|8,1:0|0:0,0:0:0:0:
198,251,219587,5,4,0:0:0:0:
113,91,219757,1,4,1:0:0:0:
74,187,219926,1,0,1:0:0:0:
198,251,220096,1,8,0:0:0:0:
237,155,220265,1,4,0:0:0:0:
74,187,220435,6,0,P|45:182|15:180,1,60.0000022888184,4|0,1:0|0:0,0:0:0:0:
15,180,220689,1,0,0:0:0:0:
15,180,220774,1,8,0:0:0:0:
113,91,220943,2,0,P|168:112|226:100,1,120.000004577637,0|8,1:0|0:0,0:0:0:0:
347,292,221452,2,0,P|376:297|406:299,1,60.0000022888184,0|8,1:0|0:0,0:0:0:0:
406,299,221706,1,8,0:0:0:0:
406,299,221791,5,0,1:0:0:0:
356,120,221960,1,0,1:0:0:0:
281,179,222130,2,0,P|275:209|273:239,1,60.0000022888184,8|0,0:0|1:0,0:0:0:0:
484,244,222468,2,0,P|490:214|492:184,1,60.0000022888184,0|8,1:0|0:0,0:0:0:0:
356,120,222807,1,8,0:0:0:0:
483,109,222977,1,4,0:0:0:0:
346,150,223146,6,0,P|341:179|339:209,1,60.0000022888184,4|0,1:0|0:0,0:0:0:0:
339,208,223400,1,0,0:0:0:0:
339,208,223485,1,8,0:0:0:0:
237,220,223655,2,0,P|249:162|228:106,1,120.000004577637,0|8,1:0|0:0,0:0:0:0:
146,297,224163,2,0,P|148:327|154:357,1,60.0000022888184,0|8,1:0|0:0,0:0:0:0:
154,356,224417,1,8,0:0:0:0:
153,356,224502,5,0,1:0:0:0:
237,221,224672,1,0,1:0:0:0:
70,198,224841,1,8,0:0:0:0:
161,120,225011,2,0,P|159:90|153:60,1,60.0000022888184,0|8,1:0|0:0,0:0:0:0:
153,60,225350,5,4,0:0:0:0:
299,83,225519,1,0,1:0:0:0:
162,166,225689,1,4,0:0:0:0:
394,186,225858,6,0,P|424:184|454:178,1,60.0000022888184,2|0,1:2|0:0,0:0:0:0:
453,178,226112,1,0,0:0:0:0:
453,178,226197,1,2,0:0:0:0:
280,177,226367,2,0,P|238:169|187:168,2,90.0000034332277,4|2|0,0:0|0:0|0:0,0:0:0:0:
299,83,227045,1,0,0:0:0:0:
299,83,227130,1,0,0:0:0:0:
299,83,227214,6,0,P|329:85|359:91,1,60.0000022888184,2|0,1:2|0:0,0:0:0:0:
339,321,227553,2,0,P|309:319|279:314,1,60.0000022888184,2|0,0:0|1:0,0:0:0:0:
282,218,227892,2,0,P|327:210|371:209,2,90.0000034332277,4|4|4,0:0|0:0|0:0,0:0:0:0:
107,328,228570,6,0,P|99:283|98:239,1,90.0000034332277,0|0,1:0|0:0,0:0:0:0:
98,239,228909,2,0,P|69:238|39:233,1,60.0000022888184,2|4,0:0|1:0,0:0:0:0:
178,185,229248,2,0,P|182:155|184:126,1,60.0000022888184,2|2,0:0|0:0,0:0:0:0:
137,41,229587,6,0,P|107:36|77:34,1,60.0000022888184,0|4,1:0|0:0,0:0:0:0:
214,237,229926,6,0,P|256:234|296:228,1,80,0|4,1:0|0:0,0:0:0:0:
264,118,230265,2,0,P|222:120|181:126,1,80,2|0,0:0|1:0,0:0:0:0:
350,158,230604,6,0,P|401:162|450:169,1,95.9999970703126,0|4,1:0|0:0,0:0:0:0:
407,285,230943,2,0,P|356:282|306:275,1,95.9999970703126,2|0,0:0|1:0,0:0:0:0:
214,237,231282,6,0,P|212:207|206:177,1,60.0000022888184,4|0,1:0|0:0,0:0:0:0:
206,178,231536,1,0,0:0:0:0:
207,178,231621,1,2,0:0:0:0:
350,158,231791,2,0,P|345:218|336:277,1,120.000004577637,4|2,0:0|0:0,0:0:0:0:
216,341,232299,1,2,0:0:0:0:
132,293,232469,1,0,0:0:0:0:
132,293,232554,1,0,0:0:0:0:
132,293,232638,6,0,P|102:291|72:285,1,60.0000022888184,2|0,1:2|0:0,0:0:0:0:
68,261,232892,1,2,0:0:0:0:
64,237,232977,1,2,0:0:0:0:
60,213,233062,1,2,0:0:0:0:
56,189,233146,1,2,1:2:0:0:
233,45,233485,5,2,0:0:0:0:
272,133,233655,1,0,1:0:0:0:
177,123,233824,1,0,0:0:0:0:
328,55,233994,1,4,1:0:0:0:
328,55,234502,5,4,1:0:0:0:
328,55,235350,6,0,L|313:149,1,90.0000034332277,4|0,0:0|0:0,0:0:0:0:
306,175,235689,6,0,L|169:197,1,120,4|0,0:0|0:0,0:0:0:0:
149,201,236028,6,0,L|126:338,1,95.9999970703126,4|0,0:0|1:0,0:0:0:0:
236,348,236367,1,4,0:0:0:0:
317,169,236536,1,4,0:0:0:0:
138,88,236706,1,4,1:0:0:0:
256,192,236791,12,0,237892,1:0:0:0:
141,223,238062,5,0,1:0:0:0:
141,223,239248,5,2,0:0:0:0:
141,223,239333,1,2,0:0:0:0:
141,223,239418,2,2,B|184:220|184:220|277:265|277:265|321:262,1,191.999994140625,4|10,1:2|0:1,0:0:0:0:
409,139,239926,1,0,1:0:0:0:
318,170,240096,2,0,L|326:266,1,95.9999970703126,2|0,0:0|0:0,0:0:0:0:
145,227,240435,2,2,L|129:35,1,191.999994140625,8|0,0:0|1:0,0:0:0:0:
129,35,240943,5,2,0:0:0:0:
250,102,241113,2,0,L|346:110,1,95.9999970703126,10|2,0:1|1:2,0:0:0:0:
145,227,241452,2,2,L|49:235,1,95.9999970703126,0|2,0:0|0:1,0:0:0:0:
190,318,241791,1,10,0:1:0:0:
241,184,241960,1,10,0:0:0:0:
279,278,242130,6,2,L|471:294,1,191.999994140625,0|10,1:0|0:0,0:0:0:0:
366,67,242638,5,2,1:2:0:0:
359,162,242807,1,0,0:0:0:0:
241,184,242977,5,0,0:0:0:0:
248,89,243146,1,8,0:0:0:0:
346,255,243316,5,0,1:0:0:0:
339,350,243485,1,4,1:2:0:0:
190,318,243655,5,0,0:0:0:0:
123,150,243824,1,8,2:0:0:0:
77,233,243994,1,2,1:2:0:0:
176,230,244163,6,0,L|168:134,1,95.9999970703126,4|8,1:2|0:0,0:0:0:0:
81,237,244502,2,0,L|89:333,1,95.9999970703126,8|2,0:0|1:2,0:0:0:0:
89,333,244757,1,8,0:0:0:0:
89,333,244842,6,2,B|132:336|132:336|225:291|225:291|269:294,1,191.999994140625,4|10,1:0|0:1,0:0:0:0:
441,311,245350,1,0,1:0:0:0:
360,260,245519,2,0,L|368:164,1,95.9999970703126,2|0,0:0|0:0,0:0:0:0:
292,18,245859,2,2,L|276:210,1,191.999994140625,8|0,0:0|1:0,0:0:0:0:
377,115,246367,5,0,0:0:0:0:
331,220,246536,1,10,0:1:0:0:
423,286,246706,1,2,1:2:0:0:
470,181,246875,1,0,1:0:0:0:
293,78,247045,5,12,0:0:0:0:
254,165,247214,1,10,0:2:0:0:
331,220,247384,1,4,0:0:0:0:
286,50,247553,6,2,L|94:66,1,191.999994140625,4|10,1:0|0:1,0:0:0:0:
320,234,248062,2,0,L|512:250,1,191.999994140625,0|2,1:0|0:0,0:0:0:0:
474,161,248570,1,8,0:0:0:0:
223,257,248740,1,8,0:0:0:0:
223,257,248824,1,8,0:0:0:0:
223,257,248909,6,0,L|231:353,1,95.9999970703126,0|2,1:0|0:0,0:0:0:0:
21,323,249248,2,0,L|13:227,1,95.9999970703126,8|0,0:0|1:0,0:0:0:0:
133,49,249587,1,0,1:0:0:0:
133,49,249672,1,0,1:0:0:0:
133,49,249757,2,0,L|125:145,1,95.9999970703126,8|8,0:0|0:0,0:0:0:0:
223,257,250096,1,0,1:0:0:0:
223,257,250180,1,8,0:0:0:0:
223,257,250265,6,2,B|220:214|220:214|265:121|265:121|262:77,1,191.999994140625,4|10,1:2|0:1,0:0:0:0:
352,109,250774,1,0,1:0:0:0:
241,270,250943,2,0,L|145:278,1,95.9999970703126,2|0,0:0|0:0,0:0:0:0:
110,145,251282,5,10,0:1:0:0:
43,230,251452,1,0,0:0:0:0:
132,294,251621,1,0,1:0:0:0:
192,50,251791,1,0,1:0:0:0:
192,50,251875,1,0,1:0:0:0:
192,50,251960,1,8,2:0:0:0:
110,145,252130,1,2,2:2:0:0:
110,145,252214,1,8,2:2:0:0:
110,145,252299,6,2,L|14:137,1,95.9999970703126,8|2,0:0|1:1,0:0:0:0:
230,55,252638,2,0,L|326:63,1,95.9999970703126,6|2,0:2|0:0,0:0:0:0:
253,212,252977,6,2,L|61:228,1,191.999994140625,0|10,1:0|0:1,0:0:0:0:
165,319,253485,1,2,1:0:0:0:
242,118,253655,1,0,0:0:0:0:
261,315,253824,1,0,0:0:0:0:
69,323,253994,2,0,L|61:227,1,95.9999970703126,8|2,2:0|0:0,0:0:0:0:
102,49,254333,6,2,L|110:145,1,95.9999970703126,0|2,1:0|2:1,0:0:0:0:
110,145,254587,1,0,0:0:0:0:
110,145,254672,1,2,0:1:0:0:
194,320,254841,5,6,0:0:0:0:
195,297,254925,1,2,0:0:0:0:
197,273,255011,1,6,0:0:0:0:
198,250,255095,1,2,0:0:0:0:
200,226,255180,1,2,0:0:0:0:
202,202,255265,1,2,0:0:0:0:
204,178,255349,1,2,0:0:0:0:
206,154,255434,1,2,0:0:0:0:
208,130,255519,1,0,0:0:0:0:
210,106,255604,1,0,0:0:0:0:
212,82,255689,6,2,B|255:85|255:85|348:40|348:40|392:43,1,191.999994140625,4|10,1:0|0:1,0:0:0:0:
489,40,256197,1,0,1:0:0:0:
465,133,256367,2,0,L|369:125,1,95.9999970703126,2|0,0:2|0:0,0:0:0:0:
287,175,256706,6,2,L|271:367,1,191.999994140625,8|0,0:0|1:0,0:0:0:0:
178,268,257214,1,0,0:0:0:0:
118,104,257384,2,0,L|110:200,1,95.9999970703126,10|0,0:1|1:0,0:0:0:0:
186,364,257723,2,2,L|178:268,1,95.9999970703126,0|2,0:0|0:1,0:0:0:0:
318,247,258062,1,10,0:1:0:0:
239,194,258231,1,4,0:0:0:0:
271,331,258401,6,0,L|287:139,1,191.999994140625,4|8,1:1|0:0,0:0:0:0:
340,14,258909,2,0,B|337:57|337:57|382:150|382:150|379:194,1,191.999994140625,0|0,1:0|0:0,0:0:0:0:
117,286,259418,6,0,L|213:294,1,95.9999970703126,8|2,0:0|0:0,0:0:0:0:
238,292,259671,1,2,0:0:0:0:
262,290,259756,1,2,1:2:0:0:
286,288,259841,1,2,0:0:0:0:
310,286,259925,1,2,0:0:0:0:
334,284,260010,1,2,0:0:0:0:
358,282,260096,6,0,L|454:290,1,95.9999970703126,8|8,0:0|1:0,0:0:0:0:
255,173,260435,2,0,L|159:165,1,95.9999970703126,0|8,0:0|0:0,0:0:0:0:
320,86,260774,2,0,L|416:78,1,95.9999970703126,0|10,1:0|0:2,0:0:0:0:
415,78,261028,1,8,0:0:0:0:
415,78,261113,6,2,P|403:173|394:269,1,191.999994140625,12|10,2:1|0:0,0:0:0:0:
255,173,261621,2,0,P|207:177|159:182,1,95.9999970703126,0|0,1:0|0:0,0:0:0:0:
2,252,261960,1,0,3:0:0:0:
159,182,262130,1,10,0:0:0:0:
117,350,262299,1,0,0:0:0:0:
274,280,262469,6,0,P|321:275|369:272,1,95.9999970703126,0|0,1:0|0:0,0:0:0:0:
453,317,262807,2,0,P|456:269|461:221,1,95.9999970703126,10|0,0:0|1:0,0:0:0:0:
384,99,263146,1,0,0:0:0:0:
294,297,263316,1,0,0:0:0:0:
300,145,263485,1,10,0:0:0:0:
236,219,263655,1,10,2:2:0:0:
378,251,263824,6,0,P|383:204|386:156,1,95.9999970703126,0|0,1:0|0:0,0:0:0:0:
455,89,264163,1,10,0:0:0:0:
305,104,264333,2,0,P|209:96|114:84,1,191.999994140625,0|2,1:0|0:0,0:0:0:0:
36,26,264841,1,8,0:0:0:0:
52,157,265011,1,0,0:0:0:0:
180,186,265180,6,0,P|184:233|187:281,1,95.9999970703126,0|0,1:0|1:0,0:0:0:0:
187,281,265435,1,0,0:0:0:0:
187,281,265519,2,0,P|140:276|92:273,1,95.9999970703126,8|2,0:0|2:2,0:0:0:0:
73,250,265773,1,2,0:0:0:0:
62,223,265858,1,2,1:2:0:0:
58,195,265943,1,2,0:0:0:0:
60,166,266027,1,2,1:2:0:0:
70,139,266112,1,2,0:0:0:0:
86,115,266197,1,8,0:0:0:0:
107,96,266282,1,0,0:0:0:0:
132,82,266366,1,8,0:0:0:0:
160,75,266451,1,8,0:0:0:0:
189,75,266536,6,0,P|284:87|380:96,1,191.999994140625,4|10,1:0|0:0,0:0:0:0:
260,291,267044,2,0,P|212:287|164:282,1,95.9999970703126,0|0,1:0|0:0,0:0:0:0:
122,114,267383,1,0,1:0:0:0:
7,212,267553,1,8,0:0:0:0:
164,282,267722,1,2,0:0:0:0:
155,119,267892,6,0,P|202:124|250:127,1,95.9999970703126,0|2,1:0|0:0,0:0:0:0:
250,128,268146,1,2,0:2:0:0:
250,128,268231,2,0,P|245:81|242:33,1,95.9999970703126,8|0,0:0|1:0,0:0:0:0:
446,191,268570,2,0,P|451:238|454:286,1,95.9999970703126,4|0,0:3|0:0,0:0:0:0:
327,192,268909,6,0,P|330:144|336:96,1,95.9999970703126,12|2,0:0|0:0,0:0:0:0:
336,96,269163,1,2,0:0:0:0:
336,96,269248,2,0,P|240:88|145:76,1,191.999994140625,4|10,1:3|0:0,0:0:0:0:
5,172,269757,2,0,P|100:180|195:192,1,191.999994140625,0|0,1:0|1:0,0:0:0:0:
387,293,270265,1,10,2:0:0:0:
387,293,270350,1,8,2:0:0:0:
387,293,270435,1,0,1:0:0:0:
387,293,270519,1,8,2:0:0:0:
387,293,270604,6,0,P|340:298|292:301,1,95.9999970703126,4|0,1:0|1:0,0:0:0:0:
291,301,270858,1,0,1:0:0:0:
291,301,270943,5,8,0:0:0:0:
235,42,271113,1,0,1:0:0:0:
290,120,271282,2,0,P|287:167|281:215,1,95.9999970703126,12|4,0:1|2:0,0:0:0:0:
193,384,271621,2,0,P|196:336|202:289,1,95.9999970703126,8|8,0:0|2:0,0:0:0:0:
202,288,271875,1,8,0:0:0:0:
202,288,271960,6,2,P|107:280|12:268,1,191.999994140625,4|10,1:0|0:1,0:0:0:0:
277,228,272468,2,0,P|264:132|256:37,1,191.999994140625,0|10,1:0|0:0,0:0:0:0:
256,37,272892,1,2,0:0:0:0:
256,37,272977,2,2,P|303:42|351:45,1,95.9999970703126,0|8,1:0|2:0,0:0:0:0:
351,45,273316,5,0,1:0:0:0:
190,118,273485,1,0,1:0:0:0:
277,209,273655,2,0,P|274:256|268:304,1,95.9999970703126,10|0,0:1|2:0,0:0:0:0:
176,335,273994,5,0,1:0:0:0:
269,174,274163,1,0,1:0:0:0:
360,261,274333,2,2,P|407:258|455:252,1,95.9999970703126,10|2,0:0|2:1,0:0:0:0:
234,184,274672,6,2,P|138:196|43:204,1,191.999994140625,4|8,1:0|0:0,0:0:0:0:
212,335,275180,2,0,P|307:343|402:355,1,191.999994140625,0|8,1:0|0:0,0:0:0:0:
360,261,275689,1,0,1:0:0:0:
360,261,275774,1,8,0:0:0:0:
360,261,275858,1,0,1:0:0:0:
360,261,275943,1,8,0:0:0:0:
360,261,276028,6,0,P|363:214|369:166,1,95.9999970703126,4|0,1:0|1:0,0:0:0:0:
243,58,276367,2,0,P|247:105|251:153,1,95.9999970703126,8|4,0:0|1:2,0:0:0:0:
218,252,276706,1,2,0:0:0:0:
194,253,276790,1,2,0:0:0:0:
170,255,276875,1,2,1:2:0:0:
146,257,276960,1,2,0:0:0:0:
122,260,277044,1,10,0:0:0:0:
98,262,277129,1,10,0:0:0:0:
74,265,277214,1,2,1:2:0:0:
50,268,277299,1,10,0:0:0:0:
27,272,277384,6,2,P|122:280|217:292,1,191.999994140625,4|10,1:0|0:1,0:0:0:0:
294,233,277892,2,0,P|389:220|484:212,1,191.999994140625,0|10,1:0|0:0,0:0:0:0:
484,211,278316,1,2,0:0:0:0:
484,211,278401,2,2,P|479:258|476:306,1,95.9999970703126,0|10,1:0|2:1,0:0:0:0:
419,99,278740,5,0,1:0:0:0:
328,262,278909,1,0,1:0:0:0:
237,175,279079,2,0,P|190:178|142:184,1,95.9999970703126,10|4,0:0|2:0,0:0:0:0:
176,335,279418,5,0,1:0:0:0:
269,174,279587,1,0,1:0:0:0:
360,261,279757,2,0,P|407:258|455:252,1,95.9999970703126,10|10,0:0|2:0,0:0:0:0:
234,184,280096,6,2,P|138:196|43:204,1,191.999994140625,4|10,1:0|0:0,0:0:0:0:
92,121,280604,1,0,1:0:0:0:
212,335,280774,2,0,P|307:343|402:355,1,191.999994140625,4|10,2:0|2:2,1:0:0:0:
475,291,281282,1,4,0:0:0:0:
304,166,281452,6,0,P|351:162|399:159,1,95.9999970703126,4|0,1:0|1:0,0:0:0:0:
399,159,281707,1,0,0:0:0:0:
399,159,281791,2,0,P|394:206|391:254,1,95.9999970703126,8|2,0:0|2:2,0:0:0:0:
181,329,282130,1,2,0:0:0:0:
157,328,282214,1,10,2:0:0:0:
133,326,282299,1,10,2:2:0:0:
109,324,282384,1,2,0:0:0:0:
85,321,282468,1,10,0:0:0:0:
66,128,282638,1,10,0:0:0:0:
66,128,282723,1,10,0:0:0:0:
66,128,282807,6,2,P|161:120|256:108,1,191.999994140625,4|10,1:0|0:1,0:0:0:0:
303,23,283316,2,2,P|290:119|282:214,1,191.999994140625,0|10,1:0|0:0,0:0:0:0:
282,214,283740,1,2,0:0:0:0:
283,214,283824,2,0,P|330:209|378:206,1,95.9999970703126,0|10,1:0|2:0,0:0:0:0:
378,205,284163,5,0,1:0:0:0:
248,320,284333,1,0,1:0:0:0:
133,189,284502,1,10,2:0:0:0:
382,209,284672,5,0,1:0:0:0:
252,324,284842,1,0,1:0:0:0:
268,79,285011,2,0,P|315:84|363:87,2,95.9999970703126,8|4|0,0:0|0:0|0:0,0:0:0:0:
175,130,285519,6,2,P|183:225|195:320,1,191.999994140625,4|8,1:0|0:0,0:0:0:0:
280,226,286028,2,0,P|184:213|89:205,1,191.999994140625,0|10,1:0|0:0,0:0:0:0:
89,205,286452,1,2,0:0:0:0:
89,205,286536,2,0,P|94:252|97:300,1,95.9999970703126,0|8,1:0|2:0,0:0:0:0:
438,313,286875,5,0,1:0:0:0:
307,198,287044,1,8,2:0:0:0:
176,313,287214,1,8,2:0:0:0:
307,198,287384,5,2,1:2:0:0:
326,195,287468,1,2,0:0:0:0:
345,192,287553,1,2,1:2:0:0:
364,190,287638,1,2,0:0:0:0:
383,188,287722,1,10,0:0:0:0:
402,185,287807,1,2,0:0:0:0:
421,184,287892,1,10,0:0:0:0:
440,182,287977,1,2,0:0:0:0:
459,180,288061,1,10,0:0:0:0:
478,179,288146,1,10,0:0:0:0:
498,178,288231,6,2,P|403:170|308:158,1,191.999994140625,4|10,1:2|0:1,0:0:0:0:
40,238,288740,2,2,P|135:230|231:217,1,191.999994140625,0|2,1:0|0:0,0:0:0:0:
231,217,289163,1,2,0:0:0:0:
231,217,289249,2,0,P|226:264|223:312,1,95.9999970703126,2|10,1:0|2:0,0:0:0:0:
314,367,289587,5,0,1:0:0:0:
146,238,289757,1,0,1:0:0:0:
314,109,289926,5,10,2:0:0:0:
231,217,290096,1,0,1:0:0:0:
203,6,290266,1,0,1:0:0:0:
413,34,290435,5,10,2:0:0:0:
413,168,290604,2,0,P|416:216|422:263,1,95.9999970703126,10|8,0:0|2:0,0:0:0:0:
422,264,290858,1,8,0:0:0:0:
422,264,290943,6,2,P|327:272|232:284,1,191.999994140625,4|10,1:0|0:1,0:0:0:0:
50,247,291452,2,0,P|98:244|146:237,1,95.9999970703126,0|2,1:0|2:0,0:0:0:0:
207,163,291791,2,0,P|204:115|197:67,1,95.9999970703126,0|8,1:0|2:0,0:0:0:0:
197,67,292045,1,8,0:0:0:0:
197,67,292130,1,0,1:0:0:0:
197,67,292214,1,8,0:0:0:0:
197,67,292299,6,0,P|149:73|101:76,1,95.9999970703126,4|4,1:0|2:0,0:0:0:0:
226,288,292638,2,0,P|273:291|321:296,1,95.9999970703126,8|0,2:0|2:0,0:0:0:0:
395,235,292977,1,8,2:0:0:0:
357,66,293146,1,8,2:0:0:0:
357,66,293231,1,8,2:0:0:0:
357,66,293316,1,0,1:0:0:0:
311,136,293485,1,8,2:0:0:0:
474,77,293655,6,2,P|464:148|458:220,1,143.999995605469,4|0,1:2|0:0,0:0:0:0:
383,292,293994,6,2,P|376:220|367:148,1,143.999995605469,4|0,1:2|0:0,0:0:0:0:
288,114,294333,6,2,P|282:175|275:236,1,95.9999970703126,4|0,1:2|1:0,0:0:0:0:
107,237,294672,1,14,2:0:0:0:
267,298,294841,1,10,0:0:0:0:
96,209,295011,6,0,P|102:257|105:305,1,95.9999970703126,4|4,1:0|2:0,0:0:0:0:
317,180,295350,2,0,P|320:132|325:84,1,95.9999970703126,8|8,2:0|2:0,0:0:0:0:
325,84,295604,1,8,2:0:0:0:
326,84,295689,6,0,P|373:80|421:75,1,95.9999970703126,0|4,1:0|2:0,0:0:0:0:
435,247,296028,1,8,0:0:0:0:
317,180,296197,1,2,1:2:0:0:
317,180,296282,1,2,1:2:0:0:
317,180,296367,6,2,P|222:188|127:200,1,191.999994140625,4|10,1:0|0:1,0:0:0:0:
155,292,296876,2,0,P|186:255|215:217,1,95.9999970703126,0|2,1:0|2:0,0:0:0:0:
132,61,297215,2,0,P|170:90|206:122,1,95.9999970703126,0|8,1:0|0:0,0:0:0:0:
317,180,297553,1,8,0:0:0:0:
317,180,297638,1,8,0:0:0:0:
317,180,297723,6,2,P|364:176|412:171,1,95.9999970703126,0|2,1:0|0:1,0:0:0:0:
462,88,298062,1,4,0:0:0:0:
346,272,298231,5,2,1:2:0:0:
327,275,298315,1,2,0:0:0:0:
308,278,298400,1,2,1:2:0:0:
289,280,298485,1,2,0:0:0:0:
270,282,298569,1,10,0:0:0:0:
251,285,298654,1,2,0:0:0:0:
232,286,298739,1,10,0:0:0:0:
213,288,298824,1,2,0:0:0:0:
194,290,298908,1,10,0:0:0:0:
175,291,298993,1,10,0:0:0:0:
155,292,299079,6,2,P|250:300|345:312,1,191.999994140625,4|10,1:2|0:1,0:0:0:0:
191,191,299587,2,0,P|95:203|0:211,1,191.999994140625,0|2,1:2|3:2,0:0:0:0:
0,210,300011,1,2,0:0:0:0:
0,210,300096,2,2,P|5:163|8:115,1,95.9999970703126,0|14,1:0|3:2,0:0:0:0:
191,191,300435,5,0,1:0:0:0:
206,96,300604,1,0,1:0:0:0:
295,241,300774,5,14,2:0:0:0:
310,336,300943,1,4,1:2:0:0:
335,112,301113,2,0,P|382:106|430:103,1,95.9999970703126,0|10,1:0|2:0,0:0:0:0:
430,103,301452,5,0,1:0:0:0:
295,241,301621,1,12,0:0:0:0:
206,96,301791,2,2,P|110:83|15:75,1,191.999994140625,0|10,1:0|0:0,0:0:0:0:
81,280,302299,2,0,P|129:277|177:271,1,95.9999970703126,0|0,1:0|2:0,0:0:0:0:
231,192,302638,1,0,1:0:0:0:
430,280,302807,2,0,P|382:277|335:271,1,95.9999970703126,10|0,2:0|2:0,0:0:0:0:
335,271,303062,1,0,1:0:0:0:
335,271,303146,5,0,1:0:0:0:
306,96,303316,1,8,0:0:0:0:
231,192,303485,1,8,2:0:0:0:
406,163,303655,1,4,2:0:0:0:
335,271,303824,5,8,2:0:0:0:
160,300,303994,1,4,2:0:0:0:
231,192,304163,1,8,2:0:0:0:
131,125,304333,1,0,0:0:0:0:
131,125,304418,1,0,0:0:0:0:
131,125,304502,6,0,P|143:220|152:316,1,191.999994140625,12|8,2:1|0:0,0:0:0:0:
241,352,305011,1,2,1:2:0:0:
241,352,305096,1,2,0:0:0:0:
241,352,305180,2,0,P|336:343|431:331,1,191.999994140625,0|8,1:0|0:0,0:0:0:0:
483,249,305689,1,0,3:0:0:0:
420,176,305858,2,0,P|423:128|429:80,1,95.9999970703126,0|0,1:0|2:0,0:0:0:0:
428,80,306197,5,8,0:0:0:0:
483,249,306367,1,0,1:0:0:0:
310,212,306536,1,0,1:0:0:0:
429,81,306706,1,8,2:0:0:0:
397,254,306875,2,0,L|416:306,1,47.9999985351563,0|0,3:0|3:0,0:0:0:0:
336,345,307045,2,0,L|317:293,1,47.9999985351563,0|0,1:0|3:0,0:0:0:0:
310,212,307214,6,0,P|215:224|119:233,1,191.999994140625,0|8,1:0|2:2,0:0:0:0:
238,61,307723,2,0,P|333:69|428:81,1,191.999994140625,0|0,1:0|1:0,0:0:0:0:
155,148,308231,2,0,P|152:100|146:52,1,95.9999970703126,8|0,2:0|2:0,0:0:0:0:
146,52,308485,1,0,3:0:0:0:
146,52,308570,5,0,1:0:0:0:
9,159,308740,1,0,3:0:0:0:
9,159,308824,1,0,3:0:0:0:
9,159,308909,1,8,0:0:0:0:
316,206,309079,1,2,0:0:0:0:
284,206,309163,1,2,0:0:0:0:
252,202,309248,1,2,0:0:0:0:
221,197,309333,1,2,0:0:0:0:
189,193,309417,1,2,1:2:0:0:
157,192,309502,1,2,0:0:0:0:
126,197,309587,2,0,P|120:245|118:293,1,95.9999970703126,8|0,2:0|1:0,0:0:0:0:
118,293,309841,1,8,2:0:0:0:
118,293,309926,6,0,P|213:301|308:313,1,191.999994140625,4|8,1:0|2:2,0:0:0:0:
400,343,310435,2,0,P|408:248|420:153,1,191.999994140625,0|0,1:0|3:2,0:0:0:0:
325,169,310943,1,8,0:0:0:0:
361,79,311113,1,0,3:0:0:0:
361,79,311197,1,8,0:0:0:0:
361,79,311282,5,0,1:0:0:0:
446,123,311452,1,0,1:0:0:0:
411,212,311621,2,0,P|408:259|403:307,1,95.9999970703126,8|2,2:0|2:2,0:0:0:0:
101,172,311960,2,0,P|103:124|108:76,1,95.9999970703126,0|0,1:0|3:2,0:0:0:0:
191,26,312299,1,4,0:0:0:0:
12,125,312468,1,8,0:0:0:0:
161,247,312638,6,0,P|256:255|351:267,1,191.999994140625,4|8,1:0|2:2,0:0:0:0:
507,156,313146,2,0,P|412:168|317:177,1,191.999994140625,4|8,1:0|2:2,0:0:0:0:
12,125,313655,1,8,0:0:0:0:
35,126,313739,1,8,0:0:0:0:
59,128,313824,1,0,1:0:0:0:
83,130,313909,1,8,0:0:0:0:
107,133,313993,5,4,1:2:0:0:
302,201,314163,1,8,0:0:0:0:
279,200,314247,1,8,0:0:0:0:
255,198,314333,1,8,3:2:0:0:
87,230,314502,1,8,3:2:0:0:
221,120,314672,2,0,P|226:72|228:24,1,95.9999970703126,8|0,1:3|3:2,0:0:0:0:
425,154,315011,5,4,3:0:0:0:
256,343,315180,1,0,3:0:0:0:
256,343,315265,1,0,3:0:0:0:
256,343,315350,6,0,P|305:337|425:348,1,160,4|2,0:1|0:0,0:0:0:0:
470,288,315858,1,0,0:0:0:0:
399,249,316028,2,0,P|374:252|312:244,1,80,2|0,0:0|0:0,0:0:0:0:
256,197,316367,2,0,P|253:172|261:110,1,80,2|0,0:0|0:0,0:0:0:0:
347,79,316711,2,0,P|350:104|342:166,1,80,2|0,0:0|0:0,0:0:0:0:
344,158,317056,1,0,0:0:0:0:
165,305,317229,6,0,P|162:280|170:218,1,80,2|0,0:0|0:0,0:0:0:0:
224,169,317573,2,0,P|249:166|311:174,1,80,2|0,0:0|0:0,0:0:0:0:
361,226,317918,2,0,P|364:251|356:313,1,80,0|0,0:0|0:0,0:0:0:0:
301,361,318312,6,0,P|276:364|214:356,1,80,2|0,0:0|0:0,0:0:0:0:
169,305,318707,2,0,P|166:280|174:218,1,80,2|0,0:0|0:0,0:0:0:0:
172,226,319135,1,0,0:0:0:0:
425,147,319349,6,0,P|428:172|420:234,1,80,2|0,0:0|0:0,0:0:0:0:
364,281,319817,2,0,P|339:284|277:276,1,80,2|0,0:0|0:0,0:0:0:0:
229,230,320286,2,0,P|226:205|234:143,2,80,0|2|2,0:0|0:0|0:0,0:0:0:0:
