osu file format v13

[General]
AudioFilename: 08. Element of SPADA.mp3
AudioLeadIn: 0
PreviewTime: 80613
Countdown: 0
SampleSet: Soft
StackLeniency: 0.7
Mode: 0
LetterboxInBreaks: 1
WidescreenStoryboard: 0

[Editor]
DistanceSpacing: 0.8
BeatDivisor: 4
GridSize: 4
TimelineZoom: 1

[Metadata]
Title:Element of SPADA
TitleUnicode:Element of SPADA
Artist:Nekomata Master feat. Shimotsuki Haruka
ArtistUnicode:猫叉Master feat. 霜月はるか
Creator:Strawberry
Version:Normal
Source:beatmania IIDX 21 SPADA
Tags:iidx21 bemani arcade
BeatmapID:455138
BeatmapSetID:158899

[Difficulty]
HPDrainRate:4
CircleSize:3.5
OverallDifficulty:4
ApproachRate:5
SliderMultiplier:1.1
SliderTickRate:1

[Events]
//Background and Video events
0,0,"44087285.jpg",0,0
//Break Periods
//Storyboard Layer 0 (Background)
//Storyboard Layer 1 (Fail)
//Storyboard Layer 2 (Pass)
//Storyboard Layer 3 (Foreground)
//Storyboard Sound Samples
//Background Colour Transformations
3,100,163,162,255

[TimingPoints]
496,352.941176470588,3,2,1,30,1,0
1907,-100,3,2,1,20,0,0
2084,-100,3,2,1,30,0,0
4731,-83.3333333333333,3,2,1,40,0,0
12495,-83.3333333333333,3,2,1,50,0,0
12672,-83.3333333333333,3,2,1,60,0,0
12848,-83.3333333333333,3,2,1,70,0,0
13201,-83.3333333333333,3,2,1,80,0,1
21495,-83.3333333333333,3,2,1,80,0,0
21672,-83.3333333333333,3,2,1,80,0,1
30143,-100,3,2,1,50,0,0
34378,-100,3,2,1,60,0,0
34554,-100,3,2,1,50,0,0
47084,-83.3333333333333,3,2,1,70,0,0
64025,-83.3333333333333,3,2,1,70,0,1
64201,-83.3333333333333,3,2,1,70,0,0
80966,-83.3333333333333,3,2,2,80,0,1
81319,-83.3333333333333,3,2,2,60,0,1
81495,-83.3333333333333,3,2,2,80,0,1
97731,-83.3333333333333,3,2,2,70,0,0
97907,-83.3333333333333,3,2,2,80,0,1
114848,-83.3333333333333,3,2,1,70,0,0
115201,-83.3333333333333,3,2,1,50,0,0
121201,428.571428571429,3,2,1,30,1,0
122058,545.454545454546,3,2,1,30,1,0
122603,666.666666666667,3,2,1,30,1,0
123269,800,3,2,1,30,1,0
123669,1000,3,2,1,30,1,0
124169,1200,3,2,1,30,1,0

[Colours]
Combo1 : 201,113,234
Combo2 : 192,192,192
Combo3 : 0,128,255
Combo4 : 243,191,103

[HitObjects]
376,96,495,5,0,0:0:0:0:
264,96,848,2,0,L|304:52,2,55,2|0|2,0:0|0:0|0:0,0:0:0:0:
188,176,1554,1,0,0:0:0:0:
136,272,1907,2,2,P|196:288|248:264,2,110,2|2|2,0:0|0:0|0:0,0:0:0:0:
60,188,2966,2,0,L|-24:188,2,55,0|2|0,0:0|0:0|0:0,0:0:0:0:
24,84,3672,5,2,0:0:0:0:
128,44,4025,1,2,0:0:0:0:
236,68,4378,1,2,0:0:0:0:
292,164,4731,1,4,0:0:0:0:
256,192,4907,12,0,8966,0:0:0:0:
96,72,10025,6,0,P|160:48|224:80,1,131.99999597168,0|2,0:0|0:0,0:0:0:0:
300,136,10731,2,0,P|360:159|419:135,1,131.99999597168,2|2,0:0|0:0,0:0:0:0:
256,312,12143,1,0,0:0:0:0:
172,248,12495,2,0,L|88:248,2,65.9999979858399,2|0|2,0:0|0:0|0:0,0:0:0:0:
256,184,13201,22,0,P|324:196|404:176,1,131.99999597168,4|8,0:1|0:0,0:0:0:0:
448,100,13907,1,0,0:0:0:0:
384,16,14260,2,0,P|316:4|236:24,1,131.99999597168,0|8,0:0|0:0,0:0:0:0:
192,100,14966,2,0,L|100:100,2,65.9999979858399,8|0|0,0:0|0:0|0:0,0:0:0:0:
140,192,15672,2,0,B|97:204|97:204|56:192|56:192|0:192,1,131.99999597168,8|0,0:0|0:0,0:0:0:0:
28,244,16201,1,0,0:0:0:0:
44,296,16378,2,0,L|64:372,2,65.9999979858399,0|0|8,0:0|0:0|0:0,0:0:0:0:
148,316,17084,21,8,0:0:0:0:
252,316,17437,1,0,0:0:0:0:
344,260,17790,1,8,0:0:0:0:
372,160,18143,1,0,0:0:0:0:
340,60,18495,2,0,P|276:72|192:52,2,131.99999597168,0|8|8,0:0|0:0|0:0,0:0:0:0:
444,36,19554,2,0,P|480:168|440:316,1,263.99999194336
356,328,20613,2,0,L|240:328,1,65.9999979858399
256,288,20966,2,0,L|140:288,1,65.9999979858399,8|0,0:0|0:0,0:0:0:0:
136,288,21319,1,8,0:0:0:0:
80,200,21672,21,4,0:1:0:0:
136,112,22025,2,0,P|204:92|280:136,1,131.99999597168,8|0,0:0|0:0,0:0:0:0:
332,36,22731,2,0,P|393:57|454:37,2,131.99999597168,0|8|8,0:0|0:0|0:0,0:0:0:0:
320,140,23790,1,0,0:0:0:0:
384,224,24143,1,8,0:0:0:0:
488,252,24495,1,0,0:0:0:0:
404,316,24848,2,0,P|348:356|248:360,1,131.99999597168,0|8,0:0|0:0,0:0:0:0:
208,296,25554,22,0,L|132:296,2,65.9999979858399,8|0|0,0:0|0:0|0:0,0:0:0:0:
136,196,26260,2,0,L|52:196,2,65.9999979858399,8|0|8,0:0|0:0|0:0,0:0:0:0:
104,84,26966,2,0,P|176:100|252:72,1,131.99999597168,0|8,0:0|0:0,0:0:0:0:
276,112,27495,2,0,P|339:97|402:113,1,131.99999597168
428,160,28025,2,0,L|428:248,1,65.9999979858399
452,272,28378,2,0,P|388:286|325:270,1,131.99999597168,8|0,0:0|0:0,0:0:0:0:
280,300,28907,2,0,L|188:300,1,65.9999979858399,0|4,0:0|0:0,0:0:0:0:
256,192,29260,12,4,30143,0:1:0:0:
320,100,31201,21,0,0:0:0:0:
400,176,31554,2,0,P|412:232|392:292,1,110,2|2,0:0|0:0,0:0:0:0:
320,356,32260,1,2,0:0:0:0:
60,156,33319,1,0,0:0:0:0:
128,68,33672,2,0,P|196:56|260:92,1,110,2|2,0:0|0:0,0:0:0:0:
300,152,34378,6,0,L|300:236,1,55,2|0,0:3|0:0,0:0:0:0:
220,280,34907,2,0,L|220:204,1,55,0|2,0:0|0:0,0:0:0:0:
128,284,35437,2,0,P|168:352|264:360,1,165,0|2,0:0|0:0,0:0:0:0:
296,344,36143,2,0,P|352:332|416:352,1,110,0|2,0:0|0:0,0:0:0:0:
488,276,36848,2,0,L|488:160,1,110,0|2,0:0|0:0,0:0:0:0:
488,56,37554,1,0,0:0:0:0:
436,76,37731,2,0,L|348:76,1,55,2|0,0:0|0:0,0:0:0:0:
328,96,38084,2,0,P|260:112|152:88,1,165,2|4,0:0|0:1,0:0:0:0:
108,188,38966,5,2,0:0:0:0:
192,256,39319,2,0,P|248:244|312:260,1,110
380,332,40025,2,0,P|433:341|487:329,1,110,2|2,0:0|0:0,0:0:0:0:
508,220,40731,1,0,0:0:0:0:
488,112,41084,2,0,P|434:102|380:114,1,110,2|0,0:0|0:0,0:0:0:0:
348,220,41790,2,0,L|232:220,2,110,0|2|2,0:0|0:0|0:0,0:0:0:0:
292,128,42848,22,0,L|220:128,1,55,0|2,0:0|0:0,0:0:0:0:
156,52,43378,2,0,L|236:52,1,55,0|2,0:0|0:0,0:0:0:0:
132,128,43907,2,0,P|104:224|156:352,1,220
252,344,44966,2,0,P|304:332|380:356,1,110,2|0,0:0|0:0,0:0:0:0:
404,312,45495,1,0,0:0:0:0:
452,284,45672,2,0,L|452:220,1,55,2|0,0:0|0:0,0:0:0:0:
448,172,46025,6,0,L|400:136,1,55,0|2,0:0|0:0,0:0:0:0:
348,136,46378,2,0,L|300:100,1,55,0|2,0:0|0:0,0:0:0:0:
304,48,46731,2,0,L|256:12,1,55,0|2,0:0|0:0,0:0:0:0:
212,36,47084,6,0,P|140:48|60:32,2,131.99999597168,4|8|0,0:1|0:0|0:0,0:0:0:0:
184,136,48143,1,0,0:0:0:0:
120,220,48495,1,8,0:0:0:0:
24,264,48848,1,8,0:0:0:0:
124,300,49201,2,0,P|192:288|264:308,1,131.99999597168,0|8,0:0|0:0,0:0:0:0:
348,348,49907,1,0,0:0:0:0:
348,348,50260,2,0,P|400:260|340:116,1,263.99999194336,0|8,0:0|0:0,0:0:0:0:
284,32,51319,22,0,P|349:19|412:36,1,131.99999597168,0|8,0:0|0:0,0:0:0:0:
484,112,52025,1,0,0:0:0:0:
416,192,52378,2,0,P|350:205|288:188,1,131.99999597168,0|8,0:0|0:0,0:0:0:0:
224,104,53084,1,8,0:0:0:0:
120,104,53437,2,0,P|64:136|40:208,1,131.99999597168,0|8,0:0|0:0,0:0:0:0:
40,248,53966,1,0,0:0:0:0:
76,284,54143,2,0,L|152:284,1,65.9999979858399
184,312,54495,2,0,P|248:328|332:296,2,131.99999597168,0|8|8,0:0|0:0|0:0,0:0:0:0:
248,228,55554,5,4,0:1:0:0:
346,189,55907,2,0,P|390:185|426:193,1,65.9999979858399,8|0,0:0|0:0,0:0:0:0:
462,201,56260,2,0,P|458:133|462:69,1,131.99999597168
364,32,56966,2,0,P|360:64|368:116,2,65.9999979858399,8|0|8,0:0|0:0|0:0,0:0:0:0:
264,68,57672,2,0,P|236:72|172:60,1,65.9999979858399
156,100,58025,2,0,P|128:104|64:92,1,65.9999979858399,8|0,0:0|0:0,0:0:0:0:
44,124,58378,2,0,P|48:192|36:280,2,131.99999597168,0|0|8,0:0|0:0|0:0,0:0:0:0:
124,196,59437,5,8,0:0:0:0:
124,196,59790,2,0,P|192:184|272:200,1,131.99999597168,0|8,0:0|0:0,0:0:0:0:
336,260,60495,1,0,0:0:0:0:
432,216,60848,2,0,P|440:136|420:72,1,131.99999597168,0|8,0:0|0:0,0:0:0:0:
396,44,61378,2,0,L|328:44,1,65.9999979858399,0|8,0:0|0:0,0:0:0:0:
224,44,61907,1,0,0:0:0:0:
128,88,62260,22,0,L|152:152,1,65.9999979858399,8|0,0:0|0:0,0:0:0:0:
60,204,62790,2,0,L|84:268,1,65.9999979858399,0|4,0:0|0:1,0:0:0:0:
256,192,63143,12,4,64025,0:1:0:0:
176,336,65084,5,0,0:0:0:0:
276,308,65437,1,10,0:0:0:0:
320,212,65790,1,10,0:0:0:0:
284,112,66143,1,2,0:0:0:0:
32,208,66848,5,8,0:0:0:0:
132,240,67201,2,0,P|168:244|224:232,1,65.9999979858399
232,200,67554,2,0,P|304:192|384:204,1,131.99999597168,8|8,0:0|0:0,0:0:0:0:
400,236,68084,1,0,0:0:0:0:
420,284,68260,2,0,L|420:368,2,65.9999979858399,0|0|8,0:0|0:0|0:0,0:0:0:0:
256,192,68790,12,0,70378,0:0:0:0:
352,52,71084,37,0,0:0:0:0:
268,120,71437,2,0,P|204:136|120:108,1,131.99999597168,0|8,0:0|0:0,0:0:0:0:
88,112,71966,1,0,0:0:0:0:
56,152,72143,2,0,L|56:228,1,65.9999979858399,8|0,0:0|0:0,0:0:0:0:
88,260,72495,2,0,L|88:344,1,65.9999979858399,4|0,0:1|0:0,0:0:0:0:
132,356,72848,2,0,P|196:340|280:368,1,131.99999597168,8|0,0:0|0:0,0:0:0:0:
328,276,73554,2,0,P|391:290|455:274,2,131.99999597168,0|8|8,0:0|0:0|0:0,0:0:0:0:
392,192,74613,2,0,P|372:120|388:52,1,131.99999597168,0|8,0:0|0:0,0:0:0:0:
276,80,75319,1,0,0:0:0:0:
180,40,75672,2,0,B|137:26|88:42|88:42|48:40,2,131.99999597168,0|8|8,0:0|0:0|0:0,0:0:0:0:
124,128,76731,6,0,P|112:168|120:216,1,65.9999979858399
164,176,77084,2,0,P|192:206|238:223,1,65.9999979858399,8|0,0:0|0:0,0:0:0:0:
220,164,77437,2,0,P|260:154|298:123,1,65.9999979858399
304,96,77790,2,0,P|380:84|448:96,2,131.99999597168,0|8|8,0:0|0:0|0:0,0:0:0:0:
372,176,78848,2,0,P|380:252|364:324,1,131.99999597168,0|8,0:0|0:0,0:0:0:0:
328,340,79378,1,0,0:0:0:0:
276,328,79554,2,0,L|180:328,2,65.9999979858399,0|0|4,0:0|0:0|0:0,0:0:0:0:
212,244,80260,2,0,B|164:244|164:244|124:236|124:236|64:248,1,131.99999597168,0|4,0:0|0:0,0:0:0:0:
24,156,80966,6,0,P|20:124|24:84,1,65.9999979858399,0|2,0:0|0:0,0:0:0:0:
28,36,81319,2,0,P|64:40|104:32,1,65.9999979858399,8|2,0:0|0:0,0:0:0:0:
144,28,81672,1,0,0:0:0:0:
224,96,82025,2,0,P|296:104|376:84,2,131.99999597168,0|10|10,0:0|0:0|0:0,0:0:0:0:
156,180,83084,2,0,P|160:232|156:268,1,65.9999979858399,0|2,0:0|0:0,0:0:0:0:
160,300,83437,1,8,0:0:0:0:
212,296,83613,2,0,P|252:292|292:296,1,65.9999979858399,2|2,0:0|0:0,0:0:0:0:
364,356,84143,2,0,P|432:352|504:360,2,131.99999597168,8|10|10,0:0|0:0|0:0,0:0:0:0:
392,256,85201,21,0,0:0:0:0:
424,212,85378,1,2,0:0:0:0:
472,188,85554,1,10,0:0:0:0:
472,84,85907,2,0,L|472:16,1,65.9999979858399,0|2,0:0|0:0,0:0:0:0:
420,32,86260,2,0,P|352:40|260:16,2,131.99999597168,2|8|8,0:0|0:0|0:0,0:0:0:0:
368,124,87319,5,0,0:0:0:0:
320,144,87495,1,2,0:0:0:0:
268,144,87672,1,10,0:0:0:0:
180,84,88025,2,0,L|96:84,1,65.9999979858399,0|2,0:0|0:0,0:0:0:0:
60,88,88378,2,0,P|40:116|36:160,1,65.9999979858399,2|0,0:0|0:0,0:0:0:0:
0,168,88731,2,0,P|14:199|50:224,1,65.9999979858399,8|0,0:0|0:0,0:0:0:0:
48,272,89084,2,0,P|82:275|122:256,1,65.9999979858399,10|0,0:0|0:0,0:0:0:0:
160,284,89437,6,0,P|248:264|356:296,1,197.99999395752,4|0,0:0|0:0,0:0:0:0:
388,332,90143,2,0,L|388:200,1,131.99999597168,2|0,0:0|0:0,0:0:0:0:
356,100,90848,1,8,0:0:0:0:
268,40,91201,2,0,P|232:36|196:40,2,65.9999979858399,10|0|2,0:0|0:0|0:0,0:0:0:0:
200,124,91907,22,0,L|200:204,1,65.9999979858399,8|0,0:0|0:0,0:0:0:0:
156,216,92260,2,0,L|156:296,1,65.9999979858399,2|0,0:0|0:0,0:0:0:0:
156,336,92613,2,0,P|224:352|284:336,1,131.99999597168,0|10,0:0|0:0,0:0:0:0:
328,308,93143,1,2,0:0:0:0:
356,264,93319,2,0,B|344:236|348:204|368:192|369:167|360:120,1,131.99999597168,8|0,0:0|0:0,0:0:0:0:
256,192,93760,12,4,95790,0:0:0:0:
192,116,96848,22,0,P|260:100|344:136,2,131.99999597168,0|0|0,1:0|1:0|1:0,0:0:0:0:
108,180,97907,2,0,L|108:252,1,65.9999979858399,4|0,1:1|0:0,0:0:0:0:
140,288,98260,2,0,P|177:286|234:293,2,65.9999979858399,8|2|0,0:0|0:0|0:0,0:0:0:0:
252,360,98966,2,0,P|332:352|408:372,2,131.99999597168,0|8|8,0:0|0:0|0:0,0:0:0:0:
312,240,100025,6,0,L|312:168,1,65.9999979858399,4|2,1:1|0:0,0:0:0:0:
284,132,100378,2,0,P|247:134|190:127,2,65.9999979858399,8|2|2,0:3|0:0|0:0,0:0:0:0:
220,48,101084,2,0,P|184:48|136:44,1,65.9999979858399,0|2,0:0|0:0,0:0:0:0:
108,72,101437,2,0,P|88:152|112:212,1,131.99999597168,8|8,0:0|0:0,0:0:0:0:
92,304,102143,6,0,L|168:288,1,65.9999979858399,0|2,0:0|0:0,0:0:0:0:
196,256,102495,2,0,P|268:280|380:256,1,131.99999597168,10|2,0:0|0:0,0:0:0:0:
416,224,103201,2,0,P|428:148|420:80,2,131.99999597168,2|8|8,0:0|0:0|0:0,0:0:0:0:
324,172,104260,5,0,0:0:0:0:
280,144,104437,1,2,0:0:0:0:
260,96,104613,2,0,P|252:64|256:24,1,65.9999979858399,10|0,0:0|0:0,0:0:0:0:
200,28,104966,2,0,P|168:32|132:28,1,65.9999979858399,0|2,0:0|0:0,0:0:0:0:
96,64,105319,2,0,P|64:68|28:64,2,65.9999979858399,2|2|8,0:0|0:0|0:0,0:0:0:0:
44,156,106025,2,0,P|60:224|40:312,1,131.99999597168,10|4,0:0|0:0,0:0:0:0:
332,356,107437,22,0,P|188:332|44:376,1,263.99999194336,0|8,0:0|0:0,0:0:0:0:
124,264,108495,2,0,P|192:252|276:264,1,131.99999597168,2|8,0:0|0:0,0:0:0:0:
360,280,109201,1,2,0:0:0:0:
444,212,109554,2,0,L|444:144,1,65.9999979858399,0|2,0:0|0:0,0:0:0:0:
400,116,109907,2,0,P|336:128|252:104,1,131.99999597168,10|8,0:0|0:0,0:0:0:0:
188,48,110613,2,0,L|96:48,2,65.9999979858399,2|0|10,0:0|0:0|0:0,0:0:0:0:
120,132,111319,6,0,P|76:136|40:152,1,65.9999979858399,0|2,0:0|0:0,0:0:0:0:
20,180,111672,2,0,P|48:244|48:324,1,131.99999597168,2|8,0:0|0:0,0:0:0:0:
104,304,112201,2,0,P|144:296|192:300,1,65.9999979858399,2|8,0:0|0:0,0:0:0:0:
200,196,112731,2,0,P|228:136|316:112,1,131.99999597168,0|8,0:0|0:0,0:0:0:0:
328,140,113260,1,2,0:0:0:0:
376,164,113437,2,0,P|436:180|532:152,1,131.99999597168,2|0,0:0|0:0,0:0:0:0:
484,272,114143,1,8,0:0:0:0:
384,300,114495,21,4,0:0:0:0:
284,264,114848,1,4,0:1:0:0:
232,172,115201,2,0,P|168:160|100:172,1,131.99999597168,2|0,0:0|0:0,0:0:0:0:
48,260,115907,1,2,0:0:0:0:
132,324,116260,2,0,P|164:328|256:300,1,65.9999979858399,0|2,0:0|0:0,0:0:0:0:
284,264,116790,1,2,0:0:0:0:
332,244,116966,2,0,P|404:232|488:260,2,131.99999597168,0|2|0,0:0|0:0|0:0,0:0:0:0:
248,180,118025,2,0,P|240:104|260:36,2,131.99999597168,0|2|0,0:0|0:0|0:0,0:0:0:0:
240,284,119084,1,2,0:0:0:0:
256,192,119437,12,0,124169,0:0:0:0:
