osu file format v13

[General]
AudioFilename: 08. Element of SPADA.mp3
AudioLeadIn: 0
PreviewTime: 80613
Countdown: 0
SampleSet: Soft
StackLeniency: 0.7
Mode: 0
LetterboxInBreaks: 1
WidescreenStoryboard: 0

[Editor]
DistanceSpacing: 1
BeatDivisor: 4
GridSize: 4
TimelineZoom: 1

[Metadata]
Title:Element of SPADA
TitleUnicode:Element of SPADA
Artist:Nekomata Master feat. Shimotsuki Haruka
ArtistUnicode:猫叉Master feat. 霜月はるか
Creator:Strawberry
Version:Hyper
Source:beatmania IIDX 21 SPADA
Tags:iidx21 bemani arcade
BeatmapID:455179
BeatmapSetID:158899

[Difficulty]
HPDrainRate:6
CircleSize:4
OverallDifficulty:6
ApproachRate:8
SliderMultiplier:1.4
SliderTickRate:1

[Events]
//Background and Video events
0,0,"687474703a2f2f7777772e6b756c666f746f2e636f6d2f7069632f303030312f303030372f622f4163366650363937312e6a7067.jpg",0,0
//Break Periods
//Storyboard Layer 0 (Background)
//Storyboard Layer 1 (Fail)
//Storyboard Layer 2 (Pass)
//Storyboard Layer 3 (Foreground)
//Storyboard Sound Samples
//Background Colour Transformations
3,100,163,162,255

[TimingPoints]
496,352.941176470588,3,2,1,30,1,0
1907,-100,3,2,1,20,0,0
2084,-100,3,2,1,30,0,0
4731,-83.3333333333333,3,2,1,40,0,0
12495,-83.3333333333333,3,2,1,50,0,0
12672,-83.3333333333333,3,2,1,60,0,0
12848,-83.3333333333333,3,2,1,70,0,0
13201,-83.3333333333333,3,2,1,80,0,1
21495,-83.3333333333333,3,2,1,80,0,0
21672,-83.3333333333333,3,2,1,80,0,1
30143,-100,3,2,1,50,0,0
34378,-100,3,2,1,60,0,0
34554,-100,3,2,1,50,0,0
47084,-83.3333333333333,3,2,1,70,0,0
64025,-83.3333333333333,3,2,1,70,0,1
64201,-83.3333333333333,3,2,1,70,0,0
80260,-83.3333333333333,3,2,2,70,0,0
80966,-83.3333333333333,3,2,2,80,0,1
81319,-83.3333333333333,3,2,2,60,0,1
81495,-83.3333333333333,3,2,2,80,0,1
81672,-83.3333333333333,3,2,2,60,0,1
81848,-83.3333333333333,3,2,2,80,0,1
97731,-83.3333333333333,3,2,2,70,0,0
97907,-83.3333333333333,3,2,2,80,0,1
114848,-83.3333333333333,3,2,1,70,0,0
115201,-83.3333333333333,3,2,1,50,0,0
121201,428.571428571429,3,2,1,30,1,0
122058,545.454545454546,3,2,1,30,1,0
122603,666.666666666667,3,2,1,30,1,0
123269,800,3,2,1,30,1,0
123669,1000,3,2,1,30,1,0
124169,1200,3,2,1,30,1,0

[Colours]
Combo1 : 201,113,234
Combo2 : 192,192,192
Combo3 : 0,128,255
Combo4 : 243,191,103

[HitObjects]
120,84,496,5,0,0:0:0:0:
48,204,848,2,0,L|48:280,2,70,2|0|2,0:0|0:0|0:0,0:0:0:0:
188,204,1554,1,0,0:0:0:0:
280,312,1907,2,0,L|376:312,1,70,2|0,0:0|0:0,0:0:0:0:
368,244,2260,2,0,L|464:244,1,70,2|0,0:0|0:0,0:0:0:0:
472,184,2613,2,0,P|488:116|456:32,1,140,2|0,0:0|0:0,0:0:0:0:
404,24,3143,1,2,0:0:0:0:
340,48,3319,1,0,0:0:0:0:
212,100,3672,5,2,0:0:0:0:
300,208,4025,1,2,0:0:0:0:
168,164,4378,2,0,P|132:160|76:172,1,70,2|0,0:0|0:0,0:0:0:0:
16,176,4731,1,4,0:0:0:0:
256,192,4819,12,0,8966,0:0:0:0:
84,220,9319,38,0,P|124:228|176:216,1,83.9999974365235,2|0,0:0|0:0,0:0:0:0:
196,140,9672,2,0,P|237:132|278:140,1,83.9999974365235,2|0,0:0|0:0,0:0:0:0:
312,216,10025,2,0,L|312:312,1,83.9999974365235
388,268,10378,2,0,P|416:168|376:92,1,167.999994873047,2|2,0:0|0:0,0:0:0:0:
324,64,10907,1,0,0:0:0:0:
244,44,11084,2,0,L|136:44,1,83.9999974365235
80,64,11437,1,2,0:0:0:0:
44,140,11613,2,0,P|40:192|48:240,1,83.9999974365235,0|2,0:0|0:0,0:0:0:0:
68,304,11966,2,0,L|68:356,2,41.9999987182618,0|0|0,0:0|0:0|0:0,0:0:0:0:
152,288,12319,1,0,0:0:0:0:
220,336,12495,2,0,L|328:336,1,83.9999974365235
372,252,12848,2,0,L|288:252,1,83.9999974365235,0|8,0:0|0:0,0:0:0:0:
352,132,13201,22,0,B|392:140|392:140|468:128,1,83.9999974365235,4|0,0:1|0:0,0:0:0:0:
392,60,13554,1,8,0:0:0:0:
312,56,13731,2,0,P|276:84|272:148,1,83.9999974365235
284,204,14084,2,0,L|284:252,2,41.9999987182618,0|0|0,0:0|0:0|0:0,0:0:0:0:
200,192,14437,1,0,0:0:0:0:
136,140,14613,1,8,0:0:0:0:
120,56,14790,1,0,0:0:0:0:
36,68,14966,2,0,L|36:156,1,83.9999974365235,8|0,0:0|0:0,0:0:0:0:
120,256,15319,22,0,L|120:172,1,83.9999974365235
36,260,15672,2,0,L|36:316,2,41.9999987182618,8|0|0,0:0|0:0|0:0,0:0:0:0:
108,340,16025,2,0,P|152:348|212:328,1,83.9999974365235
260,296,16378,1,0,0:0:0:0:
280,216,16554,1,0,0:0:0:0:
252,136,16731,2,0,P|243:91|256:40,1,83.9999974365235,8|0,0:0|0:0,0:0:0:0:
324,96,17084,2,0,L|420:96,1,83.9999974365235,8|0,0:0|0:0,0:0:0:0:
436,128,17348,2,0,L|488:128,1,41.9999987182618
408,236,17613,21,0,0:0:0:0:
468,292,17790,2,0,P|424:320|372:304,1,83.9999974365235,8|0,0:0|0:0,0:0:0:0:
316,280,18143,2,0,L|228:280,1,83.9999974365235
160,324,18495,2,0,P|148:280|168:228,1,83.9999974365235
232,200,18848,2,0,P|241:159|229:119,1,83.9999974365235,8|0,0:0|0:0,0:0:0:0:
160,72,19201,2,0,L|52:72,1,83.9999974365235,8|0,0:0|0:0,0:0:0:0:
24,140,19554,1,0,0:0:0:0:
24,224,19731,1,0,0:0:0:0:
80,288,19907,1,8,0:0:0:0:
160,324,20084,1,0,0:0:0:0:
244,308,20260,2,0,P|288:304|356:320,1,83.9999974365235
320,224,20613,21,0,0:0:0:0:
248,180,20790,1,0,0:0:0:0:
320,140,20966,1,8,0:0:0:0:
392,184,21143,1,0,0:0:0:0:
460,232,21319,2,0,L|460:336,2,83.9999974365235,8|0|4,0:0|0:0|0:1,0:0:0:0:
320,140,22025,21,8,0:0:0:0:
248,96,22201,1,0,0:0:0:0:
180,144,22378,2,0,P|132:152|88:136,1,83.9999974365235,0|0,0:0|0:0,0:0:0:0:
28,96,22731,2,0,L|28:228,1,125.999996154785
12,260,23084,2,0,P|64:256|116:268,1,83.9999974365235,8|0,0:0|0:0,0:0:0:0:
168,304,23437,2,0,P|212:308|280:300,1,83.9999974365235,8|0,0:0|0:0,0:0:0:0:
332,288,23790,21,0,0:0:0:0:
416,292,23966,1,0,0:0:0:0:
372,364,24143,1,8,0:0:0:0:
332,288,24319,1,0,0:0:0:0:
336,204,24495,2,0,L|336:108,1,83.9999974365235
364,88,24760,2,0,L|364:40,1,41.9999987182618
292,4,25025,2,0,L|292:68,2,41.9999987182618,0|0|8,0:0|0:0|0:0,0:0:0:0:
212,36,25378,1,0,0:0:0:0:
128,40,25554,2,0,P|84:48|36:32,1,83.9999974365235,8|0,0:0|0:0,0:0:0:0:
28,120,25907,22,0,P|32:172|28:252,1,125.999996154785
68,232,26260,2,0,L|156:232,1,83.9999974365235,8|0,0:0|0:0,0:0:0:0:
180,312,26613,2,0,L|180:360,2,41.9999987182618,0|0|0,0:0|0:0|0:0,0:0:0:0:
256,272,26966,1,0,0:0:0:0:
340,280,27143,1,0,0:0:0:0:
404,332,27319,2,0,L|472:332,2,41.9999987182618,8|0|0,0:0|0:0|0:0,0:0:0:0:
326,356,27672,2,0,P|319:316|340:280,1,83.9999974365235,8|0,0:0|0:0,0:0:0:0:
416,244,28025,21,0,0:0:0:0:
428,160,28201,1,0,0:0:0:0:
348,184,28378,1,8,0:0:0:0:
360,100,28554,1,0,0:0:0:0:
376,16,28731,2,0,P|336:24|288:16,1,83.9999974365235
224,64,29084,1,4,0:0:0:0:
256,192,29172,12,4,30143,0:1:0:0:
316,284,30495,5,2,0:0:0:0:
364,232,30672,1,0,0:0:0:0:
432,212,30848,2,0,L|432:132,1,70,2|0,0:0|0:0,0:0:0:0:
468,84,31201,2,0,P|416:108|344:104,1,105
344,84,31554,2,0,L|248:84,1,70,2|0,0:0|0:0,0:0:0:0:
224,36,31907,2,0,L|144:36,1,70,2|0,0:0|0:0,0:0:0:0:
84,32,32260,2,0,P|60:100|96:176,2,140,0|2|2,0:0|0:0|0:0,0:0:0:0:
164,148,33319,6,0,L|164:236,1,70
240,200,33672,2,0,L|240:276,1,70,2|0,0:0|0:0,0:0:0:0:
316,256,34025,2,0,L|316:332,1,70,2|0,0:0|0:0,0:0:0:0:
380,352,34378,1,2,0:3:0:0:
444,324,34554,1,0,0:0:0:0:
460,256,34731,1,2,0:0:0:0:
432,192,34907,1,2,0:0:0:0:
368,164,35084,2,0,L|368:88,1,70
320,44,35437,1,2,0:0:0:0:
252,56,35613,2,0,L|204:56,2,35,0|0|0,0:0|0:0|0:0,0:0:0:0:
240,124,35966,1,2,0:0:0:0:
284,180,36143,2,0,L|284:272,1,70,0|2,0:0|0:0,0:0:0:0:
176,280,36495,38,0,P|140:284|96:276,1,70
64,200,36848,2,0,P|100:196|144:204,1,70,2|0,0:0|0:0,0:0:0:0:
176,280,37201,1,2,0:0:0:0:
240,312,37378,1,0,0:0:0:0:
308,300,37554,1,0,0:0:0:0:
340,236,37731,1,2,0:0:0:0:
400,200,37907,1,0,0:0:0:0:
472,196,38084,1,2,0:0:0:0:
472,196,38260,2,0,L|472:288,1,70,2|0,0:0|0:0,0:0:0:0:
404,338,38613,6,0,P|392:269|400:200,1,140,4|8,0:1|0:0,0:0:0:0:
432,136,39143,2,0,L|432:56,1,70
376,24,39495,1,0,0:0:0:0:
308,32,39672,2,0,P|264:36|212:24,1,70
232,108,40025,2,0,P|188:112|136:100,1,70,8|0,0:0|0:0,0:0:0:0:
160,184,40378,2,0,P|116:188|64:176,1,70,8|0,0:0|0:0,0:0:0:0:
20,180,40731,38,0,P|28:264|12:336,1,140,0|8,0:0|0:0,0:0:0:0:
88,332,41260,1,0,0:0:0:0:
152,360,41437,2,0,P|184:364|244:348,1,70
284,328,41790,2,0,P|364:320|448:336,1,140,0|8,0:0|0:0,0:0:0:0:
480,368,42319,1,0,0:0:0:0:
480,368,42495,2,0,P|476:288|480:220,1,140,8|0,0:0|0:0,0:0:0:0:
484,88,43201,5,8,0:0:0:0:
420,60,43378,1,0,0:0:0:0:
352,76,43554,1,0,0:0:0:0:
316,136,43731,1,0,0:0:0:0:
332,204,43907,2,0,L|332:284,1,70
252,348,44260,2,0,L|252:278,1,70,8|0,0:0|0:0,0:0:0:0:
168,232,44613,2,0,L|168:312,1,70,8|0,0:0|0:0,0:0:0:0:
88,264,44966,2,0,P|88:200|156:148,1,140,0|8,0:0|0:0,0:0:0:0:
210,159,45495,1,0,0:0:0:0:
252,216,45672,2,0,L|352:216,1,70
392,216,46025,21,2,0:0:0:0:
392,216,46201,1,2,0:0:0:0:
452,152,46378,1,10,0:0:0:0:
452,152,46554,1,2,0:0:0:0:
424,68,46731,1,10,0:0:0:0:
424,68,46907,1,0,0:0:0:0:
340,64,47084,6,0,P|288:72|248:60,1,83.9999974365235,4|0,0:1|0:0,0:0:0:0:
112,24,47437,2,0,P|164:16|204:28,1,83.9999974365235,8|0,0:0|0:0,0:0:0:0:
156,100,47790,2,0,P|148:144|160:192,1,83.9999974365235,2|2,0:0|0:0,0:0:0:0:
88,312,48143,2,0,P|96:268|84:220,1,83.9999974365235
184,268,48495,2,0,P|228:264|296:280,1,83.9999974365235,8|0,0:0|0:0,0:0:0:0:
340,312,48848,1,8,0:0:0:0:
340,312,49025,1,0,0:0:0:0:
412,268,49201,38,0,P|404:208|408:132,1,125.999996154785
440,120,49554,2,0,P|443:77|440:28,1,83.9999974365235,8|0,0:0|0:0,0:0:0:0:
360,16,49907,1,2,0:0:0:0:
300,76,50084,1,2,0:0:0:0:
216,84,50260,2,0,P|168:80|132:56,1,83.9999974365235
64,24,50613,2,0,P|56:68|76:108,1,83.9999974365235,8|0,0:0|0:0,0:0:0:0:
128,168,50966,2,0,P|88:188|28:172,1,83.9999974365235,8|0,0:0|0:0,0:0:0:0:
4,252,51319,22,0,P|80:296|180:284,1,167.999994873047,0|8,0:0|0:0,0:0:0:0:
232,248,51848,1,0,0:0:0:0:
232,248,52025,2,0,L|340:248,1,83.9999974365235,2|2,0:0|0:0,0:0:0:0:
368,336,52378,2,0,L|476:336,1,83.9999974365235
500,264,52731,2,0,P|508:212|496:176,1,83.9999974365235,8|0,0:0|0:0,0:0:0:0:
432,136,53084,2,0,P|388:140|312:104,1,125.999996154785,8|0,0:0|0:0,0:0:0:0:
344,76,53437,22,0,P|256:60|168:84,1,167.999994873047,0|8,0:0|0:0,0:0:0:0:
116,132,53966,1,0,0:0:0:0:
116,132,54143,2,0,L|116:248,1,83.9999974365235,2|2,0:0|0:0,0:0:0:0:
32,180,54495,1,0,0:0:0:0:
32,264,54672,1,0,0:0:0:0:
108,312,54848,2,0,P|152:308|196:312,1,83.9999974365235,8|0,0:0|0:0,0:0:0:0:
272,348,55201,2,0,P|313:351|355:347,1,83.9999974365235,8|0,0:0|0:0,0:0:0:0:
428,304,55554,6,0,P|436:236|424:160,1,125.999996154785
440,140,55907,2,0,P|388:148|336:128,1,83.9999974365235,8|0,0:0|0:0,0:0:0:0:
396,64,56260,1,2,0:0:0:0:
312,68,56437,1,2,0:0:0:0:
272,140,56613,2,0,L|272:240,1,83.9999974365235
188,292,56966,2,0,L|188:208,1,83.9999974365235,8|0,0:0|0:0,0:0:0:0:
104,264,57319,2,0,L|104:348,1,83.9999974365235,8|0,0:0|0:0,0:0:0:0:
24,232,57672,38,0,P|16:164|32:92,1,125.999996154785
8,68,58025,2,0,P|52:60|92:68,1,83.9999974365235,8|0,0:0|0:0,0:0:0:0:
156,120,58378,2,0,P|197:127|238:119,1,83.9999974365235,2|2,0:0|0:0,0:0:0:0:
308,76,58731,1,0,0:0:0:0:
392,88,58907,1,0,0:0:0:0:
444,152,59084,1,8,0:0:0:0:
444,236,59260,1,0,0:0:0:0:
444,236,59348,1,0,0:0:0:0:
444,236,59437,2,0,P|440:288|456:332,1,83.9999974365235,8|0,0:0|0:0,0:0:0:0:
372,352,59790,22,0,P|320:356|284:340,1,83.9999974365235
272,264,60143,2,0,P|264:216|224:176,1,83.9999974365235,8|0,0:0|0:0,0:0:0:0:
160,192,60495,2,0,P|112:212|56:200,1,83.9999974365235,2|2,0:0|0:0,0:0:0:0:
44,188,60760,1,0,0:0:0:0:
44,188,60848,2,0,L|44:96,1,83.9999974365235
136,8,61201,2,0,L|136:92,1,83.9999974365235,8|0,0:0|0:0,0:0:0:0:
236,148,61554,2,0,L|236:64,1,83.9999974365235,8|0,0:0|0:0,0:0:0:0:
312,32,61907,21,0,0:0:0:0:
392,56,62084,1,0,0:0:0:0:
416,136,62260,1,8,0:0:0:0:
368,204,62437,2,0,L|368:264,2,41.9999987182618,0|0|10,0:0|0:0|0:0,0:0:0:0:
272,244,62790,2,0,L|272:304,2,41.9999987182618,2|0|4,0:0|0:0|0:1,0:0:0:0:
256,192,63054,12,4,64025,0:0:0:0:
68,128,64378,6,0,B|96:144|96:144|176:144,1,83.9999974365235,8|0,0:0|0:0,0:0:0:0:
188,236,64731,2,0,B|216:252|216:252|296:252,1,83.9999974365235,0|0,0:0|0:0,0:0:0:0:
316,340,65084,2,0,P|408:328|496:348,2,167.999994873047,0|8|8,0:0|0:0|0:0,0:0:0:0:
404,156,66143,38,0,P|364:136|316:128,1,83.9999974365235,0|2,0:0|0:0,0:0:0:0:
248,192,66495,2,0,P|176:188|140:196,1,83.9999974365235,8|2,0:0|0:0,0:0:0:0:
80,200,66848,1,0,0:0:0:0:
32,132,67025,1,0,0:0:0:0:
52,48,67201,2,0,P|104:32|164:40,1,83.9999974365235
196,112,67554,2,0,P|248:112|300:132,1,83.9999974365235,8|0,0:0|0:0,0:0:0:0:
312,216,67907,2,0,P|356:228|408:260,1,83.9999974365235,8|0,0:0|0:0,0:0:0:0:
432,320,68260,22,0,P|392:332|336:308,2,83.9999974365235,0|0|8,0:0|0:0|0:0,0:0:0:0:
480,252,68790,1,0,0:0:0:0:
476,168,68966,1,0,0:0:0:0:
432,96,69143,1,0,0:0:0:0:
352,64,69319,2,0,P|260:80|188:64,2,167.999994873047,0|8|8,0:0|0:0|0:0,0:0:0:0:
212,156,70378,22,0,P|128:136|44:160,1,167.999994873047,0|10,0:0|0:0,0:0:0:0:
12,232,70907,1,0,0:0:0:0:
12,232,71084,2,0,L|12:328,1,83.9999974365235,2|0,0:0|0:0,0:0:0:0:
96,304,71437,2,0,P|156:324|224:300,1,125.999996154785
196,268,71790,2,0,L|296:268,1,83.9999974365235,8|0,0:0|0:0,0:0:0:0:
344,324,72143,2,0,L|444:324,1,83.9999974365235,8|0,0:0|0:0,0:0:0:0:
472,252,72495,6,0,P|480:204|460:156,2,83.9999974365235,4|0|8,0:1|0:0|0:0,0:0:0:0:
396,212,73025,1,0,0:0:0:0:
396,128,73201,1,0,0:0:0:0:
472,88,73378,1,0,0:0:0:0:
472,88,73554,2,0,P|432:52|344:64,1,125.999996154785
324,72,73907,2,0,P|284:84|224:56,1,83.9999974365235,8|0,0:0|0:0,0:0:0:0:
200,144,74260,2,0,L|112:144,1,83.9999974365235,8|0,0:0|0:0,0:0:0:0:
24,212,74613,38,0,P|16:264|32:312,1,83.9999974365235,0|2,0:0|0:0,0:0:0:0:
112,292,74966,2,0,P|156:280|248:296,1,125.999996154785,8|0,0:0|0:0,0:0:0:0:
224,332,75319,2,0,L|316:332,1,83.9999974365235,0|2,0:0|0:0,0:0:0:0:
384,296,75672,1,0,0:0:0:0:
460,332,75848,1,0,0:0:0:0:
400,272,76025,2,0,L|400:184,1,83.9999974365235,8|0,0:0|0:0,0:0:0:0:
316,196,76378,2,0,L|316:108,1,83.9999974365235,8|2,0:0|0:0,0:0:0:0:
316,92,76643,1,0,0:0:0:0:
316,72,76731,1,2,0:0:0:0:
256,192,76819,12,4,79907,0:1:0:0:
300,136,80260,6,0,L|364:120,3,41.9999987182618,2|0|0|0,0:0|0:0|0:0|0:0,0:0:0:0:
384,136,80613,2,0,L|448:120,3,41.9999987182618,2|0|0|0,0:0|0:0|0:0|0:0,0:0:0:0:
464,116,80966,6,0,B|484:180|484:180|472:208,1,83.9999974365235,4|0,0:0|0:0,0:0:0:0:
412,248,81319,2,0,B|432:312|432:312|420:340,1,83.9999974365235,12|2,0:0|0:0,0:0:0:0:
344,356,81672,2,0,L|248:356,1,83.9999974365235,4|2,0:0|0:0,0:0:0:0:
184,316,82025,2,0,P|128:304|56:320,1,125.999996154785,2|0,0:0|0:0,0:0:0:0:
24,336,82378,2,0,L|24:240,1,83.9999974365235,10|0,0:0|0:0,0:0:0:0:
104,224,82731,2,0,L|104:128,1,83.9999974365235,8|2,0:0|0:0,0:0:0:0:
56,68,83084,6,0,B|80:56|80:56|172:64,1,83.9999974365235
188,124,83437,2,0,B|212:112|212:112|304:120,1,83.9999974365235,8|2,0:0|0:0,0:0:0:0:
344,88,83790,2,0,P|396:100|480:84,1,125.999996154785,2|0,0:0|0:0,0:0:0:0:
504,72,84143,2,0,L|504:184,1,83.9999974365235,8|2,0:0|0:0,0:0:0:0:
428,196,84495,2,0,L|428:308,1,83.9999974365235,8|2,0:0|0:0,0:0:0:0:
360,328,84848,1,10,0:0:0:0:
276,328,85025,1,0,0:0:0:0:
216,272,85201,22,0,P|208:224|224:176,2,83.9999974365235,2|0|8,0:0|0:0|0:0,0:0:0:0:
292,232,85731,1,2,0:0:0:0:
316,152,85907,2,0,P|324:108|304:56,1,83.9999974365235
236,36,86260,2,0,P|144:48|56:28,2,167.999994873047,2|8|10,0:0|0:0|0:0,0:0:0:0:
108,144,87319,5,2,0:0:0:0:
48,204,87495,1,0,0:0:0:0:
108,264,87672,1,8,0:0:0:0:
164,204,87848,1,2,0:0:0:0:
216,136,88025,2,0,L|324:136,1,83.9999974365235
352,72,88378,2,0,L|412:72,2,41.9999987182618,10|0|2,0:0|0:0|0:0,0:0:0:0:
432,152,88731,2,0,L|492:152,2,41.9999987182618,10|0|2,0:0|0:0|0:0,0:0:0:0:
316,236,89084,2,0,L|376:236,2,41.9999987182618,10|0|2,0:0|0:0|0:0,0:0:0:0:
204,280,89437,6,0,P|112:304|32:268,1,167.999994873047,4|8,0:0|0:0,0:0:0:0:
16,200,89966,1,2,0:0:0:0:
16,200,90143,2,0,L|16:116,1,83.9999974365235
84,68,90495,2,0,B|104:76|104:76|176:64,1,83.9999974365235,2|0,0:0|0:0,0:0:0:0:
176,148,90848,2,0,B|196:156|196:156|268:144,1,83.9999974365235,8|2,0:0|0:0,0:0:0:0:
340,132,91201,1,8,0:0:0:0:
424,116,91378,22,0,L|424:44,2,41.9999987182618,2|0|2,0:0|0:0|0:0,0:0:0:0:
484,176,91731,2,0,L|484:272,1,83.9999974365235,0|10,0:0|0:0,0:0:0:0:
400,248,92084,1,2,0:0:0:0:
332,296,92260,2,0,P|300:320|280:368,1,83.9999974365235,0|2,0:0|0:0,0:0:0:0:
216,304,92613,2,0,P|148:288|104:240,1,125.999996154785
68,256,92966,2,0,L|68:156,1,83.9999974365235,10|2,0:0|0:0,0:0:0:0:
152,76,93319,2,0,L|152:160,2,83.9999974365235,8|2|0,0:0|0:0|0:0,0:0:0:0:
232,48,93848,5,2,0:0:0:0:
312,76,94025,1,10,0:0:0:0:
352,152,94201,1,0,0:0:0:0:
324,232,94378,1,2,0:0:0:0:
252,276,94554,1,2,0:0:0:0:
172,256,94731,2,0,P|120:244|48:256,1,125.999996154785,2|0,0:0|0:0,0:0:0:0:
16,280,95084,2,0,P|8:212|16:144,1,125.999996154785,8|0,0:0|0:0,0:0:0:0:
20,112,95437,2,0,P|84:128|160:104,1,125.999996154785,10|0,0:0|0:0,0:0:0:0:
180,96,95790,1,4,0:1:0:0:
256,192,95878,12,4,96848,0:1:0:0:
396,60,97201,22,0,P|396:112|428:152,1,83.9999974365235,8|0,0:0|0:0,0:0:0:0:
464,204,97554,2,0,L|464:260,4,41.9999987182618,8|0|2|0|4,0:0|0:0|0:0|0:0|0:0,0:0:0:0:
304,256,98260,6,0,P|260:260|208:256,1,83.9999974365235,8|0,0:0|0:0,0:0:0:0:
184,180,98613,2,0,P|140:184|88:180,1,83.9999974365235,2|2,0:0|0:0,0:0:0:0:
40,124,98966,1,0,0:0:0:0:
84,52,99143,1,0,0:0:0:0:
164,28,99319,1,8,0:0:0:0:
244,48,99495,1,2,0:0:0:0:
296,112,99672,2,0,P|337:114|379:110,1,83.9999974365235,8|0,0:0|0:0,0:0:0:0:
364,224,100025,6,0,P|360:272|364:312,1,83.9999974365235,2|0,0:0|0:0,0:0:0:0:
464,256,100378,2,0,P|468:212|464:164,1,83.9999974365235,8|2,0:0|0:0,0:0:0:0:
388,204,100731,2,0,P|340:212|280:192,1,83.9999974365235,2|0,0:0|0:0,0:0:0:0:
224,184,101084,2,0,P|160:176|72:196,1,125.999996154785,2|0,0:0|0:0,0:0:0:0:
56,184,101437,2,0,L|56:280,1,83.9999974365235,8|2,0:0|0:0,0:0:0:0:
64,352,101790,2,0,P|140:360|196:348,1,125.999996154785,8|0,0:0|0:0,0:0:0:0:
228,344,102143,5,0,0:0:0:0:
288,288,102319,1,2,0:0:0:0:
352,344,102495,1,8,0:0:0:0:
412,288,102672,1,2,0:0:0:0:
476,236,102848,2,0,P|484:192|472:120,1,83.9999974365235,2|0,0:0|0:0,0:0:0:0:
484,112,103113,1,0,0:0:0:0:
484,112,103201,2,0,P|392:120|312:108,2,167.999994873047,0|10|10,0:0|0:0|0:0,0:0:0:0:
332,36,104260,22,0,B|312:28|312:28|232:40,1,83.9999974365235,2|0,0:0|0:0,0:0:0:0:
216,112,104613,2,0,B|196:104|196:104|116:116,1,83.9999974365235,8|2,0:0|0:0,0:0:0:0:
52,124,104966,1,0,0:0:0:0:
8,196,105143,1,2,0:0:0:0:
52,268,105319,1,0,0:0:0:0:
136,256,105495,1,2,0:0:0:0:
180,184,105672,1,10,0:0:0:0:
216,112,105848,2,0,P|260:120|328:100,1,83.9999974365235,0|8,0:0|0:0,0:0:0:0:
372,76,106201,2,0,L|444:76,2,41.9999987182618,2|0|4,0:0|0:0|0:0,0:0:0:0:
468,216,106731,5,8,0:0:0:0:
396,260,106907,2,0,P|328:248|212:264,1,167.999994873047,2|0,0:0|0:0,0:0:0:0:
216,340,107437,2,0,L|112:340,1,83.9999974365235,2|0,0:0|0:0,0:0:0:0:
108,260,107790,2,0,L|4:260,1,83.9999974365235,8|0,0:0|0:0,0:0:0:0:
20,176,108143,2,0,P|12:124|20:80,1,83.9999974365235,10|2,0:0|0:0,0:0:0:0:
32,52,108407,1,0,0:0:0:0:
32,52,108495,2,0,L|136:52,1,83.9999974365235
144,132,108848,2,0,P|176:160|196:208,1,83.9999974365235,8|2,0:0|0:0,0:0:0:0:
276,196,109201,2,0,L|380:196,1,83.9999974365235,0|2,0:0|0:0,0:0:0:0:
436,304,109554,6,0,B|416:308|416:308|392:376,1,83.9999974365235
312,312,109907,2,0,B|292:316|292:316|268:384,1,83.9999974365235,10|2,0:0|0:0,0:0:0:0:
188,316,110260,2,0,B|168:320|168:320|144:388,1,83.9999974365235,8|2,0:0|0:0,0:0:0:0:
72,296,110613,1,0,0:0:0:0:
44,216,110790,1,2,0:0:0:0:
84,144,110966,1,10,0:0:0:0:
168,132,111143,1,0,0:0:0:0:
244,172,111319,2,0,P|292:184|352:168,1,83.9999974365235,2|0,0:0|0:0,0:0:0:0:
332,96,111672,22,0,P|336:44|344:8,1,83.9999974365235,2|0,0:0|0:0,0:0:0:0:
424,32,112025,2,0,P|464:32|528:48,1,83.9999974365235,8|2,0:0|0:0,0:0:0:0:
496,124,112378,2,0,P|496:164|480:224,1,83.9999974365235,8|2,0:0|0:0,0:0:0:0:
424,260,112731,2,0,P|356:248|288:268,1,125.999996154785,2|0,0:0|0:0,0:0:0:0:
292,304,113084,2,0,L|188:304,1,83.9999974365235,8|0,0:0|0:0,0:0:0:0:
204,220,113437,2,0,L|100:220,1,83.9999974365235,2|0,0:0|0:0,0:0:0:0:
52,168,113790,6,0,P|28:80|56:8,2,167.999994873047,0|10|10,0:0|0:0|0:0,0:0:0:0:
180,60,114848,2,0,P|272:72|364:52,1,167.999994873047,4|2,0:0|0:0,0:0:0:0:
420,20,115378,2,0,L|420:132,1,83.9999974365235,0|2,0:0|0:0,0:0:0:0:
364,264,115907,2,0,L|364:180,1,83.9999974365235,0|2,0:0|0:0,0:0:0:0:
280,164,116260,1,2,0:0:0:0:
216,220,116437,1,0,0:0:0:0:
220,304,116613,2,0,P|160:324|112:304,1,83.9999974365235,2|0,0:0|0:0,0:0:0:0:
64,284,116966,22,0,P|56:192|64:112,2,167.999994873047,0|2|2,0:0|0:0|0:0,0:0:0:0:
148,264,117848,1,0,0:0:0:0:
220,304,118025,2,0,P|280:316|388:296,2,167.999994873047,2|2|0,0:0|0:0|0:0,0:0:0:0:
220,220,118907,2,0,P|225:175|220:136,1,83.9999974365235,2|0,0:0|0:0,0:0:0:0:
136,136,119260,5,0,0:0:0:0:
136,136,119437,2,0,P|88:144|48:136,1,83.9999974365235
176,52,119790,2,0,P|224:44|264:52,1,83.9999974365235,2|2,0:0|0:0,0:0:0:0:
332,92,120143,2,0,L|332:184,1,83.9999974365235
416,236,120495,2,0,L|416:152,1,83.9999974365235,0|0,0:0|0:0,0:0:0:0:
500,200,120848,2,0,L|500:292,1,83.9999974365235,2|2,0:0|0:0,0:0:0:0:
424,328,121201,37,0,0:0:0:0:
320,320,121415,1,0,0:0:0:0:
252,240,121629,1,2,0:0:0:0:
260,136,121843,1,0,0:0:0:0:
320,80,122058,2,0,P|360:84|408:76,1,70,0|2,0:0|0:0,0:0:0:0:
228,32,122603,22,0,P|192:24|152:32,1,70,2|0,0:0|0:0,0:0:0:0:
32,176,123269,2,0,P|76:180|128:160,1,70,2|0,0:0|0:0,0:0:0:0:
256,192,124169,12,0,125369,0:0:0:0:
