osu file format v13

[General]
AudioFilename: 08. Element of SPADA.mp3
AudioLeadIn: 0
PreviewTime: 80613
Countdown: 0
SampleSet: Soft
StackLeniency: 0.7
Mode: 0
LetterboxInBreaks: 1
WidescreenStoryboard: 0

[Editor]
DistanceSpacing: 1
BeatDivisor: 4
GridSize: 4
TimelineZoom: 1

[Metadata]
Title:Element of SPADA
TitleUnicode:Element of SPADA
Artist:Nekomata Master feat. Shimotsuki Haruka
ArtistUnicode:猫叉Master feat. 霜月はるか
Creator:Strawberry
Version:Beginner
Source:beatmania IIDX 21 SPADA
Tags:iidx21 bemani arcade
BeatmapID:455090
BeatmapSetID:158899

[Difficulty]
HPDrainRate:2
CircleSize:3
OverallDifficulty:1
ApproachRate:3
SliderMultiplier:0.799999999999999
SliderTickRate:1

[Events]
//Background and Video events
0,0,"687474703a2f2f7075752e73682f37444772572e6a7067.jpg",0,0
//Break Periods
//Storyboard Layer 0 (Background)
//Storyboard Layer 1 (Fail)
//Storyboard Layer 2 (Pass)
//Storyboard Layer 3 (Foreground)
//Storyboard Sound Samples
//Background Colour Transformations
3,100,163,162,255

[TimingPoints]
496,352.941176470588,3,2,1,30,1,0
1907,-100,3,2,1,20,0,0
2084,-100,3,2,1,30,0,0
4731,-83.3333333333333,3,2,1,40,0,0
12495,-83.3333333333333,3,2,1,50,0,0
12672,-83.3333333333333,3,2,1,60,0,0
12848,-83.3333333333333,3,2,1,70,0,0
13201,-83.3333333333333,3,2,1,80,0,1
21495,-83.3333333333333,3,2,1,80,0,0
21672,-83.3333333333333,3,2,1,80,0,1
30143,-100,3,2,1,50,0,0
34378,-100,3,2,1,60,0,0
34554,-100,3,2,1,50,0,0
47084,-83.3333333333333,3,2,1,70,0,0
64025,-83.3333333333333,3,2,1,70,0,1
64201,-83.3333333333333,3,2,1,70,0,0
80966,-83.3333333333333,3,2,2,80,0,1
97731,-83.3333333333333,3,2,2,70,0,0
97907,-83.3333333333333,3,2,2,80,0,1
114848,-83.3333333333333,3,2,1,70,0,0
115201,-83.3333333333333,3,2,1,50,0,0
121201,428.571428571429,3,2,1,30,1,0
122058,545.454545454546,3,2,1,30,1,0
122603,666.666666666667,3,2,1,30,1,0
123269,800,3,2,1,30,1,0
123669,1000,3,2,1,30,1,0
124169,1200,3,2,1,30,1,0

[Colours]
Combo1 : 201,113,234
Combo2 : 192,192,192
Combo3 : 0,128,255
Combo4 : 243,191,103

[HitObjects]
464,112,496,6,0,P|384:144|228:108,2,240,0|2|0,0:0|0:0|0:0,0:0:0:0:
396,316,3672,2,0,L|300:316,1,79.9999999999999,2|2,0:0|0:0,0:0:0:0:
248,272,4378,2,0,L|164:272,1,79.9999999999999,2|4,0:0|0:0,0:0:0:0:
256,192,4907,12,0,8966,0:0:0:0:
392,72,10025,5,2,0:0:0:0:
296,56,10378,2,0,P|244:84|216:220,1,191.999994140625,0|2,0:0|0:0,0:0:0:0:
256,292,11437,2,0,P|324:264|444:320,1,191.999994140625,0|2,0:0|0:0,0:0:0:0:
504,240,12495,2,0,L|504:128,1,95.9999970703125,2|2,0:0|0:0,0:0:0:0:
504,48,13201,5,4,0:1:0:0:
224,96,14260,2,0,P|120:72|32:104,1,191.999994140625,0|8,0:0|0:0,0:0:0:0:
40,196,15319,2,0,P|52:248|92:280,1,95.9999970703125,0|8,0:0|0:0,0:0:0:0:
180,280,16025,1,0,0:0:0:0:
276,276,16378,2,0,P|309:309|318:355,2,95.9999970703125,0|8|8,0:0|0:0|0:0,0:0:0:0:
352,216,17437,22,0,L|464:216,1,95.9999970703125,0|8,0:0|0:0,0:0:0:0:
500,136,18143,1,0,0:0:0:0:
452,52,18495,2,0,L|356:52,1,95.9999970703125,0|8,0:0|0:0,0:0:0:0:
260,52,19201,1,8,0:0:0:0:
200,128,19554,2,0,P|108:152|-8:112,1,191.999994140625,0|8,0:0|0:0,0:0:0:0:
12,224,20613,2,0,L|12:340,2,95.9999970703125,0|8|8,0:0|0:0|0:0,0:0:0:0:
108,236,21672,5,4,0:1:0:0:
180,296,22025,2,0,P|236:328|376:332,1,191.999994140625,8|0,0:0|0:0,0:0:0:0:
432,268,23084,2,0,L|432:160,1,95.9999970703125,8|8,0:0|0:0,0:0:0:0:
324,12,24143,2,0,P|332:60|316:112,1,95.9999970703125,8|0,0:0|0:0,0:0:0:0:
236,156,24848,2,0,P|184:144|128:164,1,95.9999970703125,0|8,0:0|0:0,0:0:0:0:
60,200,25554,1,8,0:0:0:0:
24,288,25907,38,0,L|24:388,2,95.9999970703125,0|8|0,0:0|0:0|0:0,0:0:0:0:
116,308,26966,2,0,P|260:340|416:284,1,287.999991210937
456,232,28378,2,0,L|456:132,1,95.9999970703125,8|0,0:0|0:0,0:0:0:0:
388,68,29084,2,0,P|249:35|112:75,1,287.999991210937,4|4,0:0|0:1,0:0:0:0:
48,124,30495,6,0,L|48:224,1,79.9999999999999,2|0,0:0|0:0,0:0:0:0:
124,232,31201,2,0,P|168:240|220:220,2,79.9999999999999,2|2|2,0:0|0:0|0:0,0:0:0:0:
160,160,32260,1,0,0:0:0:0:
320,160,32966,1,2,0:0:0:0:
361,231,33319,2,0,P|322:240|284:232,2,79.9999999999999,2|2|0,0:0|0:0|0:1,0:0:0:0:
440,212,34378,6,0,P|456:120|436:40,1,160,2|0,3:3|0:0,0:0:0:0:
372,16,35437,1,0,0:0:0:0:
228,88,36143,1,2,0:0:0:0:
152,112,36495,2,0,P|112:116|64:108,2,79.9999999999999,0|2|0,0:0|0:0|0:0,0:0:0:0:
200,176,37554,1,0,0:0:0:0:
152,240,37907,2,0,P|156:282|152:324,1,79.9999999999999,0|2,0:1|0:0,0:0:0:0:
232,336,38613,22,0,B|284:304|336:304|360:372|412:384|480:324,1,240,2|0,3:3|0:0,0:0:0:0:
500,272,40025,2,0,L|500:176,1,79.9999999999999,0|0,0:1|0:0,0:0:0:0:
460,124,40731,2,0,P|380:104|292:124,1,160
240,168,41790,2,0,L|152:168,2,79.9999999999999,0|2|2,0:0|0:0|0:0,0:0:0:0:
304,220,42848,6,0,L|396:220,2,79.9999999999999,0|0|0,0:0|0:1|0:0,0:0:0:0:
240,268,43907,2,0,P|152:280|76:264,1,160,0|2,0:0|0:0,0:0:0:0:
28,208,44966,2,0,L|28:124,1,79.9999999999999,0|2,0:0|0:0,0:0:0:0:
88,76,45672,1,0,0:0:0:0:
168,76,46025,2,0,L|284:76,2,79.9999999999999,0|0|0,0:0|0:1|0:1,0:0:0:0:
128,164,47084,5,4,2:1:0:0:
168,252,47437,2,0,P|215:259|262:252,1,95.9999970703125,8|0,0:0|0:0,0:0:0:0:
356,228,48143,2,0,P|380:132|348:28,1,191.999994140625,0|0,0:0|0:3,0:0:0:0:
262,20,49201,2,0,P|215:12|168:20,2,95.9999970703125,0|8|0,0:0|0:0|0:0,0:0:0:0:
357,43,50260,1,0,0:0:0:0:
440,92,50613,2,0,L|440:200,1,95.9999970703125,8|8,0:0|0:0,0:0:0:0:
440,284,51319,1,0,0:0:0:0:
256,340,52025,21,0,0:0:0:0:
164,320,52378,2,0,P|68:272|40:180,1,191.999994140625,0|8,0:0|0:0,0:0:0:0:
72,104,53437,2,0,L|184:104,1,95.9999970703125,0|8,0:0|0:0,0:0:0:0:
244,44,54143,1,0,0:0:0:0:
244,44,54495,2,0,L|360:44,2,95.9999970703125,0|8|8,0:0|0:0|0:0,0:0:0:0:
292,128,55554,6,0,P|264:220|304:324,1,191.999994140625,4|0,0:1|0:0,0:0:0:0:
388,312,56613,2,0,P|416:220|376:116,1,191.999994140625,0|8,0:0|0:0,0:0:0:0:
340,48,57672,2,0,P|288:36|228:60,1,95.9999970703125,0|8,0:0|0:0,0:0:0:0:
168,100,58378,1,0,0:0:0:0:
168,100,58731,2,0,P|121:110|75:98,1,95.9999970703125,0|8,0:0|0:0,0:0:0:0:
36,188,59437,6,0,L|36:288,1,95.9999970703125,8|4,0:0|0:1,0:0:0:0:
208,368,60495,2,0,L|208:272,1,95.9999970703125,0|8,0:0|0:0,0:0:0:0:
380,188,61554,2,0,L|380:288,1,95.9999970703125,0|4,0:0|0:1,0:0:0:0:
472,252,62260,1,0,0:0:0:0:
384,80,62966,2,0,P|252:20|124:88,1,287.999991210937,4|4,0:0|0:1,0:0:0:0:
256,192,64201,12,0,66143,0:0:0:0:
256,68,66848,5,8,0:0:0:0:
344,100,67201,1,2,0:0:0:0:
380,188,67554,1,8,0:0:0:0:
344,276,67907,1,2,0:0:0:0:
260,320,68260,2,0,B|220:264|100:252|184:348|44:364|16:280,1,287.999991210937,2|8,0:0|0:0,0:0:0:0:
256,192,69495,12,4,71437,0:0:0:0:
168,152,72495,6,0,P|260:120|360:164,1,191.999994140625,4|0,0:1|0:0,0:0:0:0:
400,228,73554,2,0,L|400:340,2,95.9999970703125,0|8|8,0:0|0:0|0:0,0:0:0:0:
308,256,74613,2,0,P|256:280|204:272,1,95.9999970703125,0|8,0:0|0:0,0:0:0:0:
156,204,75319,1,2,0:0:0:0:
104,124,75672,2,0,P|61:101|14:102,2,95.9999970703125,0|8|8,0:0|0:0|0:0,0:0:0:0:
40,196,76731,22,0,P|12:288|48:384,1,191.999994140625,2|0,0:0|0:0,0:0:0:0:
132,348,77790,2,0,L|240:348,1,95.9999970703125,0|8,0:0|0:0,0:0:0:0:
320,320,78495,1,8,0:0:0:0:
392,256,78848,2,0,P|456:248|504:268,2,95.9999970703125,2|8|0,0:0|0:0|0:0,0:0:0:0:
304,216,79907,2,0,P|216:244|112:204,1,191.999994140625,8|0,0:0|0:0,0:0:0:0:
68,136,80966,1,4,0:0:0:0:
344,52,82025,6,0,L|448:52,2,95.9999970703125,2|8|2,0:0|0:0|0:0,0:0:0:0:
268,108,83084,2,0,P|236:204|288:304,1,191.999994140625,0|8,0:0|0:0,0:0:0:0:
344,344,84143,2,0,L|448:344,2,95.9999970703125,10|8|2,0:0|0:0|0:0,0:0:0:0:
248,344,85201,1,2,0:0:0:0:
56,248,86260,6,0,P|44:200|60:140,2,95.9999970703125,2|8|2,0:0|0:0|0:0,0:0:0:0:
136,196,87319,2,0,L|240:196,1,95.9999970703125,0|8,0:0|0:0,0:0:0:0:
404,112,88378,1,0,0:0:0:0:
332,176,88731,2,0,P|364:268|332:356,1,191.999994140625,0|4,0:0|0:0,0:0:0:0:
40,216,90495,6,0,L|40:120,2,95.9999970703125,0|8|2,0:0|0:0|0:0,0:0:0:0:
120,268,91554,1,0,0:0:0:0:
200,216,91907,2,0,P|256:208|312:224,1,95.9999970703125,8|8,0:0|0:0,0:0:0:0:
376,268,92613,2,0,P|423:276|470:267,2,95.9999970703125,2|8|0,0:0|0:0|0:0,0:0:0:0:
424,184,93672,1,2,0:0:0:0:
256,192,93848,12,4,95790,0:0:0:0:
128,80,96848,5,4,1:0:0:0:
216,124,97201,1,0,1:0:0:0:
308,96,97554,1,0,1:0:0:0:
360,16,97907,1,4,1:0:0:0:
464,284,98966,6,0,L|464:184,2,95.9999970703125,2|8|2,0:0|0:0|0:0,0:0:0:0:
376,320,100025,2,0,P|280:340|176:304,1,191.999994140625,0|8,0:0|0:0,0:0:0:0:
100,284,101084,2,0,L|100:184,2,95.9999970703125,0|8|2,0:0|0:0|0:0,0:0:0:0:
12,324,102143,2,0,L|12:376,2,47.9999985351562,0|2|8,0:0|0:0|0:0,0:0:0:0:
92,148,103201,1,2,0:0:0:0:
152,72,103554,1,8,0:0:0:0:
248,88,103907,1,8,0:0:0:0:
300,168,104260,2,0,L|300:244,2,47.9999985351562,0|2|4,0:0|0:0|0:0,0:0:0:0:
484,112,105319,22,0,P|492:56|468:-4,2,95.9999970703125,2|8|8,0:0|0:0|0:0,0:0:0:0:
408,172,106378,2,0,P|392:268|424:364,1,191.999994140625,4|2,0:1|0:0,0:0:0:0:
324,356,107437,2,0,P|268:364|224:352,1,95.9999970703125,0|8,0:0|0:0,0:0:0:0:
168,280,108143,1,8,0:0:0:0:
168,280,108495,6,0,P|121:270|74:278,1,95.9999970703125,0|8,0:0|0:0,0:0:0:0:
24,196,109201,1,0,0:0:0:0:
36,100,109554,2,0,P|132:76|244:120,1,191.999994140625,0|8,0:0|0:0,0:0:0:0:
296,160,110613,2,0,P|387:185|479:161,1,191.999994140625,2|2,0:0|0:0,0:0:0:0:
504,68,111672,1,8,0:0:0:0:
504,260,112378,5,2,0:0:0:0:
420,308,112731,2,0,P|372:318|312:296,2,95.9999970703125,0|8|0,0:3|0:0|0:0,0:0:0:0:
380,220,113790,1,0,0:0:0:0:
192,232,114495,2,0,P|188:184|196:120,1,95.9999970703125,8|4,0:0|0:1,0:0:0:0:
256,192,115025,12,0,116966,0:0:0:0:
364,128,117672,6,0,L|480:128,1,95.9999970703125,0|2,0:0|0:0,0:0:0:0:
320,256,118731,2,0,L|224:256,1,95.9999970703125,0|2,0:0|0:0,0:0:0:0:
256,192,119437,12,0,124169,0:0:0:0:
