osu file format v13

[General]
AudioFilename: 08. Element of SPADA.mp3
AudioLeadIn: 0
PreviewTime: 80613
Countdown: 0
SampleSet: Soft
StackLeniency: 0.7
Mode: 0
LetterboxInBreaks: 1
WidescreenStoryboard: 0

[Editor]
DistanceSpacing: 1.5
BeatDivisor: 4
GridSize: 4
TimelineZoom: 1

[Metadata]
Title:Element of SPADA
TitleUnicode:Element of SPADA
Artist:Nekomata Master feat. Shimotsuki Haruka
ArtistUnicode:猫叉Master feat. 霜月はるか
Creator:Strawberry
Version:Another
Source:beatmania IIDX 21 SPADA
Tags:iidx21 bemani arcade
BeatmapID:388541
BeatmapSetID:158899

[Difficulty]
HPDrainRate:7
CircleSize:4
OverallDifficulty:7.5
ApproachRate:9
SliderMultiplier:1.7
SliderTickRate:1

[Events]
//Background and Video events
0,0,"44526375.jpg",0,0
//Break Periods
//Storyboard Layer 0 (Background)
//Storyboard Layer 1 (Fail)
//Storyboard Layer 2 (Pass)
//Storyboard Layer 3 (Foreground)
//Storyboard Sound Samples
//Background Colour Transformations
3,100,163,162,255

[TimingPoints]
496,352.941176470588,3,2,1,30,1,0
1907,-100,3,2,1,20,0,0
2084,-100,3,2,1,30,0,0
4731,-83.3333333333333,3,2,1,40,0,0
12495,-83.3333333333333,3,2,1,50,0,0
12672,-83.3333333333333,3,2,1,60,0,0
12848,-83.3333333333333,3,2,1,70,0,0
13201,-83.3333333333333,3,2,1,80,0,1
21495,-83.3333333333333,3,2,1,80,0,0
21672,-83.3333333333333,3,2,1,80,0,1
30143,-100,3,2,1,50,0,0
34378,-100,3,2,1,60,0,0
34554,-100,3,2,1,50,0,0
47084,-83.3333333333333,3,2,1,70,0,0
64025,-83.3333333333333,3,2,1,70,0,1
64201,-83.3333333333333,3,2,1,70,0,0
80966,-83.3333333333333,3,2,2,80,0,1
81319,-83.3333333333333,3,2,2,60,0,1
81495,-83.3333333333333,3,2,2,80,0,1
81672,-83.3333333333333,3,2,2,60,0,1
81760,-83.3333333333333,3,2,2,80,0,1
97731,-83.3333333333333,3,2,2,70,0,0
97907,-83.3333333333333,3,2,2,80,0,1
106731,-83.3333333333333,3,2,2,60,0,1
106907,-83.3333333333333,3,2,2,80,0,1
114848,-83.3333333333333,3,2,1,70,0,0
115201,-83.3333333333333,3,2,1,50,0,0
121201,428.571428571429,3,2,1,30,1,0
122058,545.454545454546,3,2,1,30,1,0
122603,666.666666666667,3,2,1,30,1,0
123269,800,3,2,1,30,1,0
123669,1000,3,2,1,30,1,0
124169,1200,3,2,1,30,1,0

[Colours]
Combo1 : 201,113,234
Combo2 : 192,192,192
Combo3 : 0,128,255
Combo4 : 243,191,103

[HitObjects]
88,304,496,6,0,P|160:272|168:224,1,127.5,0|0,0:0|0:0,0:0:0:0:
164,204,848,1,2,0:0:0:0:
96,144,1025,2,0,L|96:40,1,85,0|2,0:0|0:0,0:0:0:0:
96,60,1554,1,0,0:0:0:0:
252,192,1819,1,0,0:0:0:0:
252,192,1907,1,2,0:0:0:0:
180,116,2084,1,0,0:0:0:0:
80,228,2260,2,0,B|52:220|52:220|33:227|-8:228,2,85,2|0|2,0:0|0:0|0:0,0:0:0:0:
416,112,2966,2,0,P|404:68|424:16,1,85,0|2,0:0|0:0,0:0:0:0:
488,72,3319,1,0,0:0:0:0:
268,124,3672,6,0,L|148:120,1,85,2|0,0:0|0:0,0:0:0:0:
99,217,4025,2,0,L|183:219,1,85,2|0,0:0|0:0,0:0:0:0:
112,312,4378,2,0,L|27:309,1,85,2|0,0:0|0:0,0:0:0:0:
80,348,4731,38,0,P|168:328|236:356,1,152.999995330811,4|0,0:0|0:0,0:0:0:0:
232,364,5084,1,2,0:0:0:0:
316,336,5260,1,0,0:0:0:0:
402,216,5437,2,0,P|416:264|399:311,1,101.999996887207,2|0,0:0|0:0,0:0:0:0:
424,224,5790,2,0,P|409:175|426:128,1,101.999996887207
488,68,6143,1,2,0:0:0:0:
496,168,6319,1,0,0:0:0:0:
388,52,6495,1,2,0:0:0:0:
348,148,6672,5,0,0:0:0:0:
348,148,6760,1,0,0:0:0:0:
348,148,6848,2,0,P|288:176|208:144,1,152.999995330811
232,124,7201,2,0,L|232:240,1,101.999996887207,2|0,0:0|0:0,0:0:0:0:
128,280,7554,2,0,P|120:232|128:178,1,101.999996887207,2|0,0:0|0:0,0:0:0:0:
20,60,7907,2,0,P|76:80|128:56,1,101.999996887207
124,60,8143,1,0,0:0:0:0:
136,52,8201,1,0,0:0:0:0:
148,44,8260,2,0,P|188:32|260:56,1,101.999996887207
232,124,8613,1,0,0:0:0:0:
20,60,8790,1,0,0:0:0:0:
244,28,8966,38,0,P|319:18|404:28,1,152.999995330811
376,48,9319,2,0,L|376:156,1,101.999996887207,2|0,0:0|0:0,0:0:0:0:
376,256,9672,1,2,0:0:0:0:
468,136,9848,1,0,0:0:0:0:
376,256,10025,2,0,P|356:304|384:360,1,101.999996887207
328,256,10378,2,0,P|348:208|320:152,1,101.999996887207,2|0,0:0|0:0,0:0:0:0:
256,208,10731,1,2,0:0:0:0:
244,292,10907,1,0,0:0:0:0:
328,256,11084,6,0,P|348:208|320:152,1,101.999996887207
331,163,11348,1,0,0:0:0:0:
332,163,11437,2,0,P|315:115|335:70,1,101.999996887207,2|0,0:0|0:0,0:0:0:0:
456,73,11790,1,2,0:0:0:0:
395,118,11966,1,0,0:0:0:0:
240,72,12143,2,0,L|136:72,1,101.999996887207
56,72,12495,1,0,0:0:0:0:
200,184,12672,1,0,0:0:0:0:
148,8,12848,1,0,0:0:0:0:
92,184,13025,1,8,0:0:0:0:
148,288,13201,1,4,0:1:0:0:
148,112,13378,5,0,0:0:0:0:
148,112,13466,1,0,0:0:0:0:
148,112,13554,1,8,0:0:0:0:
92,184,13731,1,0,0:0:0:0:
232,84,13907,2,0,P|292:96|340:80,1,101.999996887207,2|0,0:0|0:0,0:0:0:0:
504,52,14260,2,0,P|444:40|396:56,1,101.999996887207
232,84,14613,1,8,0:0:0:0:
432,124,14790,1,0,0:0:0:0:
148,112,14966,1,8,0:0:0:0:
432,124,15143,1,0,0:0:0:0:
384,216,15319,22,0,P|404:264|452:292,1,101.999996887207
308,145,15672,2,0,P|284:189|280:240,1,101.999996887207,8|0,0:0|0:0,0:0:0:0:
325,50,16025,2,0,P|275:58|232:84,1,101.999996887207,2|0,0:0|0:0,0:0:0:0:
72,68,16378,1,0,0:0:0:0:
148,112,16554,1,0,0:0:0:0:
36,164,16731,2,0,B|20:236|20:236|36:276,1,101.999996887207,8|0,0:0|0:0,0:0:0:0:
124,212,17084,2,0,B|108:284|108:284|124:324,1,101.999996887207,8|0,0:0|0:0,0:0:0:0:
316,304,17437,22,0,P|368:328|428:320,1,101.999996887207
348,212,17790,2,0,P|297:211|252:233,1,101.999996887207,8|0,0:0|0:0,0:0:0:0:
196,300,18143,1,2,0:0:0:0:
48,240,18319,1,0,0:0:0:0:
124,212,18495,2,0,L|124:104,1,101.999996887207
208,172,18848,2,0,L|208:70,1,101.999996887207,8|0,0:0|0:0,0:0:0:0:
292,140,19201,2,0,L|292:38,1,101.999996887207,8|0,0:0|0:0,0:0:0:0:
440,84,19554,21,0,0:0:0:0:
512,128,19731,1,0,0:0:0:0:
440,84,19907,2,0,P|432:128|464:200,1,101.999996887207,8|0,0:0|0:0,0:0:0:0:
428,288,20260,2,0,P|436:244|404:172,1,101.999996887207,2|0,0:0|0:0,0:0:0:0:
352,248,20613,1,0,0:0:0:0:
352,332,20790,1,0,0:0:0:0:
352,332,20878,1,0,0:0:0:0:
352,332,20966,1,4,0:1:0:0:
504,248,21143,1,0,0:0:0:0:
348,164,21319,1,8,0:0:0:0:
352,332,21495,1,0,0:0:0:0:
504,248,21672,22,0,B|496:216|496:216|504:132,1,101.999996887207,4|0,0:1|0:0,0:0:0:0:
420,96,22025,1,8,0:0:0:0:
348,164,22201,2,0,B|341:232|341:232|349:264,1,101.999996887207,0|2,0:0|0:0,0:0:0:0:
264,320,22554,1,0,0:0:0:0:
172,288,22731,2,0,L|172:186,1,101.999996887207
176,32,23084,1,8,0:0:0:0:
96,72,23260,2,0,P|40:80|-16:64,1,101.999996887207,0|8,0:0|0:0,0:0:0:0:
176,32,23613,1,0,0:0:0:0:
216,108,23790,22,0,P|272:100|328:116,1,101.999996887207
352,232,24143,2,0,P|296:212|268:176,1,101.999996887207,8|0,0:0|0:0,0:0:0:0:
424,180,24495,2,0,P|440:232|424:288,1,101.999996887207,0|2,0:0|0:0,0:0:0:0:
270,180,24848,1,0,0:0:0:0:
176,196,25025,1,0,0:0:0:0:
120,268,25201,2,0,P|126:351|120:380,1,101.999996887207,8|0,0:0|0:0,0:0:0:0:
44,224,25554,2,0,P|36:188|44:122,1,101.999996887207,8|0,0:0|0:0,0:0:0:0:
72,84,25819,21,0,0:0:0:0:
72,84,25907,2,0,P|128:96|184:76,1,101.999996887207
308,32,26260,2,0,L|440:32,1,101.999996887207,8|0,0:0|0:0,0:0:0:0:
388,128,26613,2,0,L|520:128,1,101.999996887207,0|0,0:0|0:0,0:0:0:0:
460,208,26966,1,0,0:0:0:0:
284,132,27143,1,0,0:0:0:0:
284,132,27231,1,0,0:0:0:0:
284,132,27319,1,8,0:0:0:0:
308,32,27495,1,0,0:0:0:0:
388,128,27672,2,0,B|380:168|380:168|388:252,1,101.999996887207,8|0,0:0|0:0,0:0:0:0:
388,332,28025,21,0,0:0:0:0:
288,348,28201,1,0,0:0:0:0:
196,300,28378,1,8,0:0:0:0:
176,200,28554,1,0,0:0:0:0:
288,348,28731,1,2,0:0:0:0:
116,364,28907,1,2,0:0:0:0:
176,200,29084,1,4,0:0:0:0:
256,192,29172,12,4,30143,0:1:0:0:
176,200,30495,6,0,P|216:188|272:212,1,85,2|0,0:0|0:0,0:0:0:0:
116,263,30848,2,0,P|76:275|36:264,1,85,10|0,0:0|0:0,0:0:0:0:
60,32,31201,2,0,P|44:88|84:200,1,170,0|2,0:0|0:0,0:0:0:0:
172,72,31731,1,0,0:0:0:0:
192,48,31907,2,0,L|288:48,1,85,10|0,0:0|0:0,0:0:0:0:
344,192,32260,6,0,P|376:114|360:32,1,170,0|2,0:0|0:0,0:0:0:0:
172,72,32790,1,0,0:0:0:0:
156,100,32966,2,0,L|60:100,1,85,10|0,0:0|0:0,0:0:0:0:
28,184,33319,2,0,P|16:228|40:280,1,85
128,352,33672,2,0,P|140:308|116:256,1,85,2|0,0:0|0:0,0:0:0:0:
156,100,34025,2,0,P|144:144|168:196,1,85,10|0,0:0|0:0,0:0:0:0:
220,260,34378,21,2,3:3:0:0:
320,284,34554,1,2,0:0:0:0:
416,252,34731,1,2,0:0:0:0:
460,160,34907,1,2,0:0:0:0:
424,64,35084,2,0,L|324:64,1,85,8|2,0:0|0:0,0:0:0:0:
156,100,35437,2,0,P|228:192|208:264,1,170,0|2,0:0|0:0,0:0:0:0:
128,196,35966,1,0,0:0:0:0:
260,152,36143,2,0,L|345:152,1,85,10|0,0:0|0:0,0:0:0:0:
220,260,36495,21,0,0:0:0:0:
220,260,36672,1,0,0:0:0:0:
128,196,36848,1,2,0:0:0:0:
128,196,37025,1,0,0:0:0:0:
260,152,37201,1,10,0:0:0:0:
260,152,37378,1,0,0:0:0:0:
220,260,37554,1,0,0:0:0:0:
52,136,37731,1,0,0:0:0:0:
260,152,37907,1,2,0:0:0:0:
220,260,38084,2,0,L|184:356,1,85,0|10,0:0|0:0,0:0:0:0:
128,196,38437,1,0,0:0:0:0:
128,196,38525,1,0,0:0:0:0:
128,196,38613,38,0,P|148:136|88:40,1,170,4|10,0:1|0:0,0:0:0:0:
52,136,39143,1,2,0:0:0:0:
40,228,39319,2,0,P|68:272|112:288,1,85,2|0,0:0|0:0,0:0:0:0:
220,260,39672,2,0,L|316:260,1,85
356,180,40025,1,10,0:0:0:0:
264,180,40201,1,0,0:0:0:0:
172,340,40378,2,0,L|268:340,1,85,10|0,0:0|0:0,0:0:0:0:
416,256,40731,38,0,P|448:184|404:96,1,170,0|10,0:0|0:0,0:0:0:0:
312,104,41260,1,2,0:0:0:0:
312,256,41437,2,0,L|312:352,1,85,2|0,0:0|0:0,0:0:0:0:
416,256,41790,2,0,L|416:171,1,85
312,104,42143,1,8,0:0:0:0:
240,180,42319,1,0,0:0:0:0:
312,256,42495,1,8,0:0:0:0:
312,104,42672,1,0,0:0:0:0:
168,104,42848,2,0,P|104:104|44:16,1,170,0|10,0:0|0:0,0:0:0:0:
192,84,43378,22,0,P|188:136|196:200,1,85,2|2,0:0|0:0,0:0:0:0:
108,200,43731,1,0,0:0:0:0:
32,244,43907,2,0,B|24:272|24:272|32:328,1,85
176,332,44260,2,0,B|184:304|184:304|176:248,1,85,10|0,0:0|0:0,0:0:0:0:
68,224,44613,2,0,B|60:252|60:252|68:308,1,85,10|0,0:0|0:0,0:0:0:0:
176,332,44966,2,0,P|264:364|336:336,1,170,0|10,0:0|0:0,0:0:0:0:
352,248,45495,1,2,0:0:0:0:
268,200,45672,2,0,P|252:240|268:292,1,85,2|0,0:0|0:0,0:0:0:0:
352,248,46025,37,2,0:0:0:0:
268,200,46201,1,2,0:0:0:0:
352,248,46378,1,2,0:0:0:0:
188,216,46554,1,2,0:0:0:0:
352,248,46731,1,2,0:0:0:0:
112,232,46907,1,2,0:0:0:0:
268,304,47084,38,0,P|356:348|452:272,1,203.999993774414,4|8,0:1|0:0,0:0:0:0:
440,200,47613,2,0,B|432:132|432:132|440:84,1,101.999996887207
352,48,47966,1,0,0:0:0:0:
260,88,48143,2,0,P|216:112|156:108,1,101.999996887207
0,32,48495,2,0,P|56:40|100:84,1,101.999996887207,8|0,0:0|0:0,0:0:0:0:
108,252,48848,2,0,P|88:200|100:136,1,101.999996887207,8|0,0:0|0:0,0:0:0:0:
200,220,49201,5,0,0:0:0:0:
244,312,49378,1,0,0:0:0:0:
148,348,49554,1,8,0:0:0:0:
108,252,49731,1,0,0:0:0:0:
244,312,49907,2,0,L|352:312,1,101.999996887207
448,312,50260,1,0,0:0:0:0:
400,224,50437,1,0,0:0:0:0:
346,312,50613,1,8,0:0:0:0:
448,312,50790,1,0,0:0:0:0:
424,204,50966,2,0,P|432:156|424:100,1,101.999996887207,8|0,0:0|0:0,0:0:0:0:
256,132,51319,38,0,P|192:152|104:128,1,152.999995330811
132,112,51672,2,0,B|140:148|140:148|132:228,1,101.999996887207,8|0,0:0|0:0,0:0:0:0:
48,340,52025,2,0,B|40:304|40:304|48:224,1,101.999996887207,0|0,0:0|0:0,0:0:0:0:
132,112,52378,2,0,P|180:124|260:92,1,101.999996887207
268,76,52643,1,0,0:0:0:0:
268,76,52731,2,0,P|317:64|366:76,1,101.999996887207,8|0,0:0|0:0,0:0:0:0:
400,116,52995,1,0,0:0:0:0:
400,116,53084,2,0,L|400:248,1,101.999996887207,8|0,0:0|0:0,0:0:0:0:
480,76,53437,21,0,0:0:0:0:
340,32,53613,1,0,0:0:0:0:
268,76,53790,2,0,L|268:204,1,101.999996887207,8|0,0:0|0:0,0:0:0:0:
400,116,54143,1,0,0:0:0:0:
340,32,54319,1,0,0:0:0:0:
192,124,54495,21,0,0:0:0:0:
400,116,54672,1,0,0:0:0:0:
268,76,54848,1,8,0:0:0:0:
332,168,55025,1,0,0:0:0:0:
432,32,55201,1,8,0:0:0:0:
192,124,55378,1,0,0:0:0:0:
332,168,55554,6,0,L|332:300,1,101.999996887207,4|0,0:0|0:0,0:0:0:0:
332,360,55907,1,8,0:0:0:0:
252,212,56084,1,0,0:0:0:0:
400,116,56260,2,0,L|400:248,1,101.999996887207,0|0,0:0|0:0,0:0:0:0:
252,212,56613,1,0,0:0:0:0:
268,76,56790,1,0,0:0:0:0:
268,76,56878,1,0,0:0:0:0:
268,76,56966,1,8,0:0:0:0:
332,168,57143,1,0,0:0:0:0:
172,252,57319,2,0,L|172:368,1,101.999996887207,8|0,0:0|0:0,0:0:0:0:
104,200,57672,38,0,P|48:224|4:216,1,101.999996887207
72,100,58025,2,0,P|128:100|172:124,1,101.999996887207,8|0,0:0|0:0,0:0:0:0:
172,252,58378,1,0,0:0:0:0:
44,144,58554,1,0,0:0:0:0:
168,18,58731,2,0,L|168:120,1,101.999996887207
252,272,59084,2,0,L|252:170,1,101.999996887207,8|0,0:0|0:0,0:0:0:0:
364,0,59437,2,0,L|364:108,1,101.999996887207,8|0,0:0|0:0,0:0:0:0:
360,336,59790,21,0,0:0:0:0:
252,272,59966,1,0,0:0:0:0:
464,272,60143,1,8,0:0:0:0:
148,332,60319,2,0,L|36:332,1,101.999996887207
144,200,60672,1,0,0:0:0:0:
252,272,60848,2,0,P|240:328|252:384,1,101.999996887207,8|0,0:0|0:0,0:0:0:0:
296,356,61113,1,0,0:0:0:0:
296,356,61201,2,0,L|408:356,1,101.999996887207,8|0,0:0|0:0,0:0:0:0:
464,272,61554,1,0,0:0:0:0:
252,272,61731,1,0,0:0:0:0:
144,200,61907,22,0,L|144:136,1,50.9999984436036,8|0,0:0|0:0,0:0:0:0:
220,72,62084,2,0,L|220:123,1,50.9999984436036
296,200,62260,2,0,L|296:140,1,50.9999984436036
372,76,62437,2,0,L|372:127,1,50.9999984436036,8|0,0:0|0:0,0:0:0:0:
432,200,62613,2,0,L|432:264,1,50.9999984436036
488,312,62790,2,0,L|488:376,2,50.9999984436036,0|0|4,0:0|0:0|0:1,0:0:0:0:
256,192,63054,12,4,64025,0:0:0:0:
208,112,64378,6,0,P|244:68|296:60,1,101.999996887207,8|0,0:0|0:0,0:0:0:0:
256,192,64731,2,0,P|204:208|148:180,1,101.999996887207,2|2,0:0|0:0,0:0:0:0:
168,28,65084,1,0,0:0:0:0:
304,272,65437,1,10,0:0:0:0:
168,28,65790,1,8,0:0:0:0:
384,228,66143,6,0,P|436:240|488:224,1,101.999996887207,0|0,0:0|0:0,0:0:0:0:
304,272,66495,1,8,0:0:0:0:
304,272,66672,2,0,P|252:260|200:276,1,101.999996887207,0|2,0:0|0:0,0:0:0:0:
140,328,67025,1,2,0:0:0:0:
104,216,67201,2,0,L|-4:216,1,101.999996887207
72,100,67554,2,0,L|174:100,1,101.999996887207,10|0,0:0|0:0,0:0:0:0:
280,300,67907,1,8,0:0:0:0:
140,328,68084,1,0,0:0:0:0:
104,216,68260,22,0,L|206:216,2,101.999996887207,0|0|8,0:0|0:0|0:0,0:0:0:0:
280,300,68790,1,0,0:0:0:0:
280,300,68966,2,0,L|400:300,1,101.999996887207,2|2,0:0|0:0,0:0:0:0:
456,216,69319,2,0,P|488:152|456:28,2,203.999993774414,0|10|8,0:0|0:0|0:0,0:0:0:0:
168,84,70378,5,0,0:0:0:0:
88,144,70554,2,0,L|88:248,1,101.999996887207,0|8,0:0|0:0,0:0:0:0:
20,316,70907,1,0,0:0:0:0:
64,232,71084,2,0,P|112:220|188:244,1,101.999996887207,2|2,0:0|0:0,0:0:0:0:
244,264,71348,1,0,0:0:0:0:
252,284,71437,2,0,P|244:340|256:384,1,101.999996887207,10|0,0:0|0:0,0:0:0:0:
332,232,71790,2,0,P|340:176|328:132,1,101.999996887207,10|0,0:0|0:0,0:0:0:0:
380,52,72143,1,0,0:0:0:0:
396,52,72231,1,0,0:0:0:0:
412,52,72319,1,0,0:0:0:0:
428,52,72407,1,0,0:0:0:0:
444,52,72495,1,4,0:1:0:0:
328,132,72672,5,0,0:0:0:0:
252,24,72848,2,0,L|144:24,1,101.999996887207,8|0,0:0|0:0,0:0:0:0:
4,64,73201,1,0,0:0:0:0:
92,112,73378,1,0,0:0:0:0:
252,24,73554,2,0,B|260:52|260:52|252:144,1,101.999996887207,2|2,0:0|0:0,0:0:0:0:
168,188,73907,2,0,B|176:216|176:216|168:308,1,101.999996887207,10|0,0:0|0:0,0:0:0:0:
92,112,74260,1,8,0:0:0:0:
253,125,74437,1,0,0:0:0:0:
328,208,74613,22,0,P|344:288|324:368,1,152.999995330811
304,340,74966,2,0,L|420:340,1,101.999996887207,10|0,0:0|0:0,0:0:0:0:
328,208,75319,1,0,0:0:0:0:
253,125,75495,1,0,0:0:0:0:
152,108,75672,2,0,P|96:108|32:132,1,101.999996887207,2|2,0:0|0:0,0:0:0:0:
88,292,76025,2,0,P|124:252|144:208,1,101.999996887207,10|0,0:0|0:0,0:0:0:0:
48,208,76378,1,8,0:0:0:0:
206,315,76554,5,0,0:0:0:0:
206,315,76643,1,0,0:0:0:0:
206,315,76731,2,0,P|253:334|304:340,1,101.999996887207
396,208,77084,1,8,0:0:0:0:
396,208,77260,2,0,P|332:224|300:244,1,101.999996887207
456,288,77613,1,2,0:0:0:0:
396,208,77790,1,2,0:0:0:0:
340,132,77966,1,2,0:0:0:0:
452,112,78143,1,10,0:0:0:0:
396,208,78319,1,2,0:0:0:0:
340,132,78495,1,10,0:0:0:0:
500,20,78672,1,0,0:0:0:0:
292,56,78848,5,0,0:0:0:0:
244,56,78937,1,0,0:0:0:0:
200,56,79025,1,2,0:0:0:0:
156,56,79113,1,0,0:0:0:0:
112,56,79201,1,10,0:0:0:0:
24,184,79378,2,0,L|76:164,1,50.9999984436036
176,160,79554,2,0,P|192:224|176:312,1,152.999995330811,2|0,0:0|0:0,0:0:0:0:
140,296,79907,2,0,L|280:296,1,101.999996887207,4|0,0:0|0:0,0:0:0:0:
256,192,80172,12,4,80966,0:0:0:0:
348,88,81319,5,12,0:0:0:0:
264,132,81495,1,0,0:0:0:0:
160,136,81672,1,4,0:0:0:0:
138,107,81760,1,0,0:0:0:0:
134,71,81848,1,2,0:0:0:0:
148,37,81937,1,0,0:0:0:0:
176,16,82025,2,0,L|308:16,1,101.999996887207,2|0,0:0|0:0,0:0:0:0:
160,136,82378,1,8,0:0:0:0:
32,156,82554,1,2,0:0:0:0:
32,156,82643,1,0,0:0:0:0:
32,156,82731,2,0,L|32:284,1,101.999996887207,10|0,0:0|0:0,0:0:0:0:
172,276,83084,22,0,P|228:284|284:276,1,101.999996887207,2|0,0:0|0:0,0:0:0:0:
356,200,83437,1,8,0:0:0:0:
464,236,83613,1,2,0:0:0:0:
272,278,83790,1,0,0:0:0:0:
266,243,83878,1,0,0:0:0:0:
260,208,83966,1,2,0:0:0:0:
164,96,84143,1,8,0:0:0:0:
32,156,84319,1,2,0:0:0:0:
153,228,84495,2,0,L|172:276,1,50.9999984436036,8|0,0:0|0:0,0:0:0:0:
128,368,84672,2,0,L|109:320,1,50.9999984436036,2|0,0:0|0:0,0:0:0:0:
32,280,84848,1,8,0:0:0:0:
25,293,84937,1,0,0:0:0:0:
18,306,85025,1,2,0:0:0:0:
10,319,85113,1,0,0:0:0:0:
3,332,85201,1,2,0:0:0:0:
32,156,85378,5,0,0:0:0:0:
161,0,85554,2,0,P|177:47|164:96,1,101.999996887207,10|0,0:0|0:0,0:0:0:0:
154,132,85819,1,0,0:0:0:0:
154,132,85907,2,0,P|138:179|152:228,1,101.999996887207,0|2,0:0|0:0,0:0:0:0:
236,288,86260,1,2,0:0:0:0:
340,192,86437,2,0,P|392:184|476:208,1,101.999996887207,0|10,0:0|0:0,0:0:0:0:
496,248,86701,2,0,L|496:308,1,50.9999984436036,0|2,0:0|0:0,0:0:0:0:
408,312,86966,2,0,L|408:384,2,50.9999984436036,8|2|0,0:0|0:0|0:0,0:0:0:0:
376,296,87231,1,2,0:0:0:0:
336,288,87319,6,0,P|276:280|216:300,1,101.999996887207
184,348,87584,2,0,L|120:348,1,50.9999984436036,0|8,0:0|0:0,0:0:0:0:
68,200,87848,1,0,0:0:0:0:
180,80,88025,1,2,0:0:0:0:
336,124,88201,1,2,0:0:0:0:
336,288,88378,1,10,0:0:0:0:
184,348,88554,21,0,0:0:0:0:
180,80,88731,1,10,0:0:0:0:
416,204,88907,1,2,0:0:0:0:
336,288,89084,2,0,L|256:288,1,50.9999984436036,8|2,0:0|0:0,0:0:0:0:
224,240,89260,1,2,0:0:0:0:
188,240,89348,1,0,0:0:0:0:
152,240,89437,1,6,0:0:0:0:
76,120,89613,5,0,0:0:0:0:
180,80,89790,2,0,P|236:72|304:88,2,101.999996887207,8|2|2,0:0|0:0|0:0,0:0:0:0:
272,168,90319,1,0,0:0:0:0:
308,168,90407,1,0,0:0:0:0:
344,168,90495,2,0,P|396:160|472:188,1,101.999996887207,2|0,0:0|0:0,0:0:0:0:
336,288,90848,2,0,P|286:299|236:291,1,101.999996887207,10|0,0:0|0:0,0:0:0:0:
400,68,91201,2,0,P|452:60|528:88,1,101.999996887207,10|0,0:0|0:0,0:0:0:0:
499,71,91466,1,2,0:0:0:0:
499,71,91554,5,0,0:0:0:0:
344,168,91731,1,2,0:0:0:0:
240,40,91907,2,0,P|188:48|112:20,1,101.999996887207,8|0,0:0|0:0,0:0:0:0:
96,20,92172,1,0,0:0:0:0:
96,20,92260,2,0,L|96:128,1,101.999996887207,2|0,0:0|0:0,0:0:0:0:
32,320,92613,2,0,L|32:256,1,50.9999984436036
64,244,92790,2,0,P|116:236|192:264,1,101.999996887207,2|8,0:0|0:0,0:0:0:0:
256,344,93143,1,2,0:0:0:0:
292,344,93231,1,0,0:0:0:0:
328,312,93319,2,0,L|436:312,1,101.999996887207,10|0,0:0|0:0,0:0:0:0:
472,144,93672,21,0,0:0:0:0:
348,184,93848,1,0,0:0:0:0:
348,184,93937,1,0,0:0:0:0:
348,184,94025,1,10,0:0:0:0:
328,312,94201,1,2,0:0:0:0:
472,144,94378,1,0,0:0:0:0:
256,104,94554,1,2,0:0:0:0:
328,312,94731,5,2,0:0:0:0:
480,324,94907,1,0,0:0:0:0:
312,276,95084,1,10,0:0:0:0:
464,288,95260,1,0,0:0:0:0:
300,240,95437,1,10,0:0:0:0:
452,252,95613,1,0,0:0:0:0:
472,144,95790,5,6,0:0:0:0:
440,120,95878,1,0,0:0:0:0:
400,116,95966,1,0,0:0:0:0:
360,128,96054,1,0,0:0:0:0:
312,156,96143,21,10,0:0:0:0:
272,160,96231,1,0,0:0:0:0:
232,152,96319,1,0,0:0:0:0:
196,132,96407,1,0,0:0:0:0:
176,80,96495,5,0,0:0:0:0:
152,48,96584,1,0,0:0:0:0:
116,28,96672,1,0,0:0:0:0:
76,24,96760,1,0,0:0:0:0:
28,52,96848,5,0,0:0:0:0:
32,92,96937,1,0,0:0:0:0:
40,132,97025,1,0,0:0:0:0:
48,172,97113,1,0,0:0:0:0:
88,208,97201,5,8,0:0:0:0:
92,228,97290,1,0,0:0:0:0:
96,248,97378,1,2,0:0:0:0:
100,268,97466,1,0,0:0:0:0:
104,288,97554,5,10,0:0:0:0:
152,304,97643,1,2,0:0:0:0:
200,316,97731,1,2,0:0:0:0:
248,328,97819,1,2,0:0:0:0:
296,340,97907,6,0,L|364:328,1,50.9999984436036,4|0,0:0|0:0,0:0:0:0:
400,360,98084,2,0,L|368:224,1,101.999996887207,0|8,0:0|0:0,0:0:0:0:
412,260,98348,1,0,0:0:0:0:
444,244,98437,1,2,0:0:0:0:
468,216,98525,1,0,0:0:0:0:
472,180,98613,1,10,0:0:0:0:
464,144,98701,1,0,0:0:0:0:
444,116,98790,1,2,0:0:0:0:
412,104,98878,1,0,0:0:0:0:
376,108,98966,2,0,L|248:144,1,101.999996887207
144,64,99319,1,10,0:0:0:0:
108,52,99407,1,0,0:0:0:0:
76,40,99495,1,2,0:0:0:0:
180,152,99672,2,0,L|180:272,1,101.999996887207,2|2,0:0|0:0,0:0:0:0:
352,336,100025,6,0,P|400:344|476:328,1,101.999996887207,0|2,0:0|0:0,0:0:0:0:
352,200,100378,1,8,0:0:0:0:
320,212,100466,1,0,0:0:0:0:
288,224,100554,1,2,0:0:0:0:
144,280,100731,2,0,L|232:304,1,50.9999984436036,8|0,0:0|0:0,0:0:0:0:
200,198,100907,2,0,L|180:152,1,50.9999984436036,2|0,0:0|0:0,0:0:0:0:
248,80,101084,2,0,P|299:75|372:84,1,101.999996887207,2|0,0:0|0:0,0:0:0:0:
488,144,101437,2,0,L|488:216,1,50.9999984436036,10|0,0:0|0:0,0:0:0:0:
428,248,101613,2,0,L|428:324,1,50.9999984436036,2|0,0:0|0:0,0:0:0:0:
353,337,101790,2,0,P|302:342|229:333,1,101.999996887207,0|2,0:0|0:0,0:0:0:0:
100,200,102143,22,0,P|150:195|201:199,1,101.999996887207,2|0,0:0|0:0,0:0:0:0:
428,248,102495,2,0,P|416:198|429:149,1,101.999996887207,10|0,0:0|0:0,0:0:0:0:
488,144,102760,1,2,0:0:0:0:
488,144,102848,2,0,P|500:80|484:36,1,101.999996887207,8|2,0:0|0:0,0:0:0:0:
348,80,103201,1,2,0:0:0:0:
192,188,103378,2,0,L|128:164,1,50.9999984436036
100,200,103554,2,0,L|100:304,1,101.999996887207,10|0,0:0|0:0,0:0:0:0:
184,328,103907,2,0,L|184:380|184:380,2,50.9999984436036,0|0|2,0:0|0:0|0:0,0:0:0:0:
204,300,104172,1,0,0:0:0:0:
236,284,104260,6,0,P|300:276|360:300,1,101.999996887207,2|0,0:0|0:0,0:0:0:0:
512,212,104613,2,0,P|448:220|388:196,1,101.999996887207,8|2,0:0|0:0,0:0:0:0:
336,112,104966,1,10,0:0:0:0:
504,24,105143,1,0,0:0:0:0:
512,212,105319,1,2,0:0:0:0:
336,112,105495,1,0,0:0:0:0:
304,92,105584,1,0,0:0:0:0:
272,72,105672,1,10,0:0:0:0:
504,24,105848,1,2,0:0:0:0:
512,212,106025,2,0,L|452:212,1,50.9999984436036
349,256,106201,2,0,L|400:256,1,50.9999984436036
280,292,106378,38,0,P|216:296|156:288,1,101.999996887207,4|0,0:0|0:0,0:0:0:0:
104,176,106731,2,0,P|40:180|-20:172,1,101.999996887207,12|0,0:0|0:0,0:0:0:0:
272,72,107084,1,0,0:0:0:0:
304,92,107172,1,0,0:0:0:0:
336,112,107260,1,2,0:0:0:0:
400,256,107437,2,0,B|396:336|396:336|412:368,1,101.999996887207,2|0,0:0|0:0,0:0:0:0:
496,92,107790,2,0,B|492:172|492:172|508:204,1,101.999996887207,10|0,0:0|0:0,0:0:0:0:
372,136,108143,1,8,0:0:0:0:
272,72,108319,1,2,0:0:0:0:
236,72,108407,1,0,0:0:0:0:
200,72,108495,6,0,P|144:100|132:144,1,101.999996887207,2|0,0:0|0:0,0:0:0:0:
300,240,108848,2,0,P|272:184|228:172,1,101.999996887207,8|0,0:0|0:0,0:0:0:0:
132,332,109201,2,0,P|188:304|200:260,1,101.999996887207,2|0,0:0|0:0,0:0:0:0:
36,160,109554,2,0,P|64:216|108:228,1,101.999996887207
300,240,109907,1,10,0:0:0:0:
200,72,110084,1,2,0:0:0:0:
98,228,110260,1,8,0:0:0:0:
300,240,110437,1,2,0:0:0:0:
336,240,110525,1,0,0:0:0:0:
372,240,110613,1,2,0:0:0:0:
432,120,110790,6,0,L|432:60,2,50.9999984436036,2|0|8,0:0|0:0|0:0,0:0:0:0:
308,112,111143,2,0,L|308:172,2,50.9999984436036,0|0|2,0:0|0:0|0:0,0:0:0:0:
308,76,111407,1,0,0:0:0:0:
292,44,111495,1,2,0:0:0:0:
260,24,111584,1,0,0:0:0:0:
224,24,111672,5,2,0:0:0:0:
98,88,111848,1,0,0:0:0:0:
98,228,112025,1,10,0:0:0:0:
224,288,112201,1,2,0:0:0:0:
332,228,112378,1,8,0:0:0:0:
332,88,112555,1,2,0:0:0:0:
224,24,112731,5,2,0:0:0:0:
98,228,112907,1,0,0:0:0:0:
98,228,112995,1,0,0:0:0:0:
98,228,113084,1,10,0:0:0:0:
332,88,113260,1,0,0:0:0:0:
323,289,113437,2,0,B|264:300|264:300|224:288,1,101.999996887207,2|0,0:0|0:0,0:0:0:0:
444,148,113790,2,0,L|344:168,1,101.999996887207,2|0,0:0|0:0,0:0:0:0:
346,38,114143,6,0,L|296:48,1,50.9999984436036,10|0,0:0|0:0,0:0:0:0:
224,24,114319,2,0,L|174:34,1,50.9999984436036,2|0,0:0|0:0,0:0:0:0:
100,48,114495,1,8,0:0:0:0:
100,84,114584,1,0,0:0:0:0:
100,120,114672,1,2,0:0:0:0:
100,156,114760,1,0,0:0:0:0:
100,192,114848,1,6,0:0:0:0:
284,280,115201,21,0,0:0:0:0:
280,176,115378,2,0,P|368:128|448:184,1,203.999993774414,0|2,0:0|0:0,0:0:0:0:
284,280,115907,2,0,P|196:328|116:272,1,203.999993774414,2|0,0:0|0:0,0:0:0:0:
200,240,116437,1,0,0:0:0:0:
364,224,116613,1,2,0:0:0:0:
280,176,116790,5,0,0:0:0:0:
196,132,116966,2,0,L|96:80,1,101.999996887207
176,332,117319,2,0,B|200:308|200:308|200:240,1,101.999996887207,2|0,0:0|0:0,0:0:0:0:
104,176,117672,2,0,L|104:284,1,101.999996887207,2|0,0:0|0:0,0:0:0:0:
320,292,118025,2,0,B|352:280|352:280|432:288,1,101.999996887207,0|0,0:0|0:0,0:0:0:0:
419,162,118378,2,0,B|352:156|352:156|320:168,1,101.999996887207,2|0,0:0|0:0,0:0:0:0:
320,44,118731,2,0,B|352:32|352:32|432:40,1,101.999996887207,2|0,0:0|0:0,0:0:0:0:
208,152,119084,37,0,0:0:0:0:
208,152,119172,1,0,0:0:0:0:
208,152,119260,1,0,0:0:0:0:
320,168,119437,1,2,0:0:0:0:
168,52,119613,1,0,0:0:0:0:
140,240,119790,1,2,0:0:0:0:
320,168,119966,1,2,0:0:0:0:
361,268,120143,5,0,0:0:0:0:
472,284,120319,1,0,0:0:0:0:
291,356,120496,1,2,0:0:0:0:
472,284,120672,1,0,0:0:0:0:
320,168,120849,1,2,0:0:0:0:
291,356,121025,1,2,0:0:0:0:
140,240,121201,5,0,0:0:0:0:
44,148,121415,1,0,0:0:0:0:
140,52,121629,2,0,L|264:52,1,85,2|0,0:0|0:0,0:0:0:0:
320,168,122058,2,0,L|436:168,1,85,2|0,0:0|0:0,0:0:0:0:
291,356,122603,21,2,0:0:0:0:
140,240,122936,1,0,0:0:0:0:
44,148,123269,2,0,L|44:36,1,85,2|0,0:0|0:0,0:0:0:0:
256,192,124169,12,0,125369,0:0:0:0:
