osu file format v9

[General]
AudioFilename: Nekomata Master feat. Sana - Ookina Koe de.MP3
AudioLeadIn: 0
PreviewTime: 71810
Countdown: 0
SampleSet: Soft
StackLeniency: 0.7
Mode: 0
LetterboxInBreaks: 1

[Editor]
DistanceSpacing: 0.8
BeatDivisor: 4
GridSize: 4

[Metadata]
Title:Ookina Koe de
Artist:Nekomata Master feat. Sana
Creator:Muya
Version:Normal
Source:beatmania IIDX 18 Resort Anthem
Tags:iidx18 Shintani Sanae ookinakoede WORLD/POPS Sayonara Sekai

[Difficulty]
HPDrainRate:2
CircleSize:3
OverallDifficulty:3
ApproachRate:3
SliderMultiplier:1.2
SliderTickRate:1

[Events]
//Background and Video events
0,0,"BG.jpg"
//Break Periods
//Storyboard Layer 0 (Background)
//Storyboard Layer 1 (Fail)
//Storyboard Layer 2 (Pass)
//Storyboard Layer 3 (Foreground)
//Storyboard Sound Samples
//Background Colour Transformations
3,100,163,162,255

[TimingPoints]
458.940594059406,600,4,2,1,70,1,0
67658,-100,4,2,1,40,0,0
70508,-100,4,2,1,5,0,0
70808,-100,4,2,1,40,0,0
71858,-100,4,2,1,70,0,0
72458,-100,4,2,1,70,0,1
91583,-100,4,2,1,70,0,0
91658,-100,4,2,1,70,0,1
110783,-100,4,2,1,70,0,0
110858,-100,4,2,1,70,0,1
110933,-100,4,2,1,70,0,0
120158,-100,4,2,1,50,0,0

[Colours]
Combo1 : 255,253,170
Combo2 : 255,170,255
Combo3 : 170,255,255
Combo4 : 185,255,170

[HitObjects]
48,48,10058,2,0,B|16:112|64:176,1,120,4|2
128,96,11258,2,0,B|248:64|368:96,1,240,2|2
504,232,13658,1,0
456,312,14258,1,2
368,272,14858,6,0,B|344:216|368:152,1,120,0|2
464,152,16058,2,0,B|488:96|464:32,1,120,2|0
376,72,17258,2,0,B|312:120|216:128|144:96,1,240,2|2
64,48,19058,1,2
24,80,19358,1,4
8,128,19658,6,0,B|-8:192|16:248,1,120,4|2
104,208,20858,2,0,B|168:200|216:240,1,120,2|0
200,336,22058,2,0,B|288:384|384:344,1,180,2|2
352,304,23258,2,0,B|328:248|352:168,1,120,0|2
408,112,24458,6,0,B|344:80|292:112,1,120,0|2
236,188,25658,2,0,B|184:220|120:188,1,120,0|2
64,112,26858,1,0
8,184,27458,2,0,B|0:216|8:248,1,60,2|0
48,272,28058,2,0,B|112:288|136:352,1,120,2|0
232,368,29258,5,4
280,280,29858,2,0,B|296:224|280:160,1,120,2|0
200,104,31058,1,2
224,64,31358,1,2
264,40,31658,2,0,B|320:16|384:40,1,120,0|2
440,112,32858,2,0,B|384:136|320:112,1,120,0|2
256,184,34058,6,0,B|216:240|240:320,1,120,0|2
328,280,35258,2,0,B|384:256|448:280,1,120,0|2
472,320,36158,1,2
448,360,36458,2,0,B|392:384|328:360,1,120,0|2
248,312,37658,2,0,B|200:264|136:280,1,120,0|0
96,304,38558,1,6
48,312,38858,5,0
8,224,39458,2,0,B|-16:168|8:104,1,120,2|0
80,40,40658,1,2
100,84,40958,1,2
136,116,41258,2,0,B|192:140|256:124,1,120,0|2
344,96,42458,2,0,B|405:80|461:104,1,120,0|2
484,148,43358,1,2
464,192,43658,6,0,B|440:248|456:312,1,120,0|2
368,352,44858,2,0,B|312:376|240:352,1,120,0|2
160,336,46058,1,0
88,272,46658,1,2
64,176,47258,1,0
104,88,47858,1,2
184,144,48458,6,0,B|312:192|416:120,1,240,4|2
480,192,50258,1,0
488,240,50558,1,2
480,288,50858,2,0,B|432:336|368:320,2,120,0|2|0
400,232,52658,2,0,B|384:200|392:160,1,60,0|6
400,128,53258,6,0,B|272:88|168:160,1,240,4|0
120,240,55058,1,0
200,296,55658,2,0,B|264:312|320:288,2,120,0|2|2
144,372,57458,1,0
104,344,57758,1,2
56,344,58058,6,0,B|0:232|56:104,1,240,4|2
136,160,59858,1,0
224,112,60458,2,0,B|280:232|224:352,1,240,2|2
320,376,62258,1,0
364,356,62558,1,2
408,336,62858,6,0,B|448:280|408:224,1,120,0|2
336,160,64058,2,0,B|296:104|336:48,1,120,0|2
412,104,65258,2,0,B|452:184|412:224|372:264|412:344,1,240,2|2
216,340,67658,5,4
256,152,68858,1,0
88,64,70058,2,0,B|24:96|24:208|88:240,1,210,0|2
192,296,71858,1,0
272,352,72458,6,0,B|336:360|384:320,1,120,4|2
328,240,73658,2,0,B|264:248|216:208,1,120,2|0
192,168,74558,1,2
192,120,74858,2,0,B|240:64|352:48|432:88,1,240,2|0
472,160,76658,1,0
464,208,76958,1,2
424,236,77258,6,0,B|368:260|304:236,1,120,0|2
240,168,78458,2,0,B|178:145|122:169,1,120,2|0
84,196,79358,1,2
52,232,79658,2,0,B|-4:184|-4:56|52:16,1,240,2|0
184,80,81758,1,2
228,96,82058,6,0,B|252:152|228:216,1,120,4|2
136,232,83258,2,0,B|112:288|136:352,1,120,2|0
184,360,84158,1,2
232,352,84458,2,0,B|288:376|352:352,1,120,2|0
288,280,85658,2,0,B|344:256|408:280,1,120,2|2
496,312,86858,6,0,B|528:224|496:136|400:112,1,240,2|2
336,168,88658,1,0
240,144,89258,2,0,B|208:88|232:16,2,120,0|2|2
272,232,91058,1,0
280,280,91358,1,2
272,328,91658,6,0,B|216:360|152:344,1,120,4|2
192,256,92858,2,0,B|128:240|72:272,1,120,2|0
40,304,93758,1,2
8,264,94058,2,0,B|-32:168|8:72,1,180,2|0
48,104,95258,2,0,B|104:136|176:120,1,120,2|0
232,56,96458,6,0,B|288:32|352:56,1,120,4|2
408,128,97658,2,0,B|352:152|288:128,1,120,2|0
248,152,98558,1,2
200,148,98858,2,0,B|136:196|136:316|200:364,1,240,2|0
340,376,100958,1,4
376,344,101258,6,0,B|392:280|376:224,1,120,4|2
304,168,102458,2,0,B|288:104|304:48,1,120,2|0
344,24,103358,1,2
392,32,103658,2,0,B|472:56|512:136|480:232,1,240,2|2
392,192,105458,6,0,B|368:248|392:312,2,120,2|4|0
408,144,106958,1,2
392,96,107258,2,0,B|344:56|272:64,1,120,2|0
304,156,108458,1,0
264,244,109058,1,0
176,284,109658,2,0,B|120:308|56:292,1,120,2|0
8,212,110858,5,6
24,116,111458,1,2
96,52,112058,2,0,B|152:20|216:52,1,120,2|0
160,132,113258,2,0,B|216:220|360:260|488:204,1,360,2|0
256,192,115658,12,0,120158
