osu file format v9

[General]
AudioFilename: Nekomata Master feat. Sana - Ookina Koe de.MP3
AudioLeadIn: 0
PreviewTime: 71810
Countdown: 0
SampleSet: Soft
StackLeniency: 0.7
Mode: 0
LetterboxInBreaks: 1

[Editor]
DistanceSpacing: 1
BeatDivisor: 4
GridSize: 4

[Metadata]
Title:Ookina Koe de
Artist:Nekomata Master feat. Sana
Creator:Muya
Version:Hard
Source:beatmania IIDX 18 Resort Anthem
Tags:iidx18 Shintani Sanae ookinakoede WORLD/POPS Sayonara Sekai

[Difficulty]
HPDrainRate:5
CircleSize:5
OverallDifficulty:6
ApproachRate:6
SliderMultiplier:1.6
SliderTickRate:1

[Events]
//Background and Video events
0,0,"BG.jpg"
//Break Periods
//Storyboard Layer 0 (Background)
//Storyboard Layer 1 (Fail)
//Storyboard Layer 2 (Pass)
//Storyboard Layer 3 (Foreground)
//Storyboard Sound Samples
//Background Colour Transformations
3,100,163,162,255

[TimingPoints]
458.940594059406,600,4,2,1,70,1,0
67658,-200,4,2,1,40,0,0
70508,-200,4,2,1,5,0,0
70808,-200,4,2,1,40,0,0
71858,-100,4,2,1,70,0,0
72458,-100,4,2,1,70,0,1
91583,-100,4,2,1,70,0,0
91658,-100,4,2,1,70,0,1
110783,-100,4,2,1,70,0,0
110858,-100,4,2,1,70,0,1
110933,-100,4,2,1,70,0,0
120158,-100,4,2,1,50,0,0

[Colours]
Combo1 : 255,253,170
Combo2 : 255,170,255
Combo3 : 170,255,255
Combo4 : 185,255,170

[HitObjects]
64,32,10058,2,0,B|80:72|72:128,1,80,4|0
48,192,10658,1,2
104,344,11258,2,0,B|184:376|272:344,1,160,2|0
280,224,12458,6,0,B|344:184|456:184|528:232,1,240,2|0
480,296,13658,2,0,B|488:352,2,53.3333333333333,0|2|0
440,284,14258,1,2
396,284,14458,1,0
356,300,14658,1,2
324,328,14858,6,0,B|252:360|164:336,1,160,2|0
48,232,16058,2,0,B|120:264|208:240,1,160,2|0
216,160,16958,1,2
184,88,17258,6,0,B|248:48|352:48|416:88,1,240,2|2
368,152,18458,2,0,B|352:192|368:248,2,80,2|0|2
400,160,19208,1,0
432,168,19358,1,6
480,232,19658,6,0,B|496:272|480:328,1,80,6|0
440,376,20258,1,2
296,312,20858,2,0,B|264:232|296:152,1,160,2|0
416,56,22058,6,0,B|344:16|248:16|168:64,1,240,2|2
160,80,23108,1,0
136,104,23258,2,0,B|96:120|56:112,2,80,2|0|2
120,80,24008,1,0
104,56,24158,1,2
176,16,24458,6,0,B|208:96|176:176,1,160,0|2
16,128,25658,2,0,B|-16:208|16:288,1,160,0|2
152,368,26858,5,0
200,304,27158,1,2
208,224,27458,1,0
176,152,27758,1,2
104,120,28058,1,0
68,244,28358,1,2
172,320,28658,2,0,B|212:336|260:328,1,80,0|2
328,312,29258,5,4
384,368,29558,1,0
368,240,29858,2,0,B|392:176|360:112,1,120,2|0
376,96,30458,2,0,B|336:112|296:96,1,80,2|0
312,72,30908,2,0,B|272:56|232:72,1,80,2|2
208,88,31358,1,0
240,160,31658,5,0
144,248,31958,1,2
80,200,32258,2,0,B|64:160|80:120,1,80,0|2
192,56,32858,2,0,B|208:96|192:136,1,80,0|2
176,160,33308,2,0,B|144:176|128:232|160:280,1,120,0|2
144,344,34058,6,0,B|112:344|92:316|92:316|72:344|40:344,1,120,0|2
32,312,34658,2,0,B|16:272|32:232,1,80,0|2
96,192,35258,2,0,B|112:152|96:112,1,80,0|2
72,96,35708,2,0,B|56:64|72:32|72:32|152:64,1,120,0|2
200,72,36458,6,0,B|232:64|240:32|240:32|248:64|280:72,1,120,2|0
312,64,37058,2,0,B|344:72|352:104|352:104|360:72|392:64,1,120,2|0
424,72,37658,1,2
456,80,37808,1,2
440,160,38108,1,0
448,192,38258,2,0,B|456:232|440:272,1,80,0|4
326,349,38858,6,0,B|320:300|368:272,1,80,0|2
408,344,39458,2,0,B|328:376|248:352,1,160,2|2
288,280,40358,1,0
256,272,40508,2,0,B|216:272|192:296|192:296|136:296,1,120,2|2
40,248,41258,5,0
56,328,41558,1,2
152,184,41858,1,0
168,104,42158,1,2
48,48,42458,2,0,B|24:80|24:128|48:160,2,120,0|2|2
128,24,43658,5,0
160,96,43958,1,0
224,48,44258,2,0,B|264:32|312:40,1,80,2|2
336,160,44858,2,0,B|296:184|248:184|208:168,2,120,0|2|2
288,96,46058,6,0,B|272:56|288:16,1,80,2|0
384,224,46658,2,0,B|400:264|384:304,1,80,2|0
304,288,47258,2,0,B|240:280|184:296|152:352,1,160,2|2
8,136,48458,5,4
80,176,48758,1,2
160,160,49058,1,0
176,136,49208,1,2
144,64,49508,2,0,B|192:24|272:16|352:56,1,200,2|0
368,120,50558,1,0
336,192,50858,6,0,B|304:272|344:352,2,160,0|2|2
144,360,52658,1,0
80,304,52958,1,6
120,232,53258,6,0,B|136:192|128:152,1,80,0|2
72,96,53858,1,0
64,64,54008,1,2
144,48,54308,2,0,B|208:80|272:64,1,120,2|0
328,24,55058,2,0,B|368:8|408:16,1,80
456,80,55658,6,0,B|512:80,2,53.3333333333333,0|2|2
440,120,56258,1,2
424,160,56458,1,0
408,200,56658,2,0,B|384:272|304:304|232:288,1,213.333333333333,2|2
168,248,57758,1,2
112,192,58058,6,0,B|96:152|112:104,1,80,4|2
184,144,58658,1,0
216,136,58808,1,2
288,176,59108,2,0,B|312:120|288:56,1,120,2|0
208,64,59858,2,0,B|168:64|136:32,1,80
64,72,60458,6,0,B|24:152|56:232,2,160,0|2|2
120,320,62258,1,0
192,352,62558,1,2
256,304,62858,6,0,B|296:288|344:296,1,80,2|0
408,328,63458,2,0,B|456:256|424:160,1,160,2|2
384,104,64358,1,0
312,136,64658,2,0,B|272:152|232:144,1,80,2|0
256,64,65258,6,0,B|176:24|80:64,1,160,2|0
48,120,66158,1,0
104,176,66458,2,0,B|144:248|120:336,1,160,2|0
48,368,67358,1,4
8,296,67658,5,4
32,216,68858,1,0
96,168,70058,2,0,B|128:96|96:24,1,140,0|2
176,216,71858,6,0,B|224:152|216:64,2,160,2|6|2
112,264,73358,1,0
64,200,73658,2,0,B|80:160|72:120,1,80,2|0
8,256,74258,2,0,B|-8:296|0:336,1,80,2|2
72,376,74858,5,0
80,344,75008,1,2
96,312,75158,2,0,B|176:288|256:312,1,160,2|0
312,368,76058,1,0
436,340,76358,1,2
504,232,76658,2,0,B|520:192|512:152,1,80,0|2
440,184,77258,6,0,B|384:200|320:184|296:128,1,160,2|2
264,64,78158,1,0
192,24,78458,2,0,B|152:8|104:16,1,80,2|0
56,128,79058,2,0,B|96:144|144:136,1,80,2|2
232,56,79658,5,2
200,48,79808,1,0
168,52,79958,2,0,B|136:132|168:212,1,160,2|0
292,180,80858,2,0,B|324:260|292:340,1,160
168,304,81758,1,6
104,352,82058,6,0,B|80:312|96:272,1,80,6|0
44,212,82658,2,0,B|116:164|204:212,1,160,2|2
224,284,83558,1,0
304,296,83858,2,0,B|344:304|384:288,1,80,2|2
400,160,84458,5,2
368,152,84608,1,0
336,144,84758,2,0,B|296:136|256:152,1,80,2|0
208,216,85358,1,2
176,224,85508,1,0
144,232,85658,2,0,B|104:240|64:224,1,80,2|0
48,96,86258,6,0,B|128:72|208:96,2,160,2|2|0
88,168,87758,1,2
96,200,87908,1,0
104,232,88058,2,0,B|112:272|96:312,1,80,2|0
32,264,88658,2,0,B|120:256|176:320,1,160
248,360,89558,5,0
312,312,89858,2,0,B|328:272|312:224,1,80,2|0
192,192,90458,2,0,B|168:112|192:32,1,160,2|0
272,16,91358,1,2
328,72,91658,6,0,B|368:88|408:80,1,80,6|0
488,64,92258,2,0,B|520:144|488:224,1,160,2|2
280,376,93458,1,2
248,304,93758,1,2
280,232,94058,5,0
288,200,94208,1,2
280,168,94358,2,0,B|200:136|120:168,1,160,2|0
160,240,95258,1,0
112,360,95558,1,2
0,296,95858,2,0,B|-16:256|-8:216,1,80,0|2
72,200,96458,6,0,B|88:160|72:120,1,80,4|0
40,48,97058,2,0,B|120:24|200:48,1,160,2|2
456,56,98258,1,0
424,128,98558,1,2
376,64,98858,5,2
348,48,99008,1,0
316,48,99158,2,0,B|284:120|308:208,1,160,2|2
336,280,100058,1,2
344,312,100208,1,0
336,344,100358,2,0,B|256:376|176:352,1,160,2|6
96,344,101258,5,6
216,120,101858,1,2
24,312,102458,1,2
288,160,103058,1,0
320,232,103358,1,2
304,312,103658,5,2
272,320,103808,1,0
240,328,103958,2,0,B|200:336|160:320,1,80,2|0
144,192,104558,1,2
112,184,104708,1,0
80,176,104858,2,0,B|40:168|0:184,1,80,2|0
48,248,105458,6,0,B|96:288|160:296|224:272,2,160,2|6|0
80,176,106958,1,2
88,144,107108,1,0
80,112,107258,2,0,B|64:72|80:32,1,80,2|0
192,88,107858,2,0,B|208:128|192:168,1,80
160,240,108458,6,0,B|192:288|256:304|312:280,1,160
376,248,109358,1,0
304,208,109658,1,2
280,80,109958,1,0
376,160,110258,1,0
352,32,110558,1,4
432,56,110858,5,6
488,304,111458,1,2
232,344,112058,2,0,B|160:384|56:368|16:296,1,240,2|0
80,248,113258,2,0,B|136:296|192:264|192:264|144:216|168:152,1,240,0|2
240,192,114458,2,0,B|272:152|272:72|224:24,1,160,2|0
168,80,115358,1,0
88,72,115658,1,2
256,192,115958,12,0,120158
