osu file format v10

[General]
AudioFilename: 14. Indigo Bird.mp3
AudioLeadIn: 3000
PreviewTime: 86224
Countdown: 0
SampleSet: Soft
StackLeniency: 0.2
Mode: 0
LetterboxInBreaks: 0

[Editor]
DistanceSpacing: 1
BeatDivisor: 4
GridSize: 8

[Metadata]
Title:Indigo Bird
TitleUnicode:Indigo Bird
Artist:Nekomata Master feat. Sana
ArtistUnicode:Nekomata Master feat. Sana
Creator:fartownik
Version:Normal
Source:
Tags:Naoyuki Sato Nakagawa-Kanon nakagawa kanon dksslqj
BeatmapID:177128
BeatmapSetID:40507

[Difficulty]
HPDrainRate:5
CircleSize:4
OverallDifficulty:5
ApproachRate:5
SliderMultiplier:1.4
SliderTickRate:1

[Events]
//Background and Video events
0,0,"IndigoBird.jpg"
//Break Periods
//Storyboard Layer 0 (Background)
//Storyboard Layer 1 (Fail)
//Storyboard Layer 2 (Pass)
//Storyboard Layer 3 (Foreground)
//Storyboard Sound Samples
//Background Colour Transformations
3,100,163,162,255

[TimingPoints]
386,681.818181818182,4,2,2,25,1,0
19363,-100,4,2,1,30,0,0
20414,-100,4,2,1,5,0,0
20584,-100,4,2,1,30,0,0
21096,-100,4,2,1,5,0,0
21266,-100,4,2,1,30,0,0
26550,-100,4,2,1,5,0,0
26806,-100,4,2,1,30,0,0
39590,-100,4,2,0,30,0,0
40528,-100,4,1,0,30,0,0
41209,-100,4,2,2,50,0,0
86295,-100,4,2,2,75,0,1
129761,-100,4,2,2,75,0,1
132658,-100,4,2,2,75,0,0
132743,-100,4,2,2,5,0,0
138028,-100,4,2,1,30,0,0

[Colours]
Combo1 : 168,21,255
Combo2 : 249,199,0
Combo3 : 221,0,176
Combo4 : 97,204,0

[HitObjects]
56,304,386,2,0,B|104:304|104:304|120:288|120:288|192:288,1,140,0|2,0:0|0:0,0:0:0
256,320,1408,1,0,0:0:0
323,288,1749,2,0,B|392:288|392:288|408:304|408:304|456:304,1,140,0|0,0:0|0:0,0:0:0
456,304,3113,6,0,B|416:256|440:168,1,140,0|2,0:0|0:0,0:0:0
472,104,4136,1,0,0:0:0
472,104,4476,2,0,B|416:152|336:120,2,140,0|2|2,0:0|0:0|0:0,0:0:0
400,48,6408,6,0,B|416:136|416:136|384:216,1,163.333333333333,0|0,0:0|0:0,0:0:0
336,304,7772,1,0,0:0:0
256,256,8226,1,0,0:0:0
200,304,8567,6,0,B|184:320|184:320|168:304|168:304|184:256|168:208,1,140,2|2,0:0|0:0,0:0:0
312,80,9931,2,0,B|328:64|328:64|344:80|344:80|328:128|344:152,1,116.666666666667,0|0,0:0|0:0,0:0:0
376,240,10954,1,0,0:0:0
336,296,11295,6,0,B|320:312|320:312|304:296|304:296|320:248|304:200,1,140,0|2,0:0|0:0,0:0:0
176,88,12658,2,0,B|192:72|192:72|208:88|208:88|192:136|208:160,1,116.666666666667,0|0,0:0|0:0,0:0:0
168,240,13681,2,0,B|152:272|160:312,1,70,0|0,0:0|0:0,0:0:0
216,352,14363,1,0,0:0:0
256,296,14704,6,0,B|280:288|280:288|304:304|304:304|320:344|384:336,1,140,2|0,0:0|0:0,0:0:0
440,224,15954,2,0,B|416:216|416:216|408:224|408:224|392:256|360:264,1,93.3333333333333,0|0,0:0|0:0,0:0:0
256,192,16749,12,2,19476,0:0:0
224,152,20158,6,0,B|184:152|152:184,1,70,2|0,0:0|0:0,0:0:0
216,224,20840,2,0,B|216:264|248:296,1,70,2|0,0:0|0:0,0:0:0
288,232,21522,5,2,0:0:0
304,168,21863,1,0,0:0:0
304,240,22204,1,2,0:0:0
360,200,22545,1,0,0:0:0
312,256,22886,2,0,B|280:320|304:392,1,140,2|2,0:0|0:0,0:0:0
200,256,24249,6,0,B|232:320|208:392,1,140,2|2,0:0|0:0,0:0:0
288,232,25613,6,0,B|328:232|360:200,1,70,2|0,0:0|0:0,0:0:0
296,160,26295,2,0,B|296:120|264:88,1,70,2|0,0:0|0:0,0:0:0
224,152,26977,5,2,0:0:0
208,216,27318,1,0,0:0:0
208,144,27658,2,0,B|216:72|208:0,1,140,2|2,0:0|0:0,0:0:0
120,112,29022,2,0,B|112:184|120:256,1,140,0|2,0:0|0:0,0:0:0
160,312,30045,1,0,0:0:0
232,304,30386,6,0,B|304:296,1,70,2|0,0:0|0:0,0:0:0
200,264,31067,2,0,B|256:224|272:144,1,140,2|2,0:0|0:0,0:0:0
152,256,32431,5,2,0:0:0
104,208,32772,1,0,0:0:0
136,272,33113,1,2,0:0:0
64,264,33454,1,0,0:0:0
128,296,33795,1,2,0:0:0
72,336,34136,1,0,0:0:0
136,320,34476,2,0,B|208:304|272:352,1,140,2|2,0:0|0:0,0:0:0
376,240,35840,6,0,B|304:224|240:272,1,140,2|2,0:0|0:0,0:0:0
136,168,37204,2,0,B|208:152|272:200,1,140,2|2,0:0|0:0,0:0:0
376,96,38567,5,4,0:0:0
376,96,39761,2,0,B|384:72,2,17.5
328,152,40272,2,0,B|296:168|256:168,1,70
184,152,40954,2,0,B|216:168|256:168,1,70,0|12,0:0|0:0,0:0:0
256,240,41636,5,2,0:0:0
224,304,41976,2,0,B|208:336|168:352,1,70,8|2,0:0|0:0,0:0:0
168,280,42658,2,0,B|136:264|120:224,1,70,8|2,0:0|0:0,0:0:0
192,216,43340,5,8,0:0:0
256,184,43681,1,2,0:0:0
256,256,44022,1,8,0:0:0
256,184,44363,1,2,0:0:0
320,216,44704,6,0,B|384:240|384:240|464:240|496:160,1,210,8|2,0:0|0:0,0:0:0
464,96,46067,2,0,B|320:72,1,140,8|12,0:0|0:0,0:0:0
256,56,47090,5,2,0:0:0
186,72,47431,2,0,B|112:88,1,70,8|2,0:0|0:0,0:0:0
72,144,48113,2,0,B|146:159,1,70,8|2,0:0|0:0,0:0:0
192,208,48795,5,8,0:0:0
128,232,49136,1,10,0:0:0
88,288,49476,6,0,B|72:328|80:360,1,70,0|10,0:0|0:0,0:0:0
168,384,50158,2,0,B|184:344|176:312,1,70,0|10,0:0|0:0,0:0:0
272,296,50840,2,0,B|256:336|264:368,1,70,0|10,0:0|0:0,0:0:0
352,384,51522,6,0,B|368:344|360:312,1,70,10|10,0:0|0:0,0:0:0
336,240,52204,5,12,0:0:0
336,240,52886,2,0,B|376:232|400:208,1,70,8|2,0:0|0:0,0:0:0
344,168,53567,2,0,B|336:128|312:104,1,70,8|2,0:0|0:0,0:0:0
272,160,54249,5,8,0:0:0
248,224,54590,1,2,0:0:0
232,160,54931,1,8,0:0:0
208,224,55272,1,2,0:0:0
192,160,55613,1,8,0:0:0
168,224,55954,1,2,0:0:0
152,160,56295,6,8,B|136:88|80:40,2,140,8|8|12,0:0|0:0|0:0,0:0:0
168,224,57999,6,0,B|152:248|152:248|136:264|112:264,1,70,2|8,0:0|0:0,0:0:0
156,317,58681,2,0,B|132:301|132:301|116:285|116:261,1,70,2|8,0:0|0:0,0:0:0
64,304,59363,6,0,B|80:280|80:280|96:264|120:264,1,70,8|8,0:0|0:0,0:0:0
76,211,60045,2,0,B|100:227|100:227|116:243|116:267,1,70,8|8,0:0|0:0,0:0:0
256,296,61067,5,8,0:0:0
396,263,61749,2,0,B|464:256,2,70,8|10|10,0:0|0:0|0:0,0:0:0
328,144,63113,6,0,B|320:104|328:72,1,70,12|2,0:0|0:0,0:0:0
392,48,63795,2,0,B|424:32,2,35,0|0|2,0:0|0:0|0:0,0:0:0
184,112,65158,1,8,0:0:0
160,176,65499,1,2,0:0:0
184,240,65840,6,0,B|192:280|184:312,1,70,0|2,0:0|0:0,0:0:0
120,336,66522,2,0,B|72:352,2,46.6666666666667,8|0|0,0:0|0:0|0:0,0:0:0
256,288,67545,1,2,0:0:0
328,296,67886,1,8,0:0:0
392,328,68226,1,2,0:0:0
440,384,68567,5,0,0:0:0
416,312,68908,2,0,B|400:280|408:240,1,70,2|8,0:0|0:0,0:0:0
352,120,69931,5,0,0:0:0
328,184,70272,2,0,B|312:216|320:256,1,70,2|8,0:0|0:0,0:0:0
256,360,71295,6,0,B|200:320|200:320|144:320|120:280|112:216,1,210,10|2,0:0|0:0,0:0:0
112,160,72658,2,0,B|120:120|136:96,1,70,8|10,0:0|0:0,0:0:0
184,144,73340,2,0,B|256:176|328:144,1,140,10|12,0:0|0:0,0:0:0
368,96,74363,5,2,0:0:0
328,40,74704,2,0,B|312:24|296:24,2,35,0|0|2,0:0|0:0|0:0,0:0:0
256,240,76067,1,8,0:0:0
216,296,76408,1,2,0:0:0
144,288,76749,5,0,0:0:0
112,224,77090,1,2,0:0:0
72,280,77431,2,0,B|49:297|24:296,2,46.6666666666667,8|0|0,0:0|0:0|0:0,0:0:0
120,176,78454,2,0,B|128:136|128:104,1,70,2|8,0:0|0:0,0:0:0
208,48,79136,2,0,B|200:88|200:120,1,70,2|0,0:0|0:0,0:0:0
256,160,79817,5,2,0:0:0
320,128,80158,2,0,B|360:112|360:112|416:112|456:136,1,140,8|0,0:0|0:0,0:0:0
496,192,81181,1,2,0:0:0
456,248,81522,2,0,B|416:264|416:264|360:264|320:240,1,140,8|10,0:0|0:0,0:0:0
184,240,82886,5,10,0:0:0
320,200,83567,1,10,0:0:0
224,160,84079,2,0,B|200:160|184:152,1,35,0|10,0:0|0:0,0:0:0
128,120,84590,1,2,0:0:0
256,192,84931,12,12,86295,0:0:0
112,112,86976,6,0,B|96:160|144:200|120:256,1,140,10|8,0:0|0:0,0:0:0
96,320,87999,1,2,0:0:0
168,320,88340,6,0,B|208:320|248:336,1,70,8|2,0:0|0:0,0:0:0
344,264,89022,2,0,B|304:264|264:280,1,70,8|2,0:0|0:0,0:0:0
168,208,89704,2,0,B|208:208|248:224,1,70,8|2,0:0|0:0,0:0:0
296,184,90386,6,0,B|352:160|352:160|400:168|432:192,2,140,8|10|12,0:0|0:0|0:0,0:0:0
256,240,92090,5,2,0:0:0
288,304,92431,2,0,B|336:320|376:256|432:296,1,140,8|8,0:0|0:0,0:0:0
464,352,93454,1,2,0:0:0
498,288,93795,6,8,B|506:240|498:200,1,70,8|2,0:0|0:0,0:0:0
456,160,94476,2,8,B|448:120|456:80,2,70,8|2|8,0:0|0:0|0:0,0:0:0
408,208,95499,1,2,0:0:0
368,264,95840,5,10,0:0:0
256,176,96522,1,10,0:0:0
144,264,97204,6,0,B|112:288|72:288,1,70,12|2,0:0|0:0,0:0:0
88,216,97886,2,0,B|48:160|64:80,1,140,8|8,0:0|0:0,0:0:0
120,40,98908,1,2,0:0:0
176,80,99249,6,0,B|216:88|248:88,1,70,8|2,0:0|0:0,0:0:0
336,144,99931,2,0,B|296:152|264:152,1,70,8|2,0:0|0:0,0:0:0
176,208,100613,2,0,B|216:216|248:216,1,70,8|2,0:0|0:0,0:0:0
272,280,101295,6,0,B|328:304|328:304|376:296|408:272,2,140,8|10|12,0:0|0:0|0:0,0:0:0
256,208,102999,1,2,0:0:0
312,168,103340,6,0,B|352:144|416:168|448:128,1,140,8|8,0:0|0:0,0:0:0
480,72,104363,1,2,0:0:0
416,40,104704,6,0,B|376:32|336:32,1,70,8|2,0:0|0:0,0:0:0
288,72,105386,2,0,B|280:112|280:152,1,70,8|2,0:0|0:0,0:0:0
328,192,106067,2,0,B|368:200|408:200,1,70,8|2,0:0|0:0,0:0:0
432,136,106749,5,8,0:0:0
464,200,107090,1,2,0:0:0
448,272,107431,1,10,0:0:0
384,304,107772,1,10,0:0:0
312,296,108113,5,12,0:0:0
288,160,108795,2,0,B|248:88|160:104,1,140,8|8,0:0|0:0,0:0:0
120,144,109817,1,2,0:0:0
56,120,110158,6,0,B|48:192,1,70,8|2,0:0|0:0,0:0:0
80,248,110840,2,0,B|80:288|64:320,2,70,8|2|8,0:0|0:0|0:0,0:0:0
144,216,111863,1,2,0:0:0
216,208,112204,6,0,B|272:200|272:200|320:208|344:240,2,140,8|10|12,0:0|0:0|0:0,0:0:0
184,272,113908,1,2,0:0:0
232,320,114249,6,0,B|288:368|368:336,1,140,8|8,0:0|0:0,0:0:0
424,296,115272,1,2,0:0:0
496,312,115613,6,0,B|498:279|488:240,1,70,8|2,0:0|0:0,0:0:0
464,176,116295,2,0,B|456:136|464:104,2,70,8|2|8,0:0|0:0|0:0,0:0:0
416,224,117317,1,2,0:0:0
352,192,117658,5,10,0:0:0
280,192,117999,5,10,0:0:0
208,192,118340,5,8,0:0:0
136,192,118681,5,10,0:0:0
64,192,119022,5,12,0:0:0
152,80,119704,2,0,B|184:64|240:96|240:96|288:72,1,140,8|8,0:0|0:0,0:0:0
344,40,120726,1,2,0:0:0
344,112,121067,6,0,B|352:152|376:176,1,70,8|2,0:0|0:0,0:0:0
432,208,121749,2,0,B|424:248|400:272,1,70,8|10,0:0|0:0,0:0:0
368,328,122431,2,0,B|312:368|280:296|232:336,1,140,8|8,0:0|0:0,0:0:0
128,248,123795,1,10,0:0:0
80,120,124476,5,12,0:0:0
136,72,124817,1,2,0:0:0
144,144,125158,6,0,B|144:216|184:280,1,140,8|10,0:0|0:0,0:0:0
336,280,126522,2,0,B|374:219|374:147,1,140,8|14,0:0|0:0,0:0:0
352,80,127545,6,0,B|336:40,2,35,2|0|8,0:0|0:0|0:0,0:0:0
424,96,128226,1,2,0:0:0
432,168,128567,2,0,B|440:240|456:312,1,140,8|8,0:0|0:0,0:0:0
408,360,129590,2,0,B|368:352|336:368,1,70,2|12,0:0|0:0,0:0:0
72,296,131295,5,8,0:0:0
136,264,131636,1,2,0:0:0
168,200,131976,5,8,0:0:0
152,112,132317,1,8,0:0:0
72,56,132658,1,4,0:0:0
256,192,132772,12,0,135556,0:0:0
256,120,137431,6,0,B|232:168|280:216|256:264,1,140,0|2,0:0|0:0,0:0:0
