osu file format v10

[General]
AudioFilename: 14. Indigo Bird.mp3
AudioLeadIn: 3000
PreviewTime: 86224
Countdown: 0
SampleSet: Soft
StackLeniency: 0.2
Mode: 0
LetterboxInBreaks: 0

[Editor]
DistanceSpacing: 1.2
BeatDivisor: 4
GridSize: 8

[Metadata]
Title:Indigo Bird
TitleUnicode:Indigo Bird
Artist:Nekomata Master feat. Sana
ArtistUnicode:Nekomata Master feat. Sana
Creator:fartownik
Version:Master
Source:
Tags:Naoyuki Sato Nakagawa-Kanon nakagawa kanon dksslqj
BeatmapID:128499
BeatmapSetID:40507

[Difficulty]
HPDrainRate:6
CircleSize:5
OverallDifficulty:7
ApproachRate:8
SliderMultiplier:1.6
SliderTickRate:1

[Events]
//Background and Video events
0,0,"IndigoBird.jpg"
//Break Periods
//Storyboard Layer 0 (Background)
//Storyboard Layer 1 (Fail)
//Storyboard Layer 2 (Pass)
//Storyboard Layer 3 (Foreground)
//Storyboard Sound Samples
//Background Colour Transformations
3,100,163,162,255

[TimingPoints]
386,681.818181818182,3,2,2,25,1,0
5073,-66.6666666666667,3,2,2,7,0,0
5840,-100,3,2,2,25,0,0
8454,-66.6666666666667,3,2,2,7,0,0
9817,-100,3,2,2,25,0,0
11863,-66.6666666666667,3,2,2,7,0,0
12573,-100,3,2,2,25,0,0
14590,-66.6666666666667,3,2,2,7,0,0
15300,-100,3,2,2,25,0,0
16522,-100,3,2,2,16,0,0
17431,-200,3,2,2,60,0,0
17516,-200,3,1,1,5,0,0
19391,-76.9230769230769,3,2,1,30,0,0
21096,-200,3,1,1,5,0,0
21266,-76.9230769230769,3,2,1,30,0,0
21692,-76.9230769230769,3,1,1,5,0,0
21863,-76.9230769230769,3,2,1,30,0,0
22033,-76.9230769230769,3,1,1,5,0,0
22118,-76.9230769230769,3,2,1,30,0,0
24249,-66.6666666666667,3,2,1,30,0,0
24675,-76.9230769230769,3,1,1,5,0,0
24846,-76.9230769230769,3,2,1,35,0,0
25798,-76.9230769230769,3,1,1,5,0,0
25883,-76.9230769230769,3,2,1,35,0,0
26139,-76.9230769230769,3,1,1,5,0,0
26224,-76.9230769230769,3,2,1,35,0,0
26806,-76.9230769230769,3,1,1,5,0,0
26891,-76.9230769230769,3,2,1,35,0,0
27147,-76.9230769230769,3,1,1,5,0,0
27317,-76.9230769230769,3,2,1,35,0,0
27488,-76.9230769230769,3,1,1,5,0,0
27658,-66.6666666666667,3,2,1,35,0,0
28170,-66.6666666666667,3,1,1,5,0,0
28255,-66.6666666666667,3,2,1,35,0,0
28851,-76.9230769230769,3,1,1,5,0,0
28937,-76.9230769230769,3,2,1,35,0,0
30173,-76.9230769230769,3,1,1,5,0,0
30315,-76.9230769230769,3,2,1,35,0,0
31493,-76.9230769230769,3,1,1,5,0,0
31664,-76.9230769230769,3,2,1,35,0,0
32090,-76.9230769230769,3,1,1,5,0,0
32317,-76.9230769230769,3,2,1,35,0,0
32601,-76.9230769230769,3,1,1,5,0,0
32687,-76.9230769230769,3,2,1,35,0,0
32942,-76.9230769230769,3,1,1,5,0,0
33028,-76.9230769230769,3,2,1,35,0,0
33283,-76.9230769230769,3,1,1,5,0,0
33368,-76.9230769230769,3,2,1,35,0,0
33624,-76.9230769230769,3,1,1,5,0,0
33709,-76.9230769230769,3,2,1,35,0,0
33965,-76.9230769230769,3,1,1,5,0,0
34050,-76.9230769230769,3,2,1,35,0,0
34306,-76.9230769230769,3,1,1,5,0,0
34391,-66.6666666666667,3,2,1,35,0,0
34903,-66.6666666666667,3,1,1,5,0,0
35073,-66.6666666666667,3,2,1,35,0,0
35584,-66.6666666666667,3,1,1,5,0,0
35755,-76.9230769230769,3,2,1,35,0,0
39704,-76.9230769230769,3,2,0,30,0,0
40386,-76.9230769230769,3,1,0,15,0,0
41209,-76.9230769230769,3,2,2,50,0,0
63014,-133.333333333333,3,2,2,33,0,0
81651,-76.9230769230769,3,2,2,40,0,0
82204,-76.9230769230769,3,2,0,40,0,0
82459,-76.9230769230769,3,2,2,40,0,0
82630,-76.9230769230769,3,2,2,40,0,0
82886,-76.9230769230769,3,2,0,40,0,0
83071,-76.9230769230769,3,2,2,40,0,0
83397,-76.9230769230769,3,2,2,40,0,0
83567,-76.9230769230769,3,2,0,40,0,0
83653,-76.9230769230769,3,2,2,40,0,0
83838,-76.9230769230769,3,2,0,40,0,0
84008,-76.9230769230769,3,2,2,40,0,0
84179,-76.9230769230769,3,2,0,40,0,0
84349,-76.9230769230769,3,2,2,40,0,0
84520,-76.9230769230769,3,2,0,40,0,0
84690,-76.9230769230769,3,2,2,40,0,0
86124,-66.6666666666667,3,2,2,75,0,0
86295,-66.6666666666667,3,2,2,75,0,1
97118,-66.6666666666667,3,2,2,75,0,0
97204,-66.6666666666667,3,2,2,75,0,1
108028,-50,3,2,2,75,0,0
108113,-50,3,2,2,75,0,1
129761,-100,3,2,2,75,0,1
129931,-100,3,2,2,75,0,0
132772,-100,3,2,2,5,0,0
138043,-100,3,2,1,35,0,0

[Colours]
Combo1 : 168,21,255
Combo2 : 249,199,0
Combo3 : 221,0,176
Combo4 : 97,204,0

[HitObjects]
72,320,386,2,0,B|96:320|120:296,1,53.3333333333333,0|0,0:0|0:0,0:0:0
131,253,726,1,0,0:0:0
136,256,954,2,0,B|224:232,1,80,2|0,0:0|0:0,0:0:0
256,224,1408,1,0,0:0:0
440,64,1749,6,0,B|416:64|392:88,1,53.3333333333333
382,130,2090,1,0,0:0:0
376,128,2317,2,0,B|288:152,1,80,2|0,0:0|0:0,0:0:0
256,160,2772,2,0,B|224:168|200:160,1,53.3333333333333
104,104,3113,6,0,B|88:160,1,53.3333333333333,0|0,0:0|0:0,0:0:0
80,200,3454,1,0,0:0:0
104,280,3681,2,0,B|112:304|136:320|168:320,1,80,2|0,0:0|0:0,0:0:0
208,320,4135,2,0,B|240:320|256:304,1,53.3333333333333,0|0,0:0|0:0,0:0:0
256,264,4476,2,0,B|392:272,1,133.333333333333
432,272,5158,6,0,B|440:264|440:264|456:256|456:256|448:240|448:240|464:224|464:224|456:208|456:208|472:192|472:192|464:176|464:176|480:160|480:160|472:144|472:144|488:136|488:136|480:120|480:120|488:104,1,210.000008010865
448,96,5840,6,0,B|432:120|400:120,1,53.3333333333333,2|0,0:0|0:0,0:0:0
358,112,6181,1,0,0:0:0
360,120,6408,2,0,B|328:192,1,80,2|0,0:0|0:0,0:0:0
312,232,6863,2,0,B|304:256|280:272,1,53.3333333333333
232,272,7204,6,0,B|208:256|200:232,1,53.3333333333333,0|0,0:0|0:0,0:0:0
190,192,7545,1,0,0:0:0
184,193,7772,2,0,B|152:120,1,80,2|0,0:0|0:0,0:0:0
136,80,8226,1,0,0:0:0
72,192,8567,6,0,B|64:256|104:304,1,119.999996423721
440,192,9249,2,0,B|448:128|408:80,1,119.999996423721
328,184,9931,6,0,B|328:224|352:264,1,80
416,312,10499,1,2,0:0:0
416,312,10954,1,0,0:0:0
432,184,11295,5,0,0:0:0
296,168,11636,1,0,0:0:0
288,296,11976,2,0,B|176:328|112:232,1,199.999994039536,0|0,0:0|0:0,0:0:0
112,168,12658,6,0,B|128:88,1,80
184,40,13226,1,2,0:0:0
184,40,13681,1,0,0:0:0
200,168,14022,5,0,0:0:0
336,160,14363,1,0,0:0:0
328,24,14704,2,0,B|216:-8|152:88,1,199.999994039536
136,152,15386,6,0,B|149:231,1,80
232,280,15954,2,0,B|253:392,1,106.666666666667,2|0,0:0|0:0,0:0:0
360,352,16749,5,0,0:0:0
400,248,17090,1,0,0:0:0
312,160,17431,6,0,B|264:136|192:144|160:208|168:264,1,213.333333333333
167,259,19476,6,0,B|174:296|166:328,1,69.3333320935567,2|0,0:0|0:0,0:0:0
118,328,19817,2,0,B|110:296|118:259,1,69.3333320935567,0|0,0:0|0:0,0:0:0
144,224,20158,2,0,B|136:152|136:152,1,69.3333320935567,2|0,0:0|0:0,0:0:0
248,88,20726,1,0,0:0:0
248,88,20840,2,0,B|256:192,1,103.999998140335,2|0,0:0|0:0,0:0:0
256,192,21522,6,0,B|280:216|320:216,1,69.3333320935567,2|0,0:0|0:0,0:0:0
256,192,21863,2,0,B|280:168|280:128,1,69.3333320935567
256,192,22204,2,0,B|208:168|152:176,2,103.999998140335,2|0|2,0:0|0:0|0:0,0:0:0
192,256,23113,1,0,0:0:0
192,256,23226,2,0,B|176:328,1,69.3333320935567
144,296,23567,2,0,B|112:312|72:304,1,69.3333320935567,2|0,0:0|0:0,0:0:0
118,208,24136,5,0,0:0:0
118,208,24249,2,0,B|230:184|222:56,1,199.999994039536,2|0,0:0|0:0,0:0:0
222,60,24931,6,0,B|256:76|292:59,1,69.3333320935567,2|0,0:0|0:0,0:0:0
288,104,25272,2,0,B|254:119|220:103,1,69.3333320935567,0|0,0:0|0:0,0:0:0
208,144,25613,6,0,B|192:176|160:192,1,69.3333320935567,2|0,0:0|0:0,0:0:0
120,208,25954,2,0,B|136:240|168:256,1,69.3333320935567
216,264,26295,2,0,B|200:304|160:344|112:344|64:336,1,173.333330233892,2|0,0:0|0:0,0:0:0
40,328,26976,6,0,B|25:250,1,77.9999986052513,2|0,0:0|0:0,0:0:0
20,217,27317,2,0,B|6:137,1,77.9999986052513
71,72,27658,6,0,B|107:271,1,199.999994039536,2|0,0:0|0:0,0:0:0
171,199,28340,2,0,B|138:1,1,199.999994039536,2|0,0:0|0:0,0:0:0
224,48,29022,6,0,B|256:40|296:48,1,69.3333320935567,2|0,0:0|0:0,0:0:0
320,56,29363,1,0,0:0:0
256,120,29590,1,0,0:0:0
256,120,29704,2,0,B|248:192,1,69.3333320935567,2|0,0:0|0:0,0:0:0
256,264,30045,2,0,B|264:192,1,69.3333320935567
328,256,30386,6,0,B|328:296|360:320,1,69.3333320935567,2|0,0:0|0:0,0:0:0
400,296,30726,2,0,B|400:256|368:232,1,69.3333320935567,0|0,0:0|0:0,0:0:0
336,208,31067,2,0,B|304:48,1,155.999997210503,2|0,0:0|0:0,0:0:0
206,55,31749,2,0,B|176:208,1,155.999997210503,2|0,0:0|0:0,0:0:0
112,176,32431,6,0,B|80:192|40:192,1,69.3333320935567,2|0,0:0|0:0,0:0:0
112,176,32772,6,0,B|78:164|49:136,1,69.3333320935567,0|0,0:0|0:0,0:0:0
112,176,33113,6,0,B|96:144|96:104,1,69.3333320935567,2|0,0:0|0:0,0:0:0
112,176,33454,6,0,B|123:142|151:113,1,69.3333320935567,0|0,0:0|0:0,0:0:0
112,176,33795,6,0,B|143:160|183:160,1,69.3333320935567,2|0,0:0|0:0,0:0:0
112,176,34136,6,0,B|145:187|174:215,1,69.3333320935567
112,176,34476,6,0,B|152:272|120:376,1,199.999994039536,2|0,0:0|0:0,0:0:0
121,371,35158,2,0,B|217:331|321:363,1,199.999994039536,2|0,0:0|0:0,0:0:0
360,376,35840,5,2,0:0:0
336,240,36181,1,0,0:0:0
312,104,36522,2,0,B|280:120|240:112,1,69.3333320935567,2|0,0:0|0:0,0:0:0
216,144,36863,2,0,B|232:176|224:216,1,69.3333320935567,0|0,0:0|0:0,0:0:0
200,248,37204,5,2,0:0:0
336,240,37545,1,0,0:0:0
472,232,37885,1,2,0:0:0
448,320,38113,1,0,0:0:0
418,352,38226,1,0,0:0:0
378,368,38340,1,0,0:0:0
338,368,38454,1,0,0:0:0
298,352,38567,5,4,0:0:0
256,48,39761,2,0,B|256:16,2,25.9999988098145
201,149,40272,2,0,B|186:189|197:226,1,77.9999964294435
198,227,40613,6,0,B|255:191,1,69.3333320935567
256,190,40954,2,0,B|314:226,1,69.3333320935567
354,229,41295,5,12,0:0:0
440,200,41522,1,0,0:0:0
440,200,41635,2,0,B|448:240|432:272,1,69.3333320935567,2|0,0:0|0:0,0:0:0
376,168,41976,2,0,B|368:128|384:96,1,69.3333320935567,8|0,0:0|0:0,0:0:0
448,0,42317,2,0,B|456:40|440:72,1,69.3333320935567,2|0,0:0|0:0,0:0:0
376,32,42658,2,0,B|272:40,2,103.999998140335,8|2|8,0:0|0:0|0:0,0:0:0
288,112,43567,1,0,0:0:0
288,112,43681,2,0,B|216:120,1,69.3333320935567,2|0,0:0|0:0,0:0:0
176,176,44022,6,0,B|160:232|192:280,1,103.999998140335,8|2,0:0|0:0,0:0:0
336,208,44704,2,0,B|352:152|320:104,1,103.999998140335,8|2,0:0|0:0,0:0:0
189,275,45385,2,0,B|217:325|273:337,1,103.999998140335,8|2,0:0|0:0,0:0:0
323,109,46067,6,0,B|304:80|272:64,1,69.3333320935567,8|0,0:0|0:0,0:0:0
240,63,46408,2,0,B|208:80|189:109,1,69.3333320935567,0|0,0:0|0:0,0:0:0
256,136,46749,5,12,0:0:0
187,194,46976,1,0,0:0:0
187,194,47090,2,0,B|206:223|238:239,1,69.3333320935567,2|0,0:0|0:0,0:0:0
168,280,47431,2,0,B|138:299|122:331,1,69.3333320935567,8|0,0:0|0:0,0:0:0
96,240,47772,2,0,B|76:210|44:194,1,69.3333320935567,2|0,0:0|0:0,0:0:0
112,144,48113,2,0,B|152:112|176:64,2,103.999998140335,8|2|8,0:0|0:0|0:0,0:0:0
208,336,49135,1,10,0:0:0
400,240,49476,5,0,0:0:0
304,48,49817,1,10,0:0:0
112,144,50158,5,0,0:0:0
304,48,50499,1,10,0:0:0
400,240,50840,5,0,0:0:0
304,48,51181,1,10,0:0:0
112,144,51522,5,8,0:0:0
101,188,51635,1,8,0:0:0
107,232,51749,1,0,0:0:0
134,268,51863,1,10,0:0:0
174,286,51976,1,0,0:0:0
219,288,52090,1,10,0:0:0
262,274,52204,6,0,B|296:256|304:216,1,69.3333320935567,12|2,0:0|0:0,0:0:0
240,160,52545,2,0,B|206:178|200:216,1,69.3333320935567,0|0,0:0|0:0,0:0:0
313,147,52885,6,0,B|347:129|355:89,1,69.3333320935567,12|2,0:0|0:0,0:0:0
291,33,53226,2,0,B|257:51|251:89,1,69.3333320935567,0|0,0:0|0:0,0:0:0
176,112,53567,2,0,B|64:144,2,103.999998140335,8|2|8,0:0|0:0|0:0,0:0:0
48,216,54590,5,2,0:0:0
160,288,54931,2,0,B|192:304|232:304,1,69.3333320935567,8|0,0:0|0:0,0:0:0
208,232,55272,2,0,B|224:200|224:160,1,69.3333320935567,2|0,0:0|0:0,0:0:0
152,192,55613,2,0,B|120:176|80:176,1,69.3333320935567,8|0,0:0|0:0,0:0:0
96,248,55954,2,0,B|80:280|80:320,1,69.3333320935567,2|0,0:0|0:0,0:0:0
160,288,56295,6,0,B|184:280|184:280|200:296|200:296|224:288|224:288|240:304|280:320|328:312,1,173.333330233892,8|0,0:0|0:0,0:0:0
456,264,56976,2,0,B|432:272|432:272|416:256|416:256|392:264|392:264|376:248|336:232|288:240,1,173.333330233892,8|0,0:0|0:0,0:0:0
224,208,57658,5,0,0:0:0
248,168,57772,1,0,0:0:0
288,152,57885,1,0,0:0:0
336,152,57999,2,0,B|368:160,2,34.6666660467784,10|0|0,0:0|0:0|0:0,0:0:0
288,152,58340,5,0,0:0:0
248,128,58454,1,0,0:0:0
232,88,58567,1,0,0:0:0
232,40,58681,2,0,B|240:8,2,34.6666660467784,10|0|0,0:0|0:0|0:0,0:0:0
232,88,59022,5,8,0:0:0
208,128,59135,1,0,0:0:0
168,144,59249,1,0,0:0:0
120,144,59363,2,0,B|88:136,2,34.6666660467784,10|0|0,0:0|0:0|0:0,0:0:0
168,144,59704,5,8,0:0:0
208,168,59817,1,0,0:0:0
224,208,59931,1,0,0:0:0
224,256,60045,2,0,B|216:288,2,34.6666660467784,10|0|0,0:0|0:0|0:0,0:0:0
288,304,60385,6,0,B|312:328|352:328,1,69.3333320935567,12|0,0:0|0:0,0:0:0
424,312,60726,1,10,0:0:0
400,208,60954,1,0,0:0:0
400,208,61067,2,0,B|376:232|336:232,1,69.3333320935567,8|0,0:0|0:0,0:0:0
264,216,61408,1,10,0:0:0
320,144,61635,1,0,0:0:0
320,144,61749,6,0,B|344:112|352:80|352:80|336:56|320:72,1,103.999998140335,8|10,0:0|0:0,0:0:0
192,240,62431,2,0,B|168:272|160:304|160:304|176:328|192:312,1,103.999998140335,10|10,0:0|0:0,0:0:0
256,192,63113,5,12,0:0:0
304,248,63454,1,2,0:0:0
376,256,63795,1,8,0:0:0
409,248,63965,1,0,0:0:0
440,240,64136,6,0,B|464:224|480:192|480:192|464:120|480:72,1,180.000006866455,2|8,0:0|0:0,0:0:0
400,168,65499,2,0,B|368:168|344:152,1,60.0000022888184,2|4,0:0|0:0,0:0:0
288,104,66181,5,2,0:0:0
248,40,66522,2,0,B|200:30,1,40.000001525879,8|0,0:0|0:0,0:0:0
160,24,66948,6,0,B|128:21|104:45|104:45|112:69|104:93,1,105.000004005432,0|2,0:0|0:0,0:0:0
216,128,67886,2,0,B|192:104|168:88,1,60.0000022888184,8|2,0:0|0:0,0:0:0
224,192,68567,6,0,B|200:216|184:240,1,60.0000022888184,2|2,0:0|0:0,0:0:0
160,304,69249,2,0,B|120:352|56:360,1,120.000004577637,8|0,0:0|0:0,0:0:0
112,256,70272,5,2,0:0:0
96,192,70613,2,0,B|88:160|88:144,1,40.000001525879,8|0,0:0|0:0,0:0:0
104,120,70954,2,0,B|112:88|112:72,1,40.000001525879
144,48,71295,6,0,B|232:32|248:64|264:64|280:32|384:48,1,240.000009155274,2|10,0:0|0:0,0:0:0
448,72,72886,1,0,0:0:0
448,72,72999,2,0,B|456:104|448:136,1,60.0000022888185,0|8,0:0|0:0,0:0:0
232,184,73681,2,0,B|224:152|232:120,1,60.0000022888185,6|8,0:0|0:0,0:0:0
304,160,74363,5,2,0:0:0
312,232,74704,1,8,0:0:0
304,264,74874,1,0,0:0:0
296,296,75045,6,0,B|288:328|264:344|264:344|264:352|264:352|200:352|200:352|200:360|200:360|160:360|160:360,1,180.000006866455,2|8,0:0|0:0,0:0:0
40,320,76408,2,0,B|72:312|96:296,1,60.0000022888184,2|4,0:0|0:0,0:0:0
128,232,77090,5,2,0:0:0
96,160,77431,2,0,B|88:112,1,40.000001525879,8|0,0:0|0:0,0:0:0
80,64,77857,6,0,B|72:40|56:24|56:24|88:32|112:32,1,105.000004005432,0|2,0:0|0:0,0:0:0
216,72,78795,2,0,B|160:88,1,60.0000022888184,8|2,0:0|0:0,0:0:0
296,72,79476,6,0,B|352:88,1,60.0000022888184,2|2,0:0|0:0,0:0:0
416,136,80158,2,0,B|432:200|416:256,1,120.000004577637,8|0,0:0|0:0,0:0:0
352,216,81067,5,0,0:0:0
352,216,81181,2,0,B|328:224|312:224,1,40.000001525879,2|0,0:0|0:0,0:0:0
256,192,81522,1,8,0:0:0
160,216,81749,2,0,B|184:224|200:224,1,34.6666650797527,0|2,0:0|0:0,0:0:0
256,288,82033,6,0,B|256:312,2,25.9999995350838,8|8|4,0:0|0:0|0:0,0:0:0
288,192,82545,5,0,0:0:0
352,192,82715,2,0,B|392:192,2,25.9999995350838,8|8|4,0:0|0:0|0:0,0:0:0
256,160,83226,5,0,0:0:0
256,96,83397,2,0,B|256:64,2,25.9999995350838,8|8|4,0:0|0:0|0:0,0:0:0
160,192,83795,6,0,B|120:192,1,34.6666650797527,0|0,0:0|0:0,0:0:0
256,288,84135,2,0,B|256:328,1,34.6666650797527,8|4,0:0|0:0,0:0:0
352,192,84476,2,0,B|392:192,1,34.6666650797527,8|0,0:0|0:0,0:0:0
456,192,84817,1,8,0:0:0
256,192,84931,12,0,85954,0:0:0
280,160,86295,6,0,B|320:136|328:96,1,79.9999976158143,12|2,0:0|0:0,0:0:0
224,192,86635,2,0,B|200:152|160:144,1,79.9999976158143,8|0,0:0|0:0,0:0:0
280,224,86976,2,0,B|240:248|232:288,1,79.9999976158143,8|2,0:0|0:0,0:0:0
304,288,87317,1,8,0:0:0
448,200,87545,1,0,0:0:0
392,232,87658,6,0,B|352:224|328:184,1,79.9999976158143,8|2,0:0|0:0,0:0:0
296,136,87999,1,8,0:0:0
216,136,88226,1,8,0:0:0
182,186,88340,6,0,B|160:224|120:232,1,79.9999976158143,8|2,0:0|0:0,0:0:0
216,136,88681,2,0,B|238:98|278:90,1,79.9999976158143,8|2,0:0|0:0,0:0:0
152,128,89022,6,0,B|120:128|104:144|104:144|88:168|64:176|64:176|72:152,1,119.999996423721,12|2,0:0|0:0,0:0:0
360,264,89590,1,0,0:0:0
360,264,89704,2,0,B|392:264|408:248|408:248|424:224|424:224|424:224|424:224,1,79.9999976158143,12|2,0:0|0:0,0:0:0
424,160,90045,2,0,B|425:161|425:161|425:161|409:137|409:137|393:121|361:121,1,79.9999976158143,8|2,0:0|0:0,0:0:0
296,136,90386,5,10,0:0:0
280,208,90726,1,2,0:0:0
348,192,91067,1,10,0:0:0
296,136,91408,1,2,0:0:0
280,208,91749,6,0,B|272:256|312:288,1,79.9999976158143,12|2,0:0|0:0,0:0:0
256,152,92090,2,0,B|304:160|336:120,1,79.9999976158143,8|0,0:0|0:0,0:0:0
224,208,92431,2,0,B|232:160|192:128,1,79.9999976158143,8|2,0:0|0:0,0:0:0
136,120,92772,1,8,0:0:0
136,248,92999,1,0,0:0:0
200,272,93113,2,0,B|192:320|232:352,1,79.9999976158143,8|2,0:0|0:0,0:0:0
288,344,93454,2,0,B|320:320|312:272,1,79.9999976158143,8|8,0:0|0:0,0:0:0
376,248,93795,6,0,B|392:208|432:192,1,80.0000030517579,8|2,0:0|0:0,0:0:0
256,152,94136,2,0,B|256:72,1,80.0000030517579,8|2,0:0|0:0,0:0:0
136,248,94476,6,0,B|104:216|88:184|88:184|64:184|48:168,1,119.999996423721,12|2,0:0|0:0,0:0:0
376,136,95045,1,0,0:0:0
376,136,95158,2,0,B|392:176|432:192|432:192|432:192|432:192,1,79.9999976158143,12|2,0:0|0:0,0:0:0
321,190,95499,2,0,B|361:174|377:134|377:134|377:134|377:134,1,79.9999976158143,8|2,0:0|0:0,0:0:0
376,72,95840,5,14,0:0:0
337,60,95954,1,0,0:0:0
297,65,96067,1,2,0:0:0
264,88,96181,1,10,0:0:0
248,124,96295,1,0,0:0:0
245,163,96408,1,2,0:0:0
259,200,96522,1,14,0:0:0
274,237,96636,1,0,0:0:0
278,276,96749,1,2,0:0:0
266,314,96863,1,14,0:0:0
237,342,96976,1,10,0:0:0
197,348,97090,1,10,0:0:0
161,328,97204,6,0,B|128:296|88:296,1,79.9999976158143,12|2,0:0|0:0,0:0:0
112,192,97545,2,0,B|150:192|183:160,1,79.9999976158143,8|0,0:0|0:0,0:0:0
160,72,97886,2,0,B|127:40|87:40,1,79.9999976158143,8|2,0:0|0:0,0:0:0
96,112,98226,1,8,0:0:0
224,144,98454,1,0,0:0:0
288,144,98567,6,0,B|333:151|352:192,1,79.9999976158143,8|2,0:0|0:0,0:0:0
351,250,98908,1,8,0:0:0
288,329,99136,1,0,0:0:0
224,329,99249,6,0,B|192:312|144:320,1,80.0000030517579,8|2,0:0|0:0,0:0:0
288,256,99590,2,0,B|328:240|368:248,1,80.0000030517579,8|2,0:0|0:0,0:0:0
224,184,99931,6,0,B|184:152|144:200|104:168,1,119.999996423721,12|2,0:0|0:0,0:0:0
288,80,100499,1,0,0:0:0
288,80,100613,2,0,B|328:63|368:79,1,79.9999976158143,12|2,0:0|0:0,0:0:0
408,128,100954,2,0,B|456:192,1,79.9999976158143,8|2,0:0|0:0,0:0:0
432,256,101295,5,10,0:0:0
360,280,101636,1,2,0:0:0
376,208,101976,1,10,0:0:0
432,256,102317,1,2,0:0:0
360,280,102658,6,0,B|352:320|320:352,1,79.9999976158143,12|2,0:0|0:0,0:0:0
376,208,102999,2,0,B|336:200|304:168,1,79.9999976158143,8|0,0:0|0:0,0:0:0
432,256,103340,2,0,B|440:216|472:184,1,79.9999976158143,8|2,0:0|0:0,0:0:0
409,148,103681,1,8,0:0:0
312,72,103908,1,0,0:0:0
346,128,104022,2,0,B|338:168|298:192,1,79.9999976158143,8|2,0:0|0:0,0:0:0
256,144,104363,1,8,0:0:0
159,194,104590,5,0,0:0:0
183,250,104704,2,0,B|191:290|223:322,1,80.0000030517579,8|2,0:0|0:0,0:0:0
290,320,105045,2,0,B|319:290|327:250,1,80.0000030517579,8|2,0:0|0:0,0:0:0
328,184,105386,6,0,B|320:144|336:104|336:104|352:88|352:88|360:112,1,119.999996423721,12|2,0:0|0:0,0:0:0
416,208,105954,1,0,0:0:0
416,208,106067,2,0,B|424:248|408:288|408:288|392:304|392:304|384:280,1,119.999996423721,12|2,0:0|0:0,0:0:0
256,216,106636,5,0,0:0:0
256,152,106749,1,10,0:0:0
197,65,106976,5,0,0:0:0
200,104,107090,1,8,0:0:0
190,143,107204,1,0,0:0:0
168,176,107317,1,0,0:0:0
129,187,107431,1,14,0:0:0
315,65,107658,5,0,0:0:0
312,104,107772,1,8,0:0:0
322,143,107886,1,0,0:0:0
344,176,107999,1,0,0:0:0
376,192,108113,6,0,B|392:248|376:296,1,106.666666666667,12|2,0:0|0:0,0:0:0
320,144,108454,2,0,B|262:136|224:103,1,106.666666666667,8|0,0:0|0:0,0:0:0
392,120,108795,2,0,B|421:69|466:47,1,106.666666666667,8|2,0:0|0:0,0:0:0
472,136,109136,1,8,0:0:0
384,296,109363,1,0,0:0:0
320,320,109476,2,0,B|272:344|216:344|168:312|144:248|168:184,1,266.666666666667,8|0,0:0|0:0,0:0:0
167,186,110158,6,0,B|160:144|160:144|128:128|120:96,1,106.666666666667,12|2,0:0|0:0,0:0:0
256,136,110499,2,0,B|256:16,1,106.666666666667,8|2,0:0|0:0,0:0:0
344,186,110840,2,0,B|352:144|352:144|384:128|392:96,1,106.666666666667,12|2,0:0|0:0,0:0:0
456,144,111181,1,8,0:0:0
344,256,111408,1,0,0:0:0
392,304,111522,5,10,0:0:0
280,224,111863,1,2,0:0:0
416,168,112204,1,10,0:0:0
392,304,112545,1,10,0:0:0
392,304,112658,1,0,0:0:0
392,304,112772,1,0,0:0:0
392,304,112886,2,0,B|352:344|296:352,1,106.666666666667,8|0,0:0|0:0,0:0:0
213,351,113226,2,0,B|160:344|120:304,1,106.666666666667,10|10,0:0|0:0,0:0:0
192,272,113567,6,0,B|232:224|160:168|200:112,1,160,12|2,0:0|0:0,0:0:0
360,141,114136,1,0,0:0:0
360,141,114249,2,0,B|390:195|362:244,1,106.666666666667,8|2,0:0|0:0,0:0:0
312,192,114590,2,0,B|192:192,1,106.666666666667,8|0,0:0|0:0,0:0:0
151,242,114931,2,0,B|125:193|152:141,1,106.666666666667,8|2,0:0|0:0,0:0:0
208,88,115272,1,8,0:0:0
312,192,115499,5,0,0:0:0
336,256,115613,2,0,B|376:296|432:296,1,106.666666666667,8|2,0:0|0:0,0:0:0
176,192,115954,2,0,B|136:232|80:232,1,106.666666666667,8|2,0:0|0:0,0:0:0
336,112,116295,6,0,B|376:152|408:160|408:160|440:152|456:152|456:152|480:160,1,160,12|2,0:0|0:0,0:0:0
176,112,116863,1,0,0:0:0
176,112,116976,2,0,B|136:152|104:160|104:160|72:152|56:152|56:152|32:160,1,160,12|2,0:0|0:0,0:0:0
152,264,117545,5,0,0:0:0
224,280,117658,1,12,0:0:0
360,216,117886,1,0,0:0:0
288,232,117999,1,12,0:0:0
408,144,118226,1,2,0:0:0
435,177,118340,1,12,0:0:0
444,218,118454,1,2,0:0:0
435,259,118567,1,12,0:0:0
405,289,118681,1,2,0:0:0
362,295,118795,1,12,0:0:0
324,315,118908,1,0,0:0:0
301,351,119022,6,0,B|256:384|200:384,1,106.666666666667,12|2,0:0|0:0,0:0:0
256,296,119363,2,0,B|200:287|161:247,1,106.666666666667,8|0,0:0|0:0,0:0:0
288,232,119704,2,0,B|255:187|255:131,1,106.666666666667,8|2,0:0|0:0,0:0:0
256,64,120045,1,8,0:0:0
344,168,120272,1,0,0:0:0
368,232,120386,2,0,B|409:277|409:333,1,106.666666666667,8|2,0:0|0:0,0:0:0
408,328,120726,1,8,0:0:0
280,360,120954,1,0,0:0:0
256,296,121067,6,0,B|228:246|176:232,1,106.666666666667,8|2,0:0|0:0,0:0:0
264,208,121408,2,0,B|292:158|344:144,1,106.666666666667,8|2,0:0|0:0,0:0:0
256,120,121749,6,0,B|228:70|176:48|112:64,1,160,12|2,0:0|0:0,0:0:0
88,216,122317,1,0,0:0:0
88,216,122431,2,0,B|120:264|184:256,1,106.666666666667,12|2,0:0|0:0,0:0:0
256,296,122772,2,0,B|224:344|160:336,1,106.666666666667,8|2,0:0|0:0,0:0:0
181,256,123113,5,10,0:0:0
332,256,123454,1,2,0:0:0
256,144,123795,1,10,0:0:0
181,256,124136,1,2,0:0:0
332,256,124476,6,0,B|364:304|420:320,1,106.666666666667,12|2,0:0|0:0,0:0:0
324,192,124817,2,0,B|355:143|348:85,1,106.666666666667,8|0,0:0|0:0,0:0:0
268,232,125158,2,0,B|211:221|160:250,1,106.666666666667,8|2,0:0|0:0,0:0:0
112,288,125499,1,8,0:0:0
112,168,125726,1,0,0:0:0
160,128,125840,2,0,B|200:104|208:56|200:24|200:24|168:56,1,160,8|2,0:0|0:0,0:0:0
256,136,126408,1,0,0:0:0
256,136,126522,6,0,B|224:152|200:184|192:224,1,106.666666666667,8|2,0:0|0:0,0:0:0
256,248,126863,2,0,B|288:264|312:296|320:336,1,106.666666666667,8|2,0:0|0:0,0:0:0
384,360,127204,5,12,0:0:0
413,347,127317,1,0,0:0:0
434,323,127431,1,2,0:0:0
446,293,127545,1,0,0:0:0
445,261,127658,1,2,0:0:0
437,230,127772,1,0,0:0:0
418,203,127886,6,0,B|384:160|376:104|392:48,2,160,12|2|8,0:0|0:0|0:0,0:0:0
312,184,128795,1,2,0:0:0
328,248,128908,1,8,0:0:0
184,200,129136,1,8,0:0:0
200,136,129249,1,8,0:0:0
200,136,129590,1,0,0:0:0
80,224,129931,6,0,B|88:264|120:296,1,80,4|2,0:0|0:0,0:0:0
192,256,130499,1,0,0:0:0
200,280,130613,2,0,B|227:344|288:344|317:282,1,160,0|2,0:0|0:0,0:0:0
256,192,131636,1,0,0:0:0
320,112,131976,1,2,0:0:0
256,56,132204,1,0,0:0:0
245,74,132317,1,0,0:0:0
230,89,132431,1,0,0:0:0
211,99,132545,1,0,0:0:0
191,106,132658,1,4,0:0:0
256,192,132772,12,0,135556,0:0:0
256,120,137431,6,0,B|224:168|288:224|256:280,1,160,0|2,0:0|0:0,0:0:0
