osu file format v10

[General]
AudioFilename: 14. Indigo Bird.mp3
AudioLeadIn: 3000
PreviewTime: 86224
Countdown: 0
SampleSet: Soft
StackLeniency: 0.2
Mode: 0
LetterboxInBreaks: 0

[Editor]
DistanceSpacing: 1
BeatDivisor: 6
GridSize: 8

[Metadata]
Title:Indigo Bird
TitleUnicode:Indigo Bird
Artist:Nekomata Master feat. Sana
ArtistUnicode:Nekomata Master feat. Sana
Creator:fartownik
Version:Beginner
Source:
Tags:Naoyuki Sato Nakagawa-Kanon nakagawa kanon dksslqj
BeatmapID:178341
BeatmapSetID:40507

[Difficulty]
HPDrainRate:2
CircleSize:3
OverallDifficulty:2
ApproachRate:2
SliderMultiplier:1.2
SliderTickRate:1

[Events]
//Background and Video events
0,0,"IndigoBird.jpg"
//Break Periods
//Storyboard Layer 0 (Background)
//Storyboard Layer 1 (Fail)
//Storyboard Layer 2 (Pass)
//Storyboard Layer 3 (Foreground)
//Storyboard Sound Samples
//Background Colour Transformations
3,100,163,162,255

[TimingPoints]
386,681.818181818182,4,2,2,25,1,0
19363,-100,4,2,1,30,0,0
26550,-100,4,2,1,5,0,0
26721,-100,4,2,1,30,0,0
39590,-50,4,2,0,30,0,0
40528,-100,4,1,0,30,0,0
41209,-100,4,2,2,50,0,0
49988,-100,4,2,2,100,0,0
51351,-100,4,2,2,50,0,0
86295,-100,4,2,2,75,0,1
129761,-100,4,2,2,75,0,1
132658,-100,4,2,2,75,0,0
132743,-100,4,2,2,5,0,0
138028,-100,4,2,1,30,0,0

[Colours]
Combo1 : 168,21,255
Combo2 : 249,199,0
Combo3 : 221,0,176
Combo4 : 97,204,0

[HitObjects]
344,312,386,2,0,B|376:304|376:304|408:312|440:288,1,100,0|2,0:0|0:0,0:0:0
376,168,1749,2,0,B|368:136|368:136|376:104|352:72,1,100,0|2,0:0|0:0,0:0:0
232,152,3113,6,0,B|200:160|200:160|168:152|136:176,1,100,0|2,0:0|0:0,0:0:0
192,248,4136,2,0,B|200:280|200:312,1,60,0|0,0:0|0:0,0:0:0
80,360,5158,6,0,B|72:336|72:336|72:320|72:320|64:304|64:304|64:288|64:288|56:240|56:240,1,120,2|2,0:0|0:0,0:0:0
144,192,6408,2,0,B|152:152|144:112,1,80,2|0,0:0|0:0,0:0:0
120,56,7204,6,0,B|160:80|216:72,1,100,0|2,0:0|0:0,0:0:0
296,56,8226,1,0,0:0:0
272,112,8567,6,0,B|288:152|288:152|280:176|288:208|312:224,2,120
376,168,10499,2,0,B|464:176,1,80,2|0,0:0|0:0,0:0:0
472,264,11295,6,0,B|456:304|456:304|464:328|456:360|432:376,2,120,0|2|0,0:0|0:0|0:0,0:0:0
368,320,13226,2,0,B|280:328,1,80,2|0,0:0|0:0,0:0:0
224,336,14022,1,0,0:0:0
104,304,14704,6,0,B|83:290|75:258|83:234|83:234|67:194,1,120,2|0,0:0|0:0,0:0:0
32,96,15954,2,0,B|72:96|112:64,1,80,2|0,0:0|0:0,0:0:0
144,24,16749,6,0,B|216:32,2,60,0|0|2,0:0|0:0|0:0,0:0:0
256,192,17545,12,2,19476,0:0:0
312,280,20158,5,2,0:0:0
200,240,20840,2,0,B|168:232|112:264|72:256,1,120,2|2,0:0|0:0,0:0:0
96,136,22204,2,0,B|88:112|72:80,2,60,2|0|2,0:0|0:0|0:0,0:0:0
200,72,23567,5,2,0:0:0
320,48,24249,2,0,B|352:40|408:72|448:64,1,120,2|2,0:0|0:0,0:0:0
352,144,25613,6,0,B|368:168|384:208,2,60,2|0|2,0:0|0:0|0:0,0:0:0
344,264,26976,2,0,B|352:328|400:376,1,120,2|2,0:0|0:0,0:0:0
504,320,28340,2,0,B|496:256|448:208,1,120,2|2,0:0|0:0,0:0:0
344,264,29704,2,0,B|312:272|280:272,2,60,2|0|2,0:0|0:0|0:0,0:0:0
256,176,31067,5,2,0:0:0
227,271,31749,2,0,B|184:272|144:240|144:240|136:240|136:232|136:232|120:224,1,120,2|2,0:0|0:0,0:0:0
168,112,33113,2,0,B|144:128|112:128,3,60,2|0|2|0,0:0|0:0|0:0|0:0,0:0:0
56,112,34476,2,0,B|72:176|56:232,1,120,2|2,0:0|0:0,0:0:0
24,344,35840,6,0,B|80:320|160:328,1,120,2|2,0:0|0:0,0:0:0
232,248,37204,2,0,B|208:192|216:112,1,120,2|2,0:0|0:0,0:0:0
304,48,38567,5,4,0:0:0
456,192,39761,6,0,B|488:192,2,30,0|0|0,0:0|0:0|0:0,0:0:0
336,192,40613,2,0,B|320:184|288:200|264:192,2,60,0|0|12,0:0|0:0|0:0,0:0:0
256,280,41976,5,10,0:0:0
168,192,42658,1,8,0:0:0
256,104,43340,6,0,B|264:72|256:40,2,60,8|2|8,0:0|0:0|0:0,0:0:0
136,80,44704,2,0,B|96:72|56:96|16:88,1,120,8|8,0:0|0:0,0:0:0
80,192,46067,6,0,B|88:208|88:208|88:224|88:224|96:232|96:232|88:272|104:312,1,120,10|8,0:0|0:0,0:0:0
216,272,47431,5,10,0:0:0
336,320,48113,1,8,0:0:0
392,208,48795,6,0,B|424:192|464:200,2,60,8|2|8,0:0|0:0|0:0,0:0:0
336,224,49817,2,0,B|288:272|232:264|176:136|120:144|64:184,1,300,2|8,0:0|0:0,0:0:0
112,280,52204,5,12,0:0:0
32,192,52886,1,4,0:0:0
112,104,53567,2,0,B|144:88|176:104|176:104|232:96,1,120,8|10,0:0|0:0,0:0:0
400,104,54931,6,0,B|368:88|336:104|336:104|280:96,2,120,8|10|8,0:0|0:0|0:0,0:0:0
480,192,56976,1,10,0:0:0
400,280,57658,6,0,B|336:272|288:232|256:104|256:104|224:232|184:272|120:280,1,480,8|8,0:0|0:0,0:0:0
256,336,61067,5,10,0:0:0
400,280,61749,2,0,B|408:248|400:216,2,60,8|8|10,0:0|0:0|0:0,0:0:0
400,280,63113,6,0,B|408:320|408:352|408:352|424:336|432:312,1,120,4|8,0:0|0:0,0:0:0
368,80,65158,1,10,0:0:0
256,32,65840,6,0,B|216:32|176:8|176:8|200:40,1,120,4|8,0:0|0:0,0:0:0
160,272,67886,1,10,0:0:0
280,216,68567,6,0,B|296:160|272:96,1,120,0|8,0:0|0:0,0:0:0
168,153,69931,2,0,B|144:214|160:270,1,120,0|10,0:0|0:0,0:0:0
256,344,71295,6,0,B|288:328|288:328|320:344|320:344|352:328|352:328|368:336|384:328|384:328|400:336|416:328|416:328|456:328|480:304,2,240,10|10|12,0:0|0:0|0:0,0:0:0
136,312,74704,6,0,B|120:312|96:296,2,30,8|0|2,0:0|0:0|0:0,0:0:0
256,192,76067,1,8,0:0:0
336,104,76749,5,4,0:0:0
448,56,77431,2,0,B|472:56|496:80,2,40,8|0|0,0:0|0:0|0:0,0:0:0
360,0,78454,5,2,0:0:0
312,40,78795,2,0,B|264:88|192:72,1,120,8|0,0:0|0:0,0:0:0
80,56,80158,5,10,0:0:0
144,160,80840,2,0,B|192:208|176:280,1,120,0|10,0:0|0:0,0:0:0
136,376,82204,6,8,B|256:344,3,120,10|10|10|10,0:0|0:0|0:0|0:0,0:0:0
256,192,84476,12,12,86295,0:0:0
168,48,86976,6,0,B|144:64|144:64|136:88|112:120|72:144,1,120,10|8,0:0|0:0,0:0:0
87,250,88340,2,0,B|112:264|136:296|144:320|144:320|168:336,1,120,10|8,0:0|0:0,0:0:0
256,256,89704,1,10,0:0:0
344,336,90386,6,0,B|376:352|408:352,1,60,8|2,0:0|0:0,0:0:0
400,296,91067,6,0,B|433:284|456:262,1,60,8|2,0:0|0:0,0:0:0
416,224,91749,6,0,B|448:184|432:104,1,120,12|10,0:0|0:0,0:0:0
296,96,93113,2,0,B|264:136|280:216,1,120,8|10,0:0|0:0,0:0:0
320,328,94476,5,8,0:0:0
200,312,95158,1,10,0:0:0
320,288,95840,1,8,0:0:0
200,272,96522,1,10,0:0:0
256,168,97204,5,12,0:0:0
304,56,97886,2,0,B|312:40|320:24|320:24|336:8|328:64|344:104,1,120,10|8,0:0|0:0,0:0:0
368,216,99249,2,0,B|381:248|373:304|389:288|389:288|397:272|405:256,1,120,10|8,0:0|0:0,0:0:0
480,160,100613,1,10,0:0:0
400,72,101295,6,0,B|376:48|344:40,1,60,8|2,0:0|0:0,0:0:0
328,96,101976,6,0,B|294:95|265:112,1,60,8|2,0:0|0:0,0:0:0
296,168,102658,6,0,B|256:208|248:280,1,120,12|10,0:0|0:0,0:0:0
152,344,104022,2,0,B|112:304|40:296,1,120,8|10,0:0|0:0,0:0:0
80,184,105386,5,12,0:0:0
152,88,106067,1,10,0:0:0
256,24,106749,1,14,0:0:0
360,88,107431,1,10,0:0:0
432,184,108113,5,12,0:0:0
320,224,108795,2,0,B|320:272|360:312|384:320,1,120,10|8,0:0|0:0,0:0:0
192,224,110158,2,0,B|192:272|152:312|128:320,1,120,10|8,0:0|0:0,0:0:0
72,216,111522,5,10,0:0:0
144,120,112204,2,0,B|152:88|152:56,1,60,8|2,0:0|0:0,0:0:0
144,0,112886,2,0,B|200:32|272:24,1,120,8|12,0:0|0:0,0:0:0
376,48,114249,6,0,B|400:72|416:104|416:104|384:88|352:88,1,120,8|10,0:0|0:0,0:0:0
344,208,115613,2,0,B|320:232|304:264|304:264|336:248|368:248,1,120,8|10,0:0|0:0,0:0:0
424,344,116976,1,10,0:0:0
304,360,117658,6,0,B|224:288|152:384|80:304,1,240,8|12,0:0|0:0,0:0:0
168,216,119704,5,8,0:0:0
202,101,120386,2,0,B|161:82|120:90|92:122,1,120,10|8,0:0|0:0,0:0:0
310,101,121749,2,0,B|351:82|392:90|420:122,1,120,10|8,0:0|0:0,0:0:0
344,216,123113,6,0,B|336:248|336:280,1,60,8|2,0:0|0:0,0:0:0
392,288,123795,6,0,B|400:320|416:344,1,60,8|2,0:0|0:0,0:0:0
472,352,124476,6,0,B|504:368|520:368|520:368|504:336|496:296,1,120,12|10,0:0|0:0,0:0:0
448,192,125840,2,0,B|432:136|440:72,1,120,8|10,0:0|0:0,0:0:0
328,40,127204,2,0,B|320:72|304:96,2,60,8|2|8,0:0|0:0|0:0,0:0:0
256,160,128567,2,0,B|256:192|256:192|264:232|256:280,2,120,0|10|12,0:0|0:0|0:0,0:0:0
160,88,130613,6,0,B|200:80|256:16|256:16|312:80|352:88,1,240,10|8,0:0|0:0,0:0:0
408,88,132317,1,8,0:0:0
448,48,132658,5,4,0:0:0
256,192,132772,12,0,135556,0:0:0
256,128,137431,6,0,B|232:168|280:208|256:248,1,120,0|2,0:0|0:0,0:0:0
