osu file format v14

[General]
AudioFilename: Sleepless days.mp3
AudioLeadIn: 0
PreviewTime: 59238
Countdown: 0
SampleSet: Soft
StackLeniency: 0.7
Mode: 0
LetterboxInBreaks: 0
WidescreenStoryboard: 0

[Editor]
Bookmarks: 10807,33786,49105,56446,59318,76871
DistanceSpacing: 0.8
BeatDivisor: 4
GridSize: 32
TimelineZoom: 1.8

[Metadata]
Title:Sleepless Days
TitleUnicode:Sleepless Days
Artist:Nekomata Master feat. Mayumi Morinaga
ArtistUnicode:猫叉Master feat. Mayumi Morinaga
Creator:den0saur
Version:HEAVENLY
Source:クイズマジックアカデミー THE WORLD EVOLVE
Tags:LowAccuracySS Uberzolik Beomsan Dailycare Morinaga THE WORLD EVOLVE 鍵龍討滅戦 beatmania IIDX 25 CANNON BALLERS SOUND VOLTEX IV HEAVENLY HAVEN senya quiz magic academy moimoi bemani konami
BeatmapID:1762534
BeatmapSetID:842312

[Difficulty]
HPDrainRate:6.5
CircleSize:4
OverallDifficulty:9
ApproachRate:9.2
SliderMultiplier:2
SliderTickRate:1

[Events]
//Background and Video events
0,0,"SBG.jpg",0,0
//Break Periods
//Storyboard Layer 0 (Background)
//Storyboard Layer 1 (Fail)
//Storyboard Layer 2 (Pass)
//Storyboard Layer 3 (Foreground)
//Storyboard Sound Samples

[TimingPoints]
595,319.148936170213,4,2,1,30,1,0
595,-200,4,2,1,30,0,0
5063,-200,4,2,1,55,0,0
5701,-200,4,2,1,40,0,0
10807,-133.333333333333,4,2,1,60,0,0
19743,-133.333333333333,4,2,1,45,0,0
21020,-133.333333333333,4,2,1,60,0,0
32988,-200,4,2,1,60,0,0
33467,-100,4,2,1,75,0,0
33786,-100,4,2,1,65,0,0
56446,-500,4,2,1,65,0,0
58360,-400,4,2,1,65,0,0
59238,-400,4,2,1,5,0,0
59318,-66.6666666666667,4,2,1,80,0,1
76871,-117.647058823529,4,2,1,80,0,0
76951,-117.647058823529,4,2,1,65,0,0
79105,-333.333333333333,4,2,1,65,0,0
79823,-333.333333333333,4,2,1,40,0,0
82297,361.44578313253,4,2,1,40,1,0
82839,454.545454545455,4,2,1,40,1,0
83066,-100,4,2,1,25,0,0
83491,500,4,2,1,40,1,0
85491,-100,4,2,1,30,0,0
86491,-100,4,2,1,20,0,0
86991,-100,4,2,1,15,0,0
87491,-100,4,2,1,10,0,0

[Colours]
Combo1 : 148,148,148
Combo2 : 255,255,140
Combo3 : 255,151,106
Combo4 : 143,228,243
Combo5 : 147,147,230
Combo6 : 192,192,192

[HitObjects]
418,251,595,6,0,P|344:269|284:332,2,150,4|0|2,0:0|0:0|0:1,0:0:0:0:
103,192,3148,54,0,P|165:231|239:235,2,150,2|0|0,0:1|0:0|0:0,0:0:0:0:
320,173,5063,21,2,0:0:0:0:
178,316,5382,1,2,0:0:0:0:
396,240,5701,54,0,P|463:210|508:151,2,150,4|0|2,0:0|0:0|0:1,0:0:0:0:
131,181,8254,22,0,P|73:133|0:120,2,150,2|0|2,0:1|0:0|0:0,0:0:0:0:
256,192,9291,12,4,10807,1:1:0:0:
329,232,11126,21,0,1:0:0:0:
417,178,11286,1,0,1:0:0:0:
355,224,11446,2,0,P|357:263|392:317,1,75.0000028610231,8|0,0:1|0:0,0:0:0:0:
276,92,11765,2,0,P|278:52|313:-1,1,75.0000028610231,0|0,1:0|0:0,0:0:0:0:
430,151,12084,2,0,P|334:207|223:206,1,225.000008583069,2|0,1:2|0:0,0:0:0:0:
17,259,12722,22,0,P|121:265|186:311,2,150.000005722046,8|0|0,0:1|1:0|1:0,0:0:0:0:
0,357,13520,1,0,1:0:0:0:
0,357,13680,2,0,P|37:358|71:343,1,75.0000028610231,0|0,1:0|0:0,0:0:0:0:
303,290,13999,2,0,P|282:219|297:126,2,150.000005722046,8|0|0,0:1|1:0|1:0,0:0:0:0:
457,191,14797,1,0,1:0:0:0:
457,191,14956,2,0,P|419:189|385:204,1,75.0000028610231,0|0,1:0|0:0,0:0:0:0:
386,384,15275,2,0,P|465:254|459:107,1,300.000011444092,8|0,0:1|1:0,0:0:0:0:
187,115,16233,53,0,1:0:0:0:
101,81,16392,1,2,1:3:0:0:
196,93,16552,2,0,P|233:84|267:44,1,75.0000028610231,8|0,0:1|0:0,0:0:0:0:
70,176,16871,2,0,P|32:175|0:156,1,75.0000028610231,0|0,1:0|0:0,0:0:0:0:
107,5,17190,2,0,P|156:76|156:153,1,150.000005722046,2|0,1:2|1:0,0:0:0:0:
291,206,17669,21,2,1:3:0:0:
375,188,17829,2,0,P|413:124|414:50,2,150.000005722046,8|0|0,0:1|1:0|1:0,0:0:0:0:
420,307,18626,1,0,1:0:0:0:
420,307,18786,2,0,P|426:340|472:397,1,75.0000028610231,0|0,1:0|0:0,0:0:0:0:
229,366,19105,2,0,P|235:332|281:275,1,75.0000028610231,8|0,0:1|0:0,0:0:0:0:
496,266,19424,1,0,1:0:0:0:
322,362,19584,1,0,1:0:0:0:
371,196,19743,54,2,P|401:263|402:339,1,150.000005722046,2|2,1:1|0:1,0:1:0:0:
321,383,20222,1,2,3:2:0:0:
81,249,20382,2,2,P|125:188|189:152,1,150.000005722046,2|2,3:1|0:1,0:1:0:0:
249,275,20860,1,2,3:2:0:0:
249,275,20940,1,2,3:2:0:0:
249,275,21020,1,4,1:1:0:0:
251,295,21339,22,0,P|221:318|175:323,1,75.0000028610231,0|0,1:0|0:0,0:0:0:0:
66,219,21658,2,0,P|29:225|0:248,1,75.0000028610231,8|0,0:1|0:0,0:0:0:0:
52,382,21977,2,0,P|75:353|82:317,1,75.0000028610231,0|0,1:0|0:0,0:0:0:0:
272,126,22297,2,0,P|333:218|346:329,1,225.000008583069,2|0,1:1|0:0,0:0:0:0:
186,384,22935,2,0,P|200:310|242:249,1,150.000005722046,8|0,0:1|1:0,0:0:0:0:
512,174,23573,54,0,P|451:131|378:117,1,150.000005722046,2|0,1:1|1:0,0:0:0:0:
103,128,24052,1,0,1:0:0:0:
103,128,24212,2,0,P|147:141|186:179,1,75.0000028610231,8|0,0:1|0:0,0:0:0:0:
376,22,24531,2,0,P|332:35|293:73,1,75.0000028610231,0|0,1:0|0:0,0:0:0:0:
237,224,24850,2,0,P|201:118|218:8,1,225.000008583069,2|0,1:1|0:0,0:0:0:0:
411,2,25488,2,0,P|369:63|306:103,1,150.000005722046,10|0,0:1|1:0,0:0:0:0:
13,237,26126,22,0,P|124:234|225:283,1,225.000008583069,2|0,1:1|0:0,0:0:0:0:
307,346,26765,2,0,P|340:340|397:294,1,75.0000028610231,8|0,0:1|0:0,0:0:0:0:
476,257,27084,2,0,P|443:251|386:205,1,75.0000028610231,0|0,1:0|0:0,0:0:0:0:
497,83,27403,2,0,P|491:117|445:174,1,75.0000028610231,2|0,1:1|0:0,0:0:0:0:
313,247,27722,1,0,1:0:0:0:
255,172,27882,1,0,1:0:0:0:
335,0,28041,2,0,P|365:68|366:142,1,150.000005722046,10|0,0:1|1:0,0:0:0:0:
358,156,28680,54,0,P|339:113|293:81,1,75.0000028610231,2|0,1:2|0:0,0:0:0:0:
327,4,28999,1,0,1:0:0:0:
176,83,29158,1,0,1:0:0:0:
202,376,29318,2,0,P|260:277|253:164,1,225.000008583069,10|0,0:1|0:0,0:0:0:0:
411,348,29956,2,0,P|368:329|336:283,1,75.0000028610231,2|0,1:1|0:0,0:0:0:0:
456,179,30275,21,2,1:2:0:0:
508,265,30435,1,0,1:0:0:0:
336,198,30595,1,10,0:1:0:0:
459,88,30754,1,0,0:0:0:0:
407,2,30914,1,2,1:2:0:0:
422,253,31073,1,2,1:2:0:0:
305,24,31233,54,0,P|211:64|182:130,1,150.000005722046,4|0,1:1|1:0,0:0:0:0:
108,320,31712,1,2,1:3:0:0:
25,128,31871,2,0,P|119:168|148:234,1,150.000005722046,8|0,0:1|1:0,0:0:0:0:
180,377,32350,1,0,1:0:0:0:
209,149,32509,21,4,1:2:0:0:
209,149,32988,22,0,P|181:164|204:134,1,100,2|0,0:3|1:0,0:0:0:0:
162,366,33467,2,0,P|110:310|96:170,1,200,12|4,0:0|1:1,0:0:0:0:
69,202,34105,37,8,0:1:0:0:
63,99,34265,1,0,3:0:0:0:
140,248,34424,1,0,3:0:0:0:
197,13,34584,1,0,1:0:0:0:
113,14,34743,1,8,0:1:0:0:
148,145,34903,70,0,P|187:169|268:170,1,100,0|0,1:0|1:0,0:0:0:0:
274,99,35222,1,0,3:0:0:0:
492,48,35382,2,0,P|442:53|399:79,1,100,8|0,0:1|0:0,0:0:0:0:
328,176,35701,2,0,P|324:225|336:273,1,100,0|0,1:0|1:0,0:0:0:0:
162,383,36020,2,0,P|221:304|236:206,1,200,8|0,0:1|1:0,0:0:0:0:
482,43,36658,5,8,0:1:0:0:
308,107,36818,1,0,3:0:0:0:
403,89,36977,1,0,3:0:0:0:
217,95,37137,1,0,1:0:0:0:
371,177,37297,1,8,0:1:0:0:
271,179,37456,70,0,P|271:226|305:285,1,100,0|0,1:0|1:0,0:0:0:0:
380,281,37775,1,0,3:0:0:0:
217,116,37935,2,0,P|167:150|146:212,1,100,8|0,0:1|0:0,0:0:0:0:
168,369,38254,1,0,1:0:0:0:
192,260,38414,1,0,1:0:0:0:
447,157,38573,2,0,P|404:182|355:190,1,100,8|0,0:1|0:0,0:0:0:0:
100,16,38892,6,0,P|183:68|282:80,1,200,4|8,1:1|0:1,0:0:0:0:
125,136,39371,1,0,3:0:0:0:
39,164,39531,1,2,3:2:0:0:
177,209,39690,1,0,1:0:0:0:
125,282,39850,1,8,0:1:0:0:
39,254,40009,1,0,3:0:0:0:
289,231,40169,70,0,P|308:281|303:339,1,100,0|0,1:0|0:0,0:0:0:0:
202,384,40488,2,0,P|201:334|219:288,1,100,8|0,0:1|0:0,0:0:0:0:
377,188,40807,1,0,1:0:0:0:
469,241,40967,1,0,1:0:0:0:
119,310,41126,2,0,P|47:269|1:156,1,200,8|0,0:1|1:0,0:0:0:0:
20,150,41765,5,8,0:1:0:0:
145,118,41924,1,0,3:0:0:0:
98,198,42084,1,0,3:0:0:0:
98,38,42243,1,0,1:0:0:0:
237,117,42403,1,8,0:1:0:0:
251,101,42722,70,0,P|305:102|355:76,1,100,2|0,1:1|0:0,0:0:0:0:
479,0,43041,2,0,P|446:37|432:84,1,100,8|0,0:1|0:0,0:0:0:0:
512,248,43360,1,2,3:1:0:0:
460,168,43520,1,0,1:0:0:0:
460,168,43600,1,0,1:0:0:0:
460,168,43680,1,8,0:1:0:0:
342,384,43839,1,0,3:0:0:0:
336,193,43999,6,0,P|400:248|424:375,1,200,6|8,1:1|0:1,0:0:0:0:
233,369,44477,1,0,3:0:0:0:
150,343,44637,1,0,3:0:0:0:
233,230,44797,1,0,1:0:0:0:
284,300,44956,1,8,0:1:0:0:
150,256,45116,1,0,3:0:0:0:
210,103,45275,70,0,P|246:78|318:66,1,100,0|0,1:0|0:0,0:0:0:0:
435,192,45595,2,0,P|386:181|344:154,1,100,8|0,0:1|0:0,0:0:0:0:
89,88,45914,2,0,P|54:115|22:180,1,100,0|0,1:0|1:0,0:0:0:0:
107,329,46233,2,0,P|111:279|97:231,1,100,8|0,0:1|0:0,0:0:0:0:
8,289,46552,1,0,1:0:0:0:
15,305,46871,5,8,0:1:0:0:
191,342,47031,1,0,3:0:0:0:
289,218,47190,1,0,3:0:0:0:
128,179,47350,1,0,1:0:0:0:
197,254,47509,1,8,0:1:0:0:
397,269,47669,70,0,P|449:268|495:247,1,100,0|0,1:0|1:0,0:0:0:0:
319,208,47988,1,0,3:0:0:0:
333,5,48148,2,0,P|397:79|406:178,1,200,8|0,0:1|0:0,0:0:0:0:
496,159,48626,1,0,1:0:0:0:
210,278,48786,2,0,P|218:179|282:105,1,200,8|4,0:1|1:1,0:0:0:0:
302,116,49424,6,0,P|277:165|216:131,1,100,0|0,1:0|0:0,0:0:0:0:
139,7,49743,2,0,P|81:76|65:201,1,200,8|0,0:1|1:0,0:0:0:0:
146,215,50222,1,0,3:0:0:0:
0,347,50382,2,0,P|124:355|203:389,2,200,0|0|8,1:0|1:0|0:1,0:0:0:0:
0,347,51180,1,0,3:0:0:0:
352,186,51339,5,4,1:2:0:0:
368,282,51499,1,0,1:0:0:0:
280,248,51658,2,0,P|288:123|322:45,2,200,4|0|8,1:1|1:0|0:1,0:0:0:0:
280,248,52456,1,0,3:0:0:0:
486,222,52616,2,0,P|485:162|464:109,1,100,0|0,1:0|0:0,0:0:0:0:
402,188,52935,2,0,P|371:282|372:382,2,200,0|0|8,1:0|1:0|0:1,0:0:0:0:
458,301,53733,1,0,3:0:0:0:
183,194,53892,69,4,1:2:0:0:
262,137,54052,1,0,1:0:0:0:
274,229,54212,2,0,P|189:286|91:301,2,200,4|0|8,1:1|1:0|0:1,0:0:0:0:
274,229,55009,1,0,3:0:0:0:
373,31,55169,2,0,P|413:3|463:0,1,100,0|0,1:0|0:0,0:0:0:0:
427,128,55488,2,0,P|329:111|247:55,2,200,0|0|4,1:0|1:0|1:2,0:0:0:0:
427,128,56286,1,0,3:0:0:0:
15,264,56446,22,0,P|84:192|178:164,1,200,4|2,1:1|0:0,0:0:0:0:
180,164,58360,70,0,P|132:171|177:152,1,137.5,0|0,0:3|0:0,1:1:0:0:
180,164,59318,22,0,P|112:194|38:195,1,150.000005722046,4|0,1:1|0:0,0:0:0:0:
106,36,59637,2,0,P|199:25|287:68,1,150.000005722046,8|0,0:1|0:0,0:0:0:0:
246,333,59956,2,0,P|287:268|298:170,1,150.000005722046,0|0,1:0|1:0,0:0:0:0:
326,10,60275,2,0,P|405:144|412:305,1,300.000011444092,10|2,0:1|1:2,0:0:0:0:
346,350,60754,1,0,3:0:0:0:
20,207,60914,5,8,0:1:0:0:
296,192,61073,1,0,3:0:0:0:
151,168,61233,1,8,0:1:0:0:
404,279,61392,1,0,1:0:0:0:
159,357,61552,70,0,P|190:212|291:103,1,300.000011444092,10|2,0:1|1:2,0:0:0:0:
404,127,62031,1,0,3:0:0:0:
64,105,62190,2,0,P|107:162|185:192,1,150.000005722046,8|0,0:1|0:0,0:0:0:0:
374,29,62509,2,0,P|304:4|232:18,1,150.000005722046,0|0,1:0|1:0,0:0:0:0:
3,315,62829,2,0,P|151:323|283:257,1,300.000011444092,10|2,0:1|1:2,0:0:0:0:
352,327,63227,1,2,3:2:0:0:
352,327,63307,1,2,3:2:0:0:
362,225,63467,5,8,0:1:0:0:
434,84,63626,1,8,0:1:0:0:
492,270,63786,1,2,3:1:0:0:
432,183,63946,69,8,0:1:0:0:
493,4,64105,1,8,0:1:0:0:
512,146,64265,1,0,3:0:0:0:
252,86,64424,6,0,P|172:98|98:159,1,150.000005722046,4|0,1:1|0:0,0:0:0:0:
345,256,64743,2,0,P|282:215|209:205,1,150.000005722046,8|2,0:1|0:1,0:0:0:0:
3,239,65063,2,0,P|28:156|-1:56,1,150.000005722046,0|0,1:0|1:0,0:0:0:0:
348,49,65382,2,0,P|280:216|38:330,1,450.000017166138,10|2,0:1|3:2,0:0:0:0:
83,52,66020,70,0,P|149:92|164:161,1,150.000005722046,8|0,0:1|0:0,0:0:0:0:
225,384,66339,2,0,P|297:369|340:305,1,150.000005722046,0|0,1:1|1:0,0:0:0:0:
231,0,66658,2,0,P|205:171|249:299,1,300.000011444092,10|2,0:1|1:2,0:0:0:0:
346,219,67137,1,0,3:0:0:0:
152,331,67297,6,0,P|89:292|55:226,1,150.000005722046,8|0,0:1|0:0,0:0:0:0:
428,141,67616,2,0,P|447:212|427:283,1,150.000005722046,2|0,1:1|1:0,0:0:0:0:
277,384,67935,2,0,P|269:322|308:232,1,150.000005722046,10|2,0:1|0:2,0:0:0:0:
360,340,68254,1,0,1:0:0:0:
226,193,68414,1,0,3:0:0:0:
78,253,68573,69,8,0:1:0:0:
380,319,68733,1,0,0:0:0:0:
512,113,68892,1,2,3:2:0:0:
202,198,69052,5,8,0:1:0:0:
176,305,69212,1,8,0:1:0:0:
236,374,69371,1,0,3:0:0:0:
494,304,69531,70,0,P|416:304|313:364,1,150.000005722046,4|0,1:1|0:0,0:0:0:0:
166,256,69850,2,0,P|86:221|46:143,1,150.000005722046,8|0,0:1|0:0,0:0:0:0:
462,61,70169,2,0,P|457:135|413:195,1,150.000005722046,2|0,1:0|1:0,0:0:0:0:
301,0,70488,2,0,P|292:135|407:325,1,300.000011444092,10|2,0:1|1:2,0:0:0:0:
264,350,70967,1,0,3:0:0:0:
383,380,71126,1,8,0:1:0:0:
476,320,71286,5,8,0:1:0:0:
228,237,71446,1,0,3:0:0:0:
53,380,71605,1,0,1:0:0:0:
44,127,71765,1,8,0:1:0:0:
149,312,71924,1,0,3:0:0:0:
0,269,72084,70,0,P|60:228|136:217,1,150.000005722046,2|0,1:0|0:0,0:0:0:0:
200,102,72403,2,0,P|243:159|321:189,1,150.000005722046,8|0,0:1|0:0,0:0:0:0:
510,26,72722,2,0,P|440:1|368:15,1,150.000005722046,0|0,1:0|1:0,0:0:0:0:
149,312,73041,2,0,P|297:320|429:254,1,300.000011444092,10|2,0:1|1:2,0:0:0:0:
511,306,73440,1,2,3:2:0:0:
511,306,73520,1,2,3:2:0:0:
450,155,73680,1,8,0:1:0:0:
227,76,73839,1,0,3:0:0:0:
315,187,73999,6,0,P|344:119|343:44,1,150.000005722046,2|0,1:0|1:2,0:0:0:0:
4,156,74318,1,8,0:1:0:0:
115,234,74477,1,0,3:1:0:0:
70,0,74637,70,0,P|176:107|175:308,1,300.000011444092,6|8,1:1|0:1,0:0:0:0:
0,321,75116,1,0,3:1:0:0:
39,228,75275,1,2,0:2:0:0:
389,264,75435,1,0,1:0:0:0:
147,384,75595,6,0,P|159:164|320:16,1,450.000017166138,10|2,0:1|3:2,0:0:0:0:
415,93,76233,1,8,0:1:0:0:
227,304,76392,1,8,0:1:0:0:
477,270,76552,1,0,1:0:0:0:
461,296,76871,6,0,B|498:114|375:194|423:-17|423:-17|346:77|422:224|422:224|359:136|286:163|224:251|161:155,1,850.000016212464,4|0,1:1|0:0,0:0:0:0:
297,384,78626,5,2,0:2:0:0:
297,384,78706,1,2,0:2:0:0:
297,384,78786,1,2,0:2:0:0:
297,384,79105,6,0,P|323:339|329:287,1,104.999996795654,0|0,0:0|0:0,1:0:0:0:
181,179,79743,5,4,1:0:0:0:
102,275,80222,1,2,0:0:0:0:
0,235,80541,69,0,0:0:0:0:
0,235,80621,1,0,0:0:0:0:
0,235,80701,1,2,0:1:0:0:
251,111,82297,5,2,0:1:0:0:
353,131,82839,69,2,0:0:0:0:
369,79,83066,1,2,0:3:0:0:
409,105,83293,1,2,0:3:0:0:
428,91,83491,5,4,0:1:0:0:
256,192,83616,12,0,87491,0:0:0:0:
