osu file format v12

[General]
AudioFilename: Rainbow After Snow.mp3
AudioLeadIn: 500
PreviewTime: 69550
Countdown: 0
SampleSet: Soft
StackLeniency: 0.7
Mode: 0
LetterboxInBreaks: 0
WidescreenStoryboard: 0

[Editor]
Bookmarks: 500,11226,24634,35360,46086,57440,70220,80946,91673,102399,113125
DistanceSpacing: 1.3
BeatDivisor: 4
GridSize: 4

[Metadata]
Title:Rainbow after snow
TitleUnicode:Rainbow after snow
Artist:Nekomata Master feat. Hayashi Momoko
ArtistUnicode:猫叉Master feat. 林ももこ
Creator:bmin11
Version:Minimum
Source:jubeat
Tags:Saucer Crevice Beatmania IIDX 20 Tricoro Cafe de Tran
BeatmapID:300046
BeatmapSetID:113251

[Difficulty]
HPDrainRate:2
CircleSize:3
OverallDifficulty:1
ApproachRate:1
SliderMultiplier:0.6
SliderTickRate:1

[Events]
//Background and Video events
0,0,"BG.png",0,0
//Break Periods
//Storyboard Layer 0 (Background)
//Storyboard Layer 1 (Fail)
//Storyboard Layer 2 (Pass)
//Storyboard Layer 3 (Foreground)
//Storyboard Sound Samples
//Background Colour Transformations
3,100,163,162,255

[TimingPoints]
500,335.195530726257,4,2,3,40,1,0
1170,-100,4,2,3,30,0,0
1840,-100,4,2,2,60,0,0
2511,-100,4,2,2,50,0,0
3181,-100,4,2,2,60,0,0
3516,-100,4,2,3,40,0,0
4522,-100,4,2,2,60,0,0
5192,-100,4,2,2,50,0,0
6198,-100,4,2,3,40,0,0
6868,-100,4,2,3,45,0,0
7203,-100,4,2,2,60,0,0
7874,-100,4,2,2,50,0,0
8544,-100,4,2,2,60,0,0
8879,-100,4,2,3,40,0,0
9215,-100,4,2,3,45,0,0
9550,-100,4,2,2,60,0,0
10220,-100,4,2,3,45,0,0
11226,-100,4,2,2,75,0,0
21952,-100,4,2,0,50,0,0
22622,-100,4,2,2,75,0,0
23628,-100,4,2,2,55,0,0
24634,-100,4,2,0,60,0,0
24801,-100,4,2,2,75,0,0
56796,-100,4,2,2,55,0,0
70220,-100,4,2,2,100,0,1
70388,-100,4,2,2,90,0,1
80946,-100,4,2,2,100,0,1
81282,-100,4,2,2,90,0,1
91673,-100,4,2,2,100,0,0
91840,-100,4,2,2,80,0,0
102399,-100,4,2,2,70,0,0

[Colours]
Combo1 : 183,111,255
Combo2 : 255,128,128
Combo3 : 255,184,113
Combo4 : 255,255,128
Combo5 : 128,255,128
Combo6 : 90,185,200
Combo7 : 102,102,255

[HitObjects]
16,296,500,2,0,B|80:260|132:292|132:292|188:324|248:292,1,240,2|0,0:0|0:0,0:0:0:0:
200,148,2511,1,2,0:0:0:0:
312,40,3181,1,0,0:0:0:0:
384,64,3516,6,0,P|440:140|432:228,1,180,2|0,0:0|0:0,0:0:0:0:
284,184,5192,1,2,0:0:0:0:
344,328,5863,5,0,0:0:0:0:
268,328,6198,2,0,B|84:328,1,180,2|0,0:0|0:0,0:0:0:0:
12,192,7874,1,2,0:0:0:0:
80,52,8544,6,0,B|160:52|140:144|224:148,1,180
284,100,9885,2,0,P|300:160|268:212,1,120,0|2,0:0|0:0,0:0:0:0:
136,276,11226,1,4,0:1:0:0:
372,80,12567,5,4,0:0:0:0:
316,28,12902,1,4,0:0:0:0:
140,80,13907,1,4,0:0:0:0:
196,132,14243,1,4,0:0:0:0:
116,292,15248,2,0,L|240:292,1,120,4|0,0:0|0:0,0:0:0:0:
236,216,16254,1,0,0:0:0:0:
156,216,16589,5,4,0:0:0:0:
380,308,17930,1,4,0:0:0:0:
424,244,18265,1,4,0:0:0:0:
380,76,19270,1,4,0:0:0:0:
424,140,19606,1,4,0:0:0:0:
224,136,20611,2,0,P|212:196|224:264,2,120,4|0|4,0:0|0:0|0:0,0:0:0:0:
336,192,22622,5,4,0:0:0:0:
404,156,22958,1,4,0:0:0:0:
472,192,23293,1,4,0:0:0:0:
404,232,23628,1,0,1:0:0:0:
184,156,24634,6,0,P|124:148|68:176,1,120,6|0,0:0|0:0,0:0:0:0:
28,324,25974,2,0,P|88:332|144:304,1,120,6|0,0:0|0:0,0:0:0:0:
268,220,27315,6,0,L|396:220,1,120,6|0,0:0|0:0,0:0:0:0:
460,80,28656,2,0,L|336:80,2,120,6|2|6,0:0|0:0|0:0,0:0:0:0:
488,232,30667,5,0,0:0:0:0:
444,296,31002,1,0,1:0:0:0:
376,332,31337,2,0,P|316:332|272:288,1,120,6|0,0:0|0:0,0:0:0:0:
280,216,32343,1,0,1:0:0:0:
220,168,32678,6,0,P|152:168|116:208,2,120,6|0|6,0:0|0:0|0:0,0:0:0:0:
188,240,34354,1,2,1:2:0:0:
392,356,35360,5,4,0:1:0:0:
456,308,35695,2,0,P|492:244|492:140,1,180,2|4,1:2|0:0,0:0:0:0:
428,92,37036,1,0,1:0:0:0:
272,76,37706,1,0,1:0:0:0:
228,140,38041,5,4,0:0:0:0:
244,216,38377,2,0,P|184:292|104:284,1,180,2|4,1:2|0:0,0:0:0:0:
48,236,39717,1,0,1:0:0:0:
20,84,40388,1,0,1:0:0:0:
92,112,40723,5,4,0:0:0:0:
156,60,41058,2,0,P|240:76|280:160,1,180,2|4,1:2|0:0,0:0:0:0:
280,232,42399,1,0,1:0:0:0:
348,268,42734,1,0,0:0:0:0:
416,228,43069,1,0,1:0:0:0:
256,192,43405,12,4,46086,0:1:0:0:
388,132,47427,5,4,0:0:0:0:
268,32,48097,2,0,P|224:96|224:140,1,120,0|4,1:0|0:0,0:0:0:0:
304,268,49438,1,0,1:0:0:0:
160,332,50108,1,0,0:0:0:0:
60,212,50779,1,0,1:0:0:0:
136,76,51449,5,6,0:0:0:0:
196,124,51784,2,0,L|320:124,1,120,2|0,0:0|0:0,0:0:0:0:
368,184,52790,1,6,0:0:0:0:
316,244,53125,2,0,L|192:244,1,120,6|0,0:0|0:0,0:0:0:0:
148,304,54131,1,6,0:0:0:0:
196,368,54466,2,0,L|328:368,1,120,2|0,0:0|0:0,0:0:0:0:
392,368,55472,2,0,P|412:312|388:252,2,120,2|2|4,0:0|0:0|0:1,0:0:0:0:
112,328,58153,5,4,0:0:0:0:
112,56,59494,1,4,0:0:0:0:
400,56,60835,1,4,0:0:0:0:
316,304,62175,6,4,P|256:312|188:304,3,120
132,204,64857,5,4,0:0:0:0:
192,100,65527,1,4,0:0:0:0:
320,100,66198,1,4,0:0:0:0:
380,204,66868,1,4,0:0:0:0:
256,192,67539,12,0,69215,1:0:0:0:
400,296,70220,5,4,0:1:0:0:
348,352,70555,2,0,L|168:352,1,180,2|6,1:2|0:0,0:0:0:0:
88,352,71896,2,0,P|60:272|100:176,1,180,2|6,1:2|0:0,0:0:0:0:
144,132,73237,2,0,P|168:76|136:16,1,120,2|2,1:2|1:2,0:0:0:0:
88,76,74243,1,4,0:0:0:0:
8,76,74578,1,2,1:2:0:0:
48,148,74913,2,0,L|48:280,1,120,2|4,0:0|0:0,0:0:0:0:
52,344,75918,6,0,P|144:352|208:288,1,180,2|2,1:2|0:0,0:0:0:0:
144,244,77259,2,0,P|200:216|256:236,1,120,2|2,1:2|1:2,0:0:0:0:
308,288,78265,5,6,0:0:0:0:
460,248,78935,1,2,0:0:0:0:
416,100,79606,1,6,0:0:0:0:
264,140,80276,2,0,P|208:136|152:92,1,120,2|4,0:0|0:1,0:0:0:0:
152,24,81282,5,2,1:2:0:0:
28,116,81952,1,2,1:2:0:0:
28,192,82287,1,4,0:0:0:0:
28,268,82622,1,2,1:2:0:0:
184,268,83293,1,2,1:2:0:0:
184,192,83628,1,4,0:0:0:0:
184,116,83963,1,2,1:2:0:0:
340,116,84634,1,2,1:2:0:0:
340,192,84969,2,4,L|340:324,2,120,6|2|4,0:0|0:0|0:0,0:0:0:0:
340,116,86645,5,2,1:2:0:0:
192,164,87315,1,2,1:2:0:0:
144,104,87650,1,4,0:0:0:0:
116,176,87986,1,2,1:2:0:0:
96,332,88656,1,2,1:2:0:0:
172,324,88991,5,6,0:0:0:0:
256,192,89662,1,2,0:0:0:0:
340,324,90332,1,6,0:0:0:0:
416,332,90667,1,6,0:0:0:0:
384,260,91002,2,0,P|380:204|384:136,1,120,6|4,0:0|0:1,0:0:0:0:
400,64,92008,5,0,1:0:0:0:
324,64,92343,2,0,B|212:40|212:140|96:120,1,240,2|2,0:0|0:0,0:0:0:0:
20,108,94019,1,0,1:0:0:0:
24,184,94354,6,0,P|48:248|88:284,1,120,4|2,0:0|0:0,0:0:0:0:
160,304,95360,1,0,1:0:0:0:
236,296,95695,2,0,P|280:272|316:204,1,120,4|2,0:0|0:0,0:0:0:0:
284,140,96701,1,0,1:0:0:0:
336,84,97036,5,6,0:0:0:0:
408,108,97371,1,2,1:2:0:0:
388,264,98041,1,2,1:2:0:0:
312,264,98377,2,0,B|240:264|200:316,1,120,4|2,0:0|0:0,0:0:0:0:
152,364,99382,1,0,1:0:0:0:
92,312,99717,6,0,P|56:248|48:200,2,120,6|2|2,0:0|0:0|0:0,0:0:0:0:
216,220,101729,1,2,0:0:0:0:
256,152,102064,1,0,1:0:0:0:
296,220,102399,1,4,0:1:0:0:
436,316,103069,6,0,B|484:264|444:200|444:200|408:144|440:92,1,240,2|2,1:2|1:2,0:0:0:0:
476,24,104745,2,0,P|376:8|300:40,1,180,0|2,0:0|1:2,0:0:0:0:
256,96,106086,1,0,0:0:0:0:
284,168,106421,1,0,0:0:0:0:
156,256,107092,1,2,1:2:0:0:
128,184,107427,1,0,0:0:0:0:
104,108,107762,1,6,0:0:0:0:
40,248,108432,5,2,1:2:0:0:
8,320,108768,1,0,0:0:0:0:
72,368,109103,2,0,L|196:368,1,120,6|0,0:0|1:2,0:0:0:0:
268,368,110108,2,0,P|360:268|256:164,1,300,2|2,0:0|0:0,0:0:0:0:
116,204,112455,5,2,0:0:0:0:
48,164,112790,1,2,0:0:0:0:
116,124,113125,1,4,0:1:0:0:
