osu file format v12

[General]
AudioFilename: Rainbow After Snow.mp3
AudioLeadIn: 500
PreviewTime: 69550
Countdown: 0
SampleSet: Soft
StackLeniency: 0.7
Mode: 0
LetterboxInBreaks: 0
WidescreenStoryboard: 0

[Editor]
Bookmarks: 500,11226,24634,35360,46086,56812,70220,80946,91673,102399,113125
DistanceSpacing: 0.9
BeatDivisor: 4
GridSize: 4

[Metadata]
Title:Rainbow after snow
TitleUnicode:Rainbow after snow
Artist:Nekomata Master feat. Hayashi Momoko
ArtistUnicode:猫叉Master feat. 林ももこ
Creator:bmin11
Version:Medium
Source:jubeat
Tags:Saucer Crevice Beatmania IIDX 20 Tricoro Cafe de Tran
BeatmapID:354440
BeatmapSetID:113251

[Difficulty]
HPDrainRate:4
CircleSize:4
OverallDifficulty:5
ApproachRate:6
SliderMultiplier:1.1
SliderTickRate:2

[Events]
//Background and Video events
0,0,"BG.png",0,0
//Break Periods
//Storyboard Layer 0 (Background)
//Storyboard Layer 1 (Fail)
//Storyboard Layer 2 (Pass)
//Storyboard Layer 3 (Foreground)
//Storyboard Sound Samples
//Background Colour Transformations
3,100,163,162,255

[TimingPoints]
500,335.195530726257,4,2,2,60,1,0
500,-100,4,2,2,40,0,0
835,-100,4,2,2,50,0,0
1170,-100,4,2,2,40,0,0
1505,-100,4,2,2,35,0,0
1839,-100,4,2,2,40,0,0
2511,-100,4,2,2,50,0,0
3516,-100,4,2,2,40,0,0
4187,-100,4,2,2,50,0,0
4522,-100,4,2,2,60,0,0
4857,-100,4,2,2,50,0,0
5192,-100,4,2,2,60,0,0
5527,-100,4,2,2,40,0,0
5863,-100,4,2,2,60,0,0
6198,-100,4,2,2,40,0,0
6533,-100,4,2,2,50,0,0
7203,-100,4,2,2,40,0,0
7874,-100,4,2,2,50,0,0
8544,-100,4,2,2,40,0,0
9215,-100,4,2,2,45,0,0
9885,-100,4,2,2,50,0,0
10220,-100,4,2,2,60,0,0
10555,-100,4,2,2,55,0,0
11226,-100,4,2,2,75,0,0
19941,-100,4,2,3,75,0,0
20025,-100,4,2,2,75,0,0
21952,-100,4,2,0,60,0,0
22622,-100,4,2,2,75,0,0
23628,-100,4,2,2,55,0,0
24634,-100,4,2,0,60,0,0
24801,-100,4,2,2,75,0,0
56812,-100,4,2,2,55,0,0
70220,-100,4,2,2,100,0,1
70388,-100,4,2,2,90,0,1
80946,-100,4,2,2,100,0,1
81114,-100,4,2,2,90,0,1
91673,-100,4,2,2,100,0,0
91840,-100,4,2,2,80,0,0
102399,-100,4,2,2,70,0,0

[Colours]
Combo1 : 183,111,255
Combo2 : 255,128,128
Combo3 : 255,184,113
Combo4 : 255,255,128
Combo5 : 128,255,128
Combo6 : 90,185,200
Combo7 : 102,102,255

[HitObjects]
72,84,500,2,0,L|200:72,2,110,2|2|2,0:0|0:0|0:0,0:0:0:0:
8,168,1505,1,2,0:0:0:0:
52,256,1840,2,0,P|140:304|264:252,1,220,2|2,0:0|0:0,0:0:0:0:
284,176,2846,1,2,0:0:0:0:
376,140,3181,1,0,0:0:0:0:
468,176,3516,6,0,P|460:260|440:292,2,110,2|2|2,0:0|0:0|0:0,0:0:0:0:
428,84,4522,2,0,P|380:44|324:36,1,110,0|2,0:0|0:0,0:0:0:0:
236,40,5192,2,0,P|180:60|148:116,1,110,0|2,0:0|0:0,0:0:0:0:
172,200,5863,5,0,0:0:0:0:
112,284,6198,2,0,P|36:264|4:232,2,110,2|2|2,0:0|0:0|0:0,0:0:0:0:
208,264,7203,2,0,B|264:232|312:260|364:292|420:256,1,220,2|2,0:0|0:0,0:0:0:0:
488,188,8209,1,2,0:0:0:0:
456,96,8544,6,0,P|384:28|260:28,2,220,2|2|2,0:0|0:0|0:0,0:0:0:0:
488,188,10220,1,0,0:0:0:0:
460,284,10555,2,0,L|332:292,1,110,2|0,0:0|0:0,0:0:0:0:
308,200,11226,5,4,0:1:0:0:
160,276,11896,1,2,0:0:0:0:
352,276,12567,1,6,0:0:0:0:
352,276,12902,1,4,0:0:0:0:
428,204,13237,2,0,P|452:148|448:92,1,110,2|0,0:0|0:0,0:0:0:0:
360,52,13907,5,6,0:0:0:0:
360,52,14243,2,0,L|248:64,2,110,4|2|0,0:0|0:0|0:0,0:0:0:0:
464,44,15248,1,6,0:0:0:0:
464,44,15416,1,4,0:0:0:0:
464,44,15583,1,4,0:0:0:0:
436,144,15918,2,0,L|400:260,1,110,2|0,0:0|0:0,0:0:0:0:
308,288,16589,5,6,0:0:0:0:
208,320,16924,2,0,P|156:320|104:284,2,110,0|2|0,0:0|0:0|0:0,0:0:0:0:
184,220,17930,1,6,0:0:0:0:
184,220,18265,1,4,0:0:0:0:
116,140,18600,2,0,P|48:104|0:104,1,110,2|0,0:0|0:0,0:0:0:0:
36,204,19270,5,6,0:0:0:0:
36,204,19606,2,0,P|76:300|188:332,1,220,4|0,0:0|0:0,0:0:0:0:
268,296,20611,1,6,0:0:0:0:
268,296,20779,1,4,0:0:0:0:
268,296,20946,1,4,0:0:0:0:
344,224,21282,1,2,0:0:0:0:
448,244,21617,1,0,0:0:0:0:
412,144,21952,5,4,0:2:0:0:
256,48,22622,1,4,0:0:0:0:
256,48,22958,1,4,0:0:0:0:
256,152,23293,1,4,0:0:0:0:
256,152,23460,1,4,0:0:0:0:
256,152,23628,1,0,1:0:0:0:
72,312,24634,6,0,P|32:248|24:204,1,110,4|0,0:2|1:0,0:0:0:0:
68,124,25304,1,2,0:0:0:0:
68,124,25639,1,0,1:0:0:0:
168,136,25974,2,0,L|284:152,1,110,6|0,0:0|1:0,0:0:0:0:
372,124,26645,1,2,0:0:0:0:
372,124,26980,1,0,1:0:0:0:
440,196,27315,6,0,P|432:280|412:308,1,110,6|0,0:0|1:0,0:0:0:0:
324,332,27986,1,2,0:0:0:0:
324,332,28321,1,0,1:0:0:0:
240,280,28656,2,0,P|220:212|228:148,1,110,6|0,0:0|1:0,0:0:0:0:
288,100,29326,2,0,L|404:68,1,110,2|0,0:0|1:0,0:0:0:0:
316,8,29997,6,0,L|200:40,1,110,6|0,0:0|1:0,0:0:0:0:
140,108,30667,1,2,0:0:0:0:
140,108,31002,1,0,1:0:0:0:
168,204,31337,1,6,0:0:0:0:
104,280,31673,1,0,1:0:0:0:
4,272,32008,1,2,0:0:0:0:
4,272,32175,1,4,0:0:0:0:
4,272,32343,1,0,1:0:0:0:
48,360,32678,5,6,0:0:0:0:
144,344,33013,1,0,1:0:0:0:
244,344,33349,1,2,0:0:0:0:
340,372,33684,1,0,1:0:0:0:
328,272,34019,2,0,P|312:224|268:180,1,110,4|0,0:0|1:0,0:0:0:0:
40,20,35360,5,4,0:1:0:0:
80,108,35695,2,0,B|120:188|80:284,1,165,2|4,1:2|0:0,0:0:0:0:
60,312,36365,1,0,1:0:0:0:
136,376,36701,2,4,P|192:388|256:364,1,110,6|0,0:0|1:0,0:0:0:0:
292,288,37371,1,2,0:0:0:0:
376,236,37706,1,0,1:0:0:0:
464,284,38041,5,4,0:0:0:0:
484,188,38377,2,0,P|432:124|332:128,1,165,2|4,1:2|0:0,0:0:0:0:
308,136,39047,1,0,1:0:0:0:
228,196,39382,2,0,P|168:152|156:108,1,110,6|0,0:0|1:0,0:0:0:0:
172,24,40053,2,0,L|300:36,1,110,2|0,0:0|1:0,0:0:0:0:
380,48,40723,5,4,0:0:0:0:
452,116,41058,2,0,B|504:188|460:280,1,165,2|4,1:2|0:0,0:0:0:0:
436,312,41729,1,0,1:0:0:0:
340,332,42064,2,0,L|216:352,1,110,6|0,0:0|1:0,0:0:0:0:
132,336,42734,1,2,0:0:0:0:
132,336,42902,1,4,0:0:0:0:
132,336,43069,1,0,1:0:0:0:
48,284,43405,5,6,0:0:0:0:
72,188,43740,1,0,1:0:0:0:
172,184,44075,1,2,0:0:0:0:
196,88,44410,1,0,1:0:0:0:
256,192,44745,12,4,46086,0:1:0:0:
64,48,46756,5,0,1:0:0:0:
236,148,47427,2,4,P|308:148|356:116,1,110
412,64,48097,2,0,P|476:144|440:252,1,220,0|4,1:0|0:0,0:0:0:0:
268,340,49438,5,0,1:0:0:0:
172,312,49773,1,0,0:0:0:0:
80,352,50108,1,0,0:0:0:0:
12,280,50444,1,4,0:0:0:0:
60,192,50779,1,0,1:0:0:0:
156,212,51114,1,0,1:0:0:0:
156,212,51282,1,0,1:0:0:0:
156,212,51449,5,4,0:0:0:0:
236,152,51784,2,0,P|224:88|184:48,1,110,0|0,0:0|1:0,0:0:0:0:
100,28,52455,1,0,0:0:0:0:
100,28,52622,1,0,0:0:0:0:
100,28,52790,1,4,0:0:0:0:
36,104,53125,2,0,P|48:168|88:208,1,110,4|0,0:0|1:0,0:0:0:0:
172,220,53796,1,0,0:0:0:0:
172,220,53963,1,0,1:0:0:0:
172,220,54131,5,4,0:0:0:0:
268,196,54466,2,0,P|328:280|256:360,1,220,0|2,0:0|0:0,0:0:0:0:
208,276,55472,2,0,L|84:276,1,110,2|4,0:0|0:0,0:0:0:0:
32,200,56142,1,2,1:2:0:0:
32,200,56310,1,4,0:0:0:0:
180,200,56812,1,4,0:1:0:0:
256,80,57483,5,0,0:0:0:0:
412,80,58153,1,4,0:0:0:0:
412,232,58824,1,0,0:0:0:0:
256,232,59494,1,4,0:0:0:0:
108,192,60164,5,0,0:0:0:0:
32,192,60500,1,0,0:0:0:0:
32,268,60835,1,4,0:0:0:0:
32,344,61170,1,0,0:0:0:0:
108,344,61505,1,0,0:0:0:0:
184,344,61840,1,0,0:0:0:0:
184,268,62175,1,4,0:0:0:0:
184,112,62846,5,4,0:0:0:0:
316,192,63516,1,4,0:0:0:0:
468,164,64187,1,4,0:0:0:0:
424,312,64857,5,4,0:0:0:0:
368,364,65192,1,4,0:0:0:0:
292,376,65527,1,4,0:0:0:0:
224,340,65863,1,4,0:0:0:0:
184,272,66198,1,4,0:0:0:0:
192,196,66533,1,4,0:0:0:0:
240,136,66868,1,4,0:0:0:0:
316,120,67203,1,4,0:0:0:0:
388,144,67539,5,4,0:0:0:0:
424,212,67874,1,4,0:0:0:0:
424,288,68209,1,4,0:0:0:0:
400,316,68377,1,4,0:0:0:0:
364,324,68544,1,4,0:0:0:0:
328,316,68712,1,4,0:0:0:0:
300,288,68879,1,4,0:0:0:0:
264,276,69047,1,4,0:0:0:0:
228,292,69215,1,0,1:0:0:0:
40,340,70220,5,4,0:1:0:0:
104,264,70555,2,0,P|116:204|100:140,1,110,2|0,1:2|0:0,0:0:0:0:
84,60,71226,1,2,1:2:0:0:
180,88,71561,1,6,0:0:0:0:
280,68,71896,2,0,L|408:64,1,110,2|0,1:2|0:0,0:0:0:0:
488,60,72567,1,2,1:2:0:0:
480,156,72902,6,0,P|492:240|488:284,2,110,6|2|0,0:2|1:2|0:0,0:0:0:0:
380,164,73907,1,2,1:2:0:0:
308,232,74243,1,6,0:0:0:0:
260,236,74410,1,0,0:0:0:0:
212,240,74578,1,2,1:2:0:0:
124,288,74913,2,0,P|76:228|80:180,2,110,2|2|6,0:0|1:2|0:0,0:0:0:0:
208,344,75918,6,0,P|264:336|304:284,1,110,2|0,1:2|0:0,0:0:0:0:
288,200,76589,1,2,1:2:0:0:
324,108,76924,1,6,0:0:0:0:
420,108,77259,2,0,P|468:152|484:208,1,110,2|0,1:2|0:0,0:0:0:0:
480,244,77762,1,4,0:0:0:0:
468,292,77930,1,2,1:2:0:0:
384,344,78265,5,6,0:0:0:0:
288,372,78600,1,2,1:2:0:0:
220,300,78935,1,2,0:0:0:0:
124,332,79270,1,2,1:2:0:0:
64,256,79606,1,6,0:0:0:0:
120,176,79941,1,2,1:2:0:0:
72,92,80276,2,0,P|104:48|160:24,1,110,2|2,0:0|1:2,0:0:0:0:
204,32,80779,1,0,1:0:0:0:
252,40,80946,5,4,0:1:0:0:
348,64,81282,2,0,P|400:104|412:168,1,110,2|0,1:2|0:0,0:0:0:0:
348,220,81952,1,2,1:2:0:0:
260,172,82287,1,6,0:0:0:0:
164,144,82622,2,0,P|113:133|36:144,1,110,2|0,1:2|0:0,0:0:0:0:
0,220,83293,1,2,1:2:0:0:
28,316,83628,5,6,0:0:0:0:
120,276,83963,2,0,L|240:284,1,110,2|0,1:2|0:0,0:0:0:0:
328,288,84634,1,2,1:2:0:0:
400,220,84969,1,6,0:0:0:0:
448,224,85136,1,0,0:0:0:0:
496,228,85304,1,2,1:2:0:0:
452,316,85639,6,0,P|392:360|344:368,2,110,2|2|6,0:0|1:2|0:0,0:0:0:0:
496,228,86645,2,0,L|400:148,1,110,2|0,1:2|0:0,0:0:0:0:
332,96,87315,1,2,1:2:0:0:
236,124,87650,1,6,0:0:0:0:
140,152,87986,2,0,P|120:100|128:44,1,110,2|0,1:2|0:0,0:0:0:0:
172,28,88488,1,4,0:0:0:0:
220,12,88656,1,2,1:2:0:0:
316,40,88991,5,6,0:0:0:0:
388,108,89326,2,0,P|408:180|408:236,2,110,2|2|2,1:2|0:0|1:2,0:0:0:0:
300,152,90332,1,6,0:0:0:0:
276,248,90667,1,2,1:2:0:0:
192,300,91002,1,2,0:0:0:0:
144,296,91170,1,4,0:0:0:0:
96,292,91337,2,0,P|56:248|48:192,1,110,2|4,1:2|0:1,0:0:0:0:
72,104,92008,5,0,1:2:0:0:
152,44,92343,2,0,B|224:24|260:64|296:104|376:84,1,220,2|6,0:0|0:0,0:0:0:0:
456,60,93349,1,0,1:0:0:0:
488,152,93684,6,0,P|492:216|480:280,1,110,2|0,0:0|1:0,0:0:0:0:
412,328,94354,1,6,0:0:0:0:
324,280,94689,1,0,1:0:0:0:
304,184,95025,2,0,P|248:208|228:256,1,110,2|0,0:0|1:0,0:0:0:0:
228,348,95695,6,0,P|116:336|40:240,1,220,6|2,0:0|0:0,0:0:0:0:
44,160,96701,1,0,1:0:0:0:
140,176,97036,2,0,P|188:136|204:88,1,110,6|0,0:0|1:0,0:0:0:0:
132,24,97706,5,2,0:0:0:0:
40,64,98041,1,0,1:0:0:0:
48,164,98377,2,0,P|80:244|212:284,1,220,6|2,0:0|0:0,0:0:0:0:
292,256,99382,1,0,1:0:0:0:
340,172,99717,5,6,0:0:0:0:
408,100,100053,1,0,1:0:0:0:
500,140,100388,1,2,0:0:0:0:
492,240,100723,1,0,1:0:0:0:
396,260,101058,2,0,P|364:320|360:360,1,110,2|0,0:0|1:0,0:0:0:0:
456,340,101729,2,0,P|488:280|492:240,1,110,2|0,0:0|1:0,0:0:0:0:
424,168,102399,1,4,0:1:0:0:
300,12,103069,6,0,B|212:16|216:68|220:124|120:120,1,220,0|4,1:0|0:0,0:0:0:0:
32,92,104075,1,4,0:0:0:0:
20,192,104410,2,0,P|48:252|104:284,1,110,0|0,1:0|0:0,0:0:0:0:
156,344,105081,2,0,P|264:304|280:192,1,220,4|0,0:0|1:0,0:0:0:0:
252,116,106086,1,0,0:0:0:0:
312,36,106421,5,0,0:0:0:0:
404,72,106756,1,4,0:0:0:0:
400,172,107092,1,0,1:0:0:0:
400,172,107259,2,0,L|388:344,1,165,4|6,0:0|0:0,0:0:0:0:
292,360,108097,1,2,0:0:0:0:
220,292,108432,5,0,1:0:0:0:
120,288,108768,2,0,P|60:308|32:360,1,110,0|4,0:0|0:0,0:0:0:0:
128,384,109438,1,4,0:0:0:0:
220,344,109773,2,0,L|248:224,1,110,0|0,1:0|0:0,0:0:0:0:
212,144,110444,5,4,0:0:0:0:
260,56,110779,1,0,0:0:0:0:
356,76,111114,2,0,P|404:100|440:160,1,110,0|0,1:2|0:0,0:0:0:0:
416,244,111784,1,2,0:0:0:0:
416,244,111952,1,2,0:0:0:0:
416,244,112120,1,4,0:0:0:0:
324,204,112455,1,2,1:2:0:0:
240,256,112790,1,2,0:0:0:0:
240,256,112958,1,0,0:0:0:0:
240,256,113125,1,4,0:1:0:0:
