osu file format v14

[General]
AudioFilename: Rainbow after snow.mp3
AudioLeadIn: 0
PreviewTime: 70132
Countdown: 1
SampleSet: Soft
StackLeniency: 0.7
Mode: 0
LetterboxInBreaks: 1
WidescreenStoryboard: 0

[Editor]
Bookmarks: 60244,86389
DistanceSpacing: 0.9
BeatDivisor: 4
GridSize: 8
TimelineZoom: 2.5

[Metadata]
Title:Rainbow After Snow
TitleUnicode:Rainbow After Snow
Artist:Nekomata Master feat. Hayashi Momoko
ArtistUnicode:猫叉Master feat. 林ももこ
Creator:chucentry
Version:Insane
Source:beatmania IIDX 20 tricoro
Tags:beatmania IIDX Rainbow After Snow 猫叉Master feat. 林ももこ Chucentry
BeatmapID:506453
BeatmapSetID:215710

[Difficulty]
HPDrainRate:7
CircleSize:4
OverallDifficulty:7.5
ApproachRate:9
SliderMultiplier:1.6
SliderTickRate:2

[Events]
//Background and Video events
0,0,"bg- kawaii.png",0,0
//Break Periods
//Storyboard Layer 0 (Background)
//Storyboard Layer 1 (Fail)
//Storyboard Layer 2 (Pass)
//Storyboard Layer 3 (Foreground)
//Storyboard Sound Samples

[TimingPoints]
412,335.195530726257,4,2,1,100,1,0
1082,-125,4,2,1,40,0,0
11305,-100,4,2,1,50,0,0
13819,-100,4,2,1,60,0,0
14155,-100,4,2,1,70,0,0
14490,-100,4,2,1,50,0,0
15160,-100,4,2,1,60,0,0
15495,-100,4,2,1,70,0,0
15830,-100,4,2,1,50,0,0
16166,-100,4,2,1,60,0,0
16501,-100,4,2,1,70,0,0
16836,-100,4,2,1,80,0,0
17506,-125,4,2,1,50,0,0
17842,-100,4,2,1,50,0,0
22534,-100,4,2,1,60,0,0
23205,-100,4,2,1,70,0,0
24043,-100,4,2,1,75,0,0
24210,-100,4,2,1,80,0,0
25216,-100,4,2,1,50,0,0
27562,-125,4,2,1,50,0,0
27898,-100,4,2,1,50,0,0
33261,-100,4,2,1,70,0,0
34769,-100,4,2,1,90,0,0
36613,-100,4,2,1,60,0,0
37283,-100,4,2,1,75,0,0
40300,-100,4,2,1,60,0,0
44322,-100,4,2,1,70,0,0
44993,-100,4,2,1,80,0,0
47339,-100,4,2,1,40,0,0
48344,-125,4,2,1,40,0,0
55384,-100,4,2,1,45,0,0
56389,-100,4,2,1,70,0,0
57395,-100,4,2,1,100,0,0
57730,-100,4,2,1,50,0,0
59238,-125,4,2,1,40,0,0
62423,-100,4,2,1,50,0,0
65439,-100,4,2,1,60,0,0
66110,-100,4,2,1,70,0,0
66780,-100,4,2,1,75,0,0
67454,-100,4,2,1,80,0,0
70132,-100,4,2,1,70,0,1
79518,-100,4,2,1,60,0,1
81529,-100,4,2,1,70,0,1
90244,-100,4,2,1,75,0,1
91417,-100,4,2,1,60,0,1
91920,-100,4,2,1,60,0,1
92004,-100,4,2,1,75,0,0
92590,-100,4,2,1,50,0,0
93261,-100,4,2,1,25,0,0
93596,-100,4,2,1,60,0,0
101641,-100,4,2,1,70,0,0
102311,-100,4,2,1,80,0,0
102981,-100,4,2,1,100,0,0
103317,-100,4,2,1,60,0,0
105328,-100,4,2,1,50,0,0
111026,-100,4,2,1,40,0,0
113708,-100,4,2,1,50,0,0

[Colours]
Combo1 : 255,164,209
Combo2 : 202,202,255
Combo3 : 255,157,157
Combo4 : 255,255,174
Combo5 : 149,255,149
Combo6 : 168,255,255

[HitObjects]
448,168,1082,6,0,B|448:216|432:256,1,64
336,152,1417,2,0,B|336:88|352:64,1,64
288,296,1752,1,0,0:0:0:0:
194,240,2087,1,0,0:0:0:0:
274,161,2423,2,0,P|319:160|354:137,2,64
179,83,2925,1,0,0:0:0:0:
88,176,3093,2,0,P|72:240|96:304,1,128,2|0,0:0|0:0,0:0:0:0:
424,176,3763,5,0,0:0:0:0:
296,48,4099,1,0,0:0:0:0:
209,203,4434,2,0,B|146:227|70:159,1,128,2|0,0:0|0:0,0:0:0:0:
388,80,5104,6,0,P|392:184|408:216,1,128,2|0,0:0|0:0,0:0:0:0:
296,264,5607,1,0,0:0:0:0:
160,296,5775,2,0,L|160:224,1,64
76,132,6110,2,0,L|76:213,1,64
220,132,6445,6,0,P|336:136|352:120,2,128,2|0|0,0:0|0:0|0:0,0:0:0:0:
220,132,7451,1,0,0:0:0:0:
346,282,7786,2,0,P|234:258|218:242,1,128,2|0,0:0|0:0,0:0:0:0:
220,133,8289,1,0,0:0:0:0:
344,112,8456,2,0,P|392:120|424:144,1,64
403,307,8791,2,0,P|363:299|335:267,1,64
220,134,9127,6,0,P|207:179|216:224,1,64
346,284,9462,2,0,P|358:239|346:196,1,64
392,88,9797,2,0,P|336:104|266:75,1,128,2|0,0:0|0:0,0:0:0:0:
80,96,10300,1,0,0:0:0:0:
81,111,10384,1,0,0:0:0:0:
82,131,10467,2,0,L|81:175,3,32
172,136,10803,2,0,L|168:184,4,32
184,120,11305,5,0,0:0:0:0:
200,104,11473,1,0,0:0:0:0:
216,88,11641,1,0,0:0:0:0:
264,240,11808,2,0,P|148:284|116:264,1,160,4|8,0:0|0:0,0:0:0:0:
126,272,12311,1,0,0:0:0:0:
72,88,12479,2,0,P|104:112|162:124,1,80
280,120,12814,2,0,P|279:159|264:196,1,80,8|0,0:0|0:0,0:0:0:0:
124,232,13149,5,0,0:0:0:0:
280,120,13317,1,0,0:0:0:0:
296,296,13484,1,8,0:0:0:0:
144,104,13819,1,0,0:0:0:0:
144,104,14155,1,8,0:0:0:0:
396,100,14490,6,0,P|352:156|344:172,1,80
224,232,14825,1,8,0:0:0:0:
272,80,14993,1,0,0:0:0:0:
376,264,15160,1,0,0:0:0:0:
376,264,15495,1,8,0:0:0:0:
272,80,15830,5,0,0:0:0:0:
152,184,15998,1,0,0:0:0:0:
368,208,16166,1,8,0:0:0:0:
336,232,16501,1,0,0:0:0:0:
304,256,16836,1,8,0:0:0:0:
152,296,17171,6,0,L|67:296,1,80
72,151,17506,2,0,B|152:143|120:87|200:87,1,128,8|0,0:0|0:0,0:0:0:0:
344,92,18009,1,0,0:0:0:0:
264,224,18177,2,0,P|225:232|187:221,1,80,8|0,0:0|0:0,0:0:0:0:
72,296,18512,6,0,P|64:160|80:140,1,160,0|8,0:0|0:0,0:0:0:0:
211,76,19015,1,0,0:0:0:0:
264,224,19182,1,0,0:0:0:0:
120,224,19350,1,0,0:0:0:0:
284,96,19518,1,8,0:0:0:0:
368,232,19685,1,0,0:0:0:0:
420,103,19853,2,0,P|352:64|272:120,2,160,0|8|0,0:0|0:0|0:0,0:0:0:0:
296,272,20691,5,0,0:0:0:0:
351,138,20858,1,8,0:0:0:0:
216,184,21026,1,0,0:0:0:0:
368,232,21194,2,0,L|368:336,1,80
256,360,21529,1,8,0:0:0:0:
160,288,21696,1,0,0:0:0:0:
216,184,21864,2,0,L|296:104,1,80
357,42,22199,1,8,0:0:0:0:
216,184,22534,5,8,0:0:0:0:
256,88,22702,1,2,0:0:0:0:
344,224,22870,1,8,0:0:0:0:
144,208,23037,1,2,0:0:0:0:
312,128,23205,1,8,0:0:0:0:
248,272,23372,1,2,0:0:0:0:
256,88,23540,5,8,0:0:0:0:
104,128,23708,1,2,0:0:0:0:
208,248,23875,1,8,0:0:0:0:
312,128,24043,1,2,0:0:0:0:
176,248,24210,1,8,0:0:0:0:
208,248,24546,6,0,P|272:248|296:252,2,80,2|0|0,0:0|0:0|0:0,0:0:0:0:
288,252,25216,2,0,P|420:251|424:257,1,160,4|8,0:0|0:0,0:0:0:0:
480,160,25719,1,0,0:0:0:0:
355,288,25886,2,0,P|360:334|352:369,1,80
198,301,26222,2,0,P|192:254|200:219,1,80,8|0,0:0|0:0,0:0:0:0:
272,96,26557,5,0,0:0:0:0:
120,224,26724,2,0,P|159:231|198:225,1,80,0|8,0:0|0:0,0:0:0:0:
392,188,27060,1,0,0:0:0:0:
272,96,27227,1,0,0:0:0:0:
236,288,27395,1,0,0:0:0:0:
236,288,27562,2,0,P|248:176|235:138,1,128,8|0,0:0|0:0,0:0:0:0:
152,64,28065,5,0,0:0:0:0:
235,289,28233,1,8,0:0:0:0:
168,144,28400,1,0,0:0:0:0:
272,216,28568,1,0,0:0:0:0:
319,63,28735,1,0,0:0:0:0:
168,144,28903,5,8,0:0:0:0:
360,144,29071,1,0,0:0:0:0:
235,288,29238,1,0,0:0:0:0:
235,288,29574,1,8,0:0:0:0:
235,288,29909,6,0,L|235:195,1,80
304,88,30244,1,8,0:0:0:0:
400,184,30412,2,0,P|440:264|400:336,1,160,2|0,0:0|0:0,0:0:0:0:
304,360,30914,1,8,0:0:0:0:
360,264,31082,6,0,L|272:264,1,80,2|0,0:0|0:0,0:0:0:0:
194,178,31417,1,2,0:0:0:0:
280,264,31585,1,8,0:0:0:0:
208,86,31752,1,2,0:0:0:0:
208,86,31920,2,0,P|280:78|384:95,1,160,0|8,0:0|0:0,0:0:0:0:
366,89,32423,1,2,0:0:0:0:
272,184,32590,5,2,0:0:0:0:
368,216,32758,1,2,0:0:0:0:
184,216,32925,1,8,0:0:0:0:
269,344,33093,1,2,0:0:0:0:
272,184,33261,1,8,0:0:0:0:
408,280,33428,5,2,0:0:0:0:
360,128,33596,1,8,0:0:0:0:
248,248,33763,1,2,0:0:0:0:
224,88,33931,1,8,0:0:0:0:
384,264,34099,5,2,0:0:0:0:
336,112,34266,5,8,0:0:0:0:
232,240,34434,5,2,0:0:0:0:
168,96,34601,5,8,0:0:0:0:
168,96,34769,6,0,P|104:92|83:107,1,80,2|8,0:0|0:0,0:0:0:0:
124,272,35272,6,0,P|188:276|216:256,1,80,2|0,0:0|0:0,0:0:0:0:
232,240,35607,1,8,0:0:0:0:
236,124,35942,1,2,0:0:0:0:
392,96,36110,1,2,0:0:0:0:
360,264,36277,1,8,0:0:0:0:
360,264,36613,2,0,P|352:216|360:159,1,80,2|0,0:0|0:0,2:0:0:0:
240,40,36948,6,0,B|264:128|192:184,1,160,8|0,0:0|0:0,0:0:0:0:
102,91,37451,1,2,0:0:0:0:
345,181,37618,1,8,0:0:0:0:
345,181,37953,1,2,0:0:0:0:
345,181,38289,2,0,P|250:161|184:191,1,160,8|0,0:0|0:0,3:0:0:0:
160,72,38791,5,2,0:0:0:0:
267,239,38959,1,8,0:0:0:0:
32,184,39294,2,0,L|210:183,1,160,0|8,0:0|0:0,0:0:0:0:
191,183,39965,1,2,0:0:0:0:
352,280,40300,1,8,0:0:0:0:
272,96,40467,6,0,L|272:200,1,80,2|0,0:0|0:0,0:0:0:0:
352,280,40803,1,2,0:0:0:0:
384,168,40970,1,8,0:0:0:0:
240,248,41138,1,2,0:0:0:0:
272,96,41305,1,2,0:0:0:0:
149,157,41473,1,2,0:0:0:0:
312,208,41640,1,8,0:0:0:0:
111,90,41808,6,0,P|167:82|211:110,1,80,2|0,0:0|0:0,0:0:0:0:
352,273,42143,2,0,P|296:281|252:253,1,80,0|8,0:0|0:0,0:0:0:0:
114,272,42479,1,2,0:0:0:0:
192,136,42646,1,2,0:0:0:0:
276,271,42814,5,2,0:0:0:0:
360,352,42981,1,8,0:0:0:0:
456,312,43149,2,0,P|472:256|464:208,1,80,2|0,0:0|0:0,0:0:0:0:
424,88,43484,2,0,P|392:152|404:188,1,80,0|8,0:0|0:0,0:0:0:0:
291,20,43819,5,2,0:0:0:0:
167,126,43987,1,2,0:0:0:0:
265,254,44155,1,2,0:0:0:0:
394,156,44322,1,8,0:0:0:0:
192,208,44490,5,2,0:0:0:0:
304,96,44657,1,2,0:0:0:0:
266,255,44825,1,2,0:0:0:0:
407,228,44993,1,8,0:0:0:0:
264,328,45160,5,2,0:0:0:0:
192,120,45328,1,2,0:0:0:0:
405,229,45495,1,2,0:0:0:0:
256,168,45663,1,8,0:0:0:0:
104,208,45830,2,0,P|96:256|112:312,1,80,2|0,0:0|0:0,0:0:0:0:
257,168,46166,5,2,0:0:0:0:
104,208,46333,1,8,0:0:0:0:
104,208,46668,2,0,P|227:195|241:213,1,160,4|0,0:0|0:0,0:0:0:0:
304,248,47339,2,0,P|180:260|166:242,1,160
238,210,48009,1,0,0:0:0:0:
234,41,48344,2,0,L|104:29,1,128
106,29,49015,5,0,0:0:0:0:
128,168,49350,2,0,P|208:216|256:200,1,128
376,279,50020,2,0,P|384:255|392:191,1,64
344,120,50356,1,0,0:0:0:0:
256,64,50523,1,0,0:0:0:0:
152,72,50691,1,0,0:0:0:0:
152,72,51026,6,0,P|128:144|152:208,1,128
309,181,51529,1,0,0:0:0:0:
221,145,51696,1,0,0:0:0:0:
141,193,51864,1,0,0:0:0:0:
117,289,52032,1,0,0:0:0:0:
117,289,52367,1,0,0:0:0:0:
117,289,52702,6,0,P|184:272|256:304,2,128
180,348,53708,1,0,0:0:0:0:
240,200,54043,1,0,0:0:0:0:
168,56,54378,2,0,L|96:112,1,64
23,181,54713,1,0,0:0:0:0:
109,276,54881,6,0,L|173:332,1,64
157,185,55216,1,0,0:0:0:0:
158,317,55384,2,0,B|232:392|304:312,1,160,8|2,0:0|0:0,0:0:0:0:
360,176,55886,1,2,0:0:0:0:
229,282,56054,5,8,0:0:0:0:
272,144,56222,1,2,0:0:0:0:
376,256,56389,1,2,0:0:0:0:
230,282,56557,1,2,0:0:0:0:
360,176,56724,5,8,0:0:0:0:
167,97,56892,1,2,0:0:0:0:
232,201,57060,1,2,0:0:0:0:
360,128,57227,1,0,0:0:0:0:
240,40,57395,1,4,0:0:0:0:
240,40,57730,6,0,L|232:216|232:216,2,160,0|8|0,0:0|0:0|0:0,0:0:0:0:
360,128,58568,1,2,0:0:0:0:
300,241,58736,2,0,P|228:274|163:235,1,160,8|0,0:0|0:0,0:0:0:0:
120,96,59238,2,0,L|179:58,1,64,0|8,0:0|0:0,0:0:0:0:
212,194,59574,2,0,L|155:243,1,64,2|0,0:0|0:0,0:0:0:0:
208,352,59909,6,0,P|232:312|232:272,1,64,0|8,0:0|0:0,0:0:0:0:
120,184,60244,2,0,P|96:216|96:256,1,64,2|0,0:0|0:0,0:0:0:0:
208,224,60579,1,2,0:0:0:0:
241,125,60747,1,8,0:0:0:0:
352,232,60914,1,2,0:0:0:0:
319,331,61082,1,2,0:0:0:0:
184,296,61249,6,0,P|152:272|144:232,1,64,0|8,0:0|0:0,0:0:0:0:
312,184,61585,2,0,P|344:208|352:248,1,64,0|8,0:0|0:0,0:0:0:0:
319,331,61920,1,2,0:0:0:0:
232,216,62087,1,2,0:0:0:0:
352,120,62255,1,0,0:0:0:0:
384,264,62423,2,0,P|352:264|288:240,1,80,8|0,0:0|0:0,0:0:0:0:
232,216,62758,1,2,0:0:0:0:
256,192,63093,5,8,0:0:0:0:
368,152,63428,2,0,P|376:224|360:256,1,80,2|0,0:0|0:0,0:0:0:0:
144,232,63763,2,0,P|136:160|152:128,1,80,8|0,0:0|0:0,0:0:0:0:
216,96,64099,1,2,0:0:0:0:
272,264,64266,5,2,0:0:0:0:
216,96,64434,1,8,0:0:0:0:
368,152,64601,1,2,0:0:0:0:
208,184,64769,2,0,P|168:184|112:208,1,80,2|0,0:0|0:0,0:0:0:0:
152,320,65104,2,0,P|192:320|248:296,1,80,8|0,0:0|0:0,0:0:0:0:
336,216,65439,6,0,P|340:283|364:316,1,80,2|0,0:0|0:0,0:0:0:0:
472,248,65775,2,0,P|480:179|462:143,1,80,8|0,0:0|0:0,0:0:0:0:
384,80,66110,1,2,0:0:0:0:
232,120,66277,1,2,0:0:0:0:
336,216,66445,5,8,0:0:0:0:
184,240,66613,1,2,0:0:0:0:
304,64,66780,1,2,0:0:0:0:
400,176,66948,1,2,0:0:0:0:
232,120,67115,1,8,0:0:0:0:
384,80,67283,1,2,0:0:0:0:
336,216,67451,6,0,L|336:296,1,80,2|0,0:0|0:0,0:0:0:0:
176,256,67786,2,0,L|176:160,1,80,8|0,0:0|0:0,0:0:0:0:
304,64,68121,1,2,0:0:0:0:
224,224,68289,1,2,0:0:0:0:
336,136,68456,1,8,0:0:0:0:
199,68,68624,1,2,0:0:0:0:
256,184,68791,5,0,0:0:0:0:
256,184,68875,1,0,0:0:0:0:
256,184,68959,1,0,0:0:0:0:
256,184,69043,1,0,0:0:0:0:
257,183,69127,2,0,P|385:187|409:172,2,160,8|0|8,0:0|0:0|0:0,0:0:0:0:
257,183,70132,6,0,L|257:135,1,40,2|0,0:0|0:0,0:0:0:0:
169,159,70300,2,0,P|129:207|105:223,1,80,0|8,0:0|0:0,0:0:0:0:
24,104,70635,2,0,P|29:41|39:14,1,80,2|0,0:0|0:0,0:0:0:0:
160,24,70970,1,2,0:0:0:0:
168,160,71138,5,8,0:0:0:0:
168,160,71222,1,0,0:0:0:0:
168,160,71305,1,0,0:0:0:0:
272,80,71473,1,2,0:0:0:0:
304,216,71641,2,0,B|272:312,1,80,0|8,0:0|0:0,0:0:0:0:
160,344,71976,1,2,0:0:0:0:
168,160,72143,5,2,0:0:0:0:
296,144,72311,1,2,0:0:0:0:
229,291,72479,2,0,P|230:248|216:184,1,80,8|0,0:0|0:0,0:0:0:0:
160,64,72814,1,0,0:0:0:0:
160,64,72898,1,0,0:0:0:0:
160,64,72981,1,0,0:0:0:0:
344,80,73149,5,8,0:0:0:0:
184,192,73317,1,2,0:0:0:0:
240,72,73484,1,2,0:0:0:0:
256,208,73652,1,2,0:0:0:0:
128,176,73819,2,0,P|128:120|144:96,1,80,8|0,0:0|0:0,0:0:0:0:
344,80,74155,2,0,P|344:136|328:160,1,80,2|0,0:0|0:0,0:0:0:0:
240,288,74490,5,8,0:0:0:0:
192,144,74657,1,2,0:0:0:0:
336,240,74825,1,2,0:0:0:0:
192,144,74993,1,2,0:0:0:0:
344,80,75160,6,0,P|353:127|345:169,1,80,8|0,0:0|0:0,0:0:0:0:
240,336,75495,2,0,P|237:296|243:256,1,80,2|0,0:0|0:0,0:0:0:0:
280,128,75830,1,8,0:0:0:0:
368,208,75998,1,2,0:0:0:0:
168,208,76166,2,0,P|126:272|165:338,2,160,0|8|0,0:0|0:0|0:0,0:0:0:0:
168,208,77004,5,2,0:0:0:0:
280,176,77171,1,8,0:0:0:0:
168,208,77339,2,0,P|176:248|200:280,1,80,2|0,0:0|0:0,0:0:0:0:
400,176,77674,2,0,P|392:136|368:104,1,80,0|8,0:0|0:0,0:0:0:0:
273,294,78009,2,0,P|217:294|185:262,1,80,2|0,0:0|0:0,0:0:0:0:
296,93,78344,2,0,P|352:93|384:125,1,80,0|8,0:0|0:0,0:0:0:0:
341,250,78680,5,2,0:0:0:0:
216,136,78847,1,2,0:0:0:0:
400,176,79015,1,2,0:0:0:0:
232,216,79182,1,8,0:0:0:0:
184,40,79350,1,2,0:0:0:0:
96,72,79518,5,0,0:0:0:0:
111,105,79601,1,0,0:0:0:0:
142,125,79685,1,0,0:0:0:0:
178,132,79769,1,0,0:0:0:0:
215,131,79853,1,8,0:0:0:0:
252,130,79936,1,0,0:0:0:0:
285,147,80020,1,0,0:0:0:0:
311,174,80104,1,0,0:0:0:0:
329,206,80188,1,0,0:0:0:0:
232,216,80523,5,8,0:0:0:0:
232,216,80691,1,0,0:0:0:0:
352,328,80858,2,0,P|398:337|444:319,1,80,2|0,0:0|0:0,0:0:0:0:
390,175,81194,2,0,P|343:165|297:183,1,80,8|0,0:0|0:0,0:0:0:0:
232,72,81529,1,6,0:0:0:0:
136,240,81696,1,2,0:0:0:0:
392,176,81864,1,8,0:0:0:0:
136,240,82032,6,0,P|136:176|144:160,1,80,2|0,0:0|0:0,0:0:0:0:
392,176,82367,2,0,P|392:240|384:256,1,80,0|8,0:0|0:0,0:0:0:0:
280,344,82702,1,2,0:0:0:0:
325,208,82870,1,2,0:0:0:0:
202,203,83037,1,2,0:0:0:0:
392,176,83205,1,8,0:0:0:0:
280,96,83372,6,0,P|240:80|176:88,1,80,2|0,0:0|0:0,0:0:0:0:
144,256,83708,2,0,P|184:272|248:264,1,80,0|8,0:0|0:0,0:0:0:0:
266,163,84043,1,2,0:0:0:0:
416,256,84210,1,2,0:0:0:0:
352,104,84378,1,2,0:0:0:0:
464,192,84546,1,8,0:0:0:0:
320,232,84713,1,2,0:0:0:0:
240,96,84881,5,2,0:0:0:0:
153,212,85048,1,2,0:0:0:0:
320,232,85216,1,8,0:0:0:0:
160,128,85384,1,2,0:0:0:0:
228,272,85551,1,2,0:0:0:0:
392,176,85719,5,2,0:0:0:0:
240,96,85886,1,8,0:0:0:0:
298,306,86054,1,2,0:0:0:0:
224,176,86222,1,2,0:0:0:0:
338,102,86389,1,2,0:0:0:0:
392,216,86557,1,8,0:0:0:0:
248,248,86724,6,0,L|152:248,1,80,2|0,0:0|0:0,0:0:0:0:
240,96,87060,1,2,0:0:0:0:
136,176,87227,2,0,P|95:256|144:320,1,160,8|0,0:0|0:0,0:0:0:0:
24,248,87730,1,2,0:0:0:0:
203,248,87898,1,8,0:0:0:0:
320,328,88065,2,0,P|312:256|302:233,1,80,2|0,0:0|0:0,0:0:0:0:
240,96,88400,6,0,B|232:200,1,80,0|8,0:0|0:0,0:0:0:0:
310,250,88736,1,2,0:0:0:0:
168,56,88903,2,0,B|160:160,1,80,2|0,0:0|0:0,0:0:0:0:
280,24,89238,1,8,0:0:0:0:
88,88,89406,2,0,B|80:192,1,80,2|0,0:0|0:0,0:0:0:0:
176,256,89741,5,2,0:0:0:0:
320,288,89909,1,8,0:0:0:0:
176,256,90076,1,2,0:0:0:0:
280,136,90244,1,2,0:0:0:0:
432,216,90412,5,2,0:0:0:0:
431,328,90579,1,8,0:0:0:0:
260,192,90747,1,2,0:0:0:0:
261,80,90914,1,2,0:0:0:0:
88,208,91082,1,2,0:0:0:0:
84,319,91249,1,8,0:0:0:0:
184,216,91417,5,0,0:0:0:0:
222,205,91500,5,0,0:0:0:0:
261,194,91584,1,0,0:0:0:0:
299,183,91668,5,0,0:0:0:0:
338,172,91752,5,0,0:0:0:0:
376,162,91835,5,0,0:0:0:0:
408,152,91920,5,4,0:0:0:0:
256,192,92087,12,4,93428,0:0:0:0:
192,128,93596,5,2,0:0:0:0:
304,64,93763,1,2,0:0:0:0:
344,184,93931,2,0,L|328:264,1,80,8|0,0:0|0:0,0:0:0:0:
256,336,94266,1,2,0:0:0:0:
424,168,94434,2,0,L|408:248,1,80,0|8,0:0|0:0,0:0:0:0:
360,344,94769,1,2,0:0:0:0:
488,288,94937,1,2,0:0:0:0:
424,168,95104,2,0,L|408:256,1,80,0|8,0:0|0:0,0:0:0:0:
256,336,95439,5,2,0:0:0:0:
344,184,95607,1,2,0:0:0:0:
488,288,95775,1,2,0:0:0:0:
451,102,95942,1,8,0:0:0:0:
451,102,96110,1,2,0:0:0:0:
451,102,96277,2,0,P|412:92|372:91,1,80,2|0,0:0|0:0,0:0:0:0:
344,184,96613,1,8,0:0:0:0:
168,256,96780,5,2,0:0:0:0:
240,112,96948,1,2,0:0:0:0:
288,264,97115,1,2,0:0:0:0:
406,148,97283,2,0,P|414:196|382:252,1,80,8|0,0:0|0:0,0:0:0:0:
244,189,97618,2,0,P|236:125|252:85,1,80,2|0,0:0|0:0,0:0:0:0:
168,32,97953,1,8,0:0:0:0:
245,188,98121,5,2,0:0:0:0:
136,104,98289,1,2,0:0:0:0:
339,104,98456,2,0,P|342:157|333:184,1,80,0|8,0:0|0:0,0:0:0:0:
168,304,98791,2,0,P|164:250|173:223,1,80,2|0,0:0|0:0,0:0:0:0:
256,56,99127,1,2,0:0:0:0:
245,189,99294,5,8,0:0:0:0:
405,189,99462,1,2,0:0:0:0:
320,304,99629,1,2,0:0:0:0:
245,187,99797,1,2,0:0:0:0:
312,56,99965,1,8,0:0:0:0:
152,168,100132,5,2,0:0:0:0:
200,288,100300,2,0,P|246:300|283:285,1,80,2|0,0:0|0:0,0:0:0:0:
320,104,100635,2,0,P|272:104|240:128,1,80,8|0,0:0|0:0,0:0:0:0:
328,216,100970,2,0,P|374:219|406:241,1,80,2|0,0:0|0:0,0:0:0:0:
184,168,101305,2,0,P|138:165|106:143,1,80,8|0,0:0|0:0,0:0:0:0:
256,72,101641,5,2,0:0:0:0:
328,216,101808,1,2,0:0:0:0:
149,239,101976,1,8,0:0:0:0:
376,160,102143,1,2,0:0:0:0:
160,88,102311,1,2,0:0:0:0:
256,264,102479,1,2,0:0:0:0:
335,83,102646,1,8,0:0:0:0:
160,88,102814,1,2,0:0:0:0:
256,264,102981,1,4,0:0:0:0:
256,264,103317,6,0,P|336:240|416:272,2,160,8|0|8,0:0|0:0|0:0,0:0:0:0:
256,264,104155,1,2,0:0:0:0:
236,75,104322,1,2,0:0:0:0:
176,184,104490,1,2,0:0:0:0:
353,131,104657,1,8,0:0:0:0:
353,131,104993,1,2,0:0:0:0:
176,184,105328,6,0,P|168:304|192:336,2,160,8|0|8,0:0|0:0|0:0,0:0:0:0:
280,56,106333,1,2,0:0:0:0:
400,192,106668,1,8,0:0:0:0:
237,235,107004,1,2,0:0:0:0:
237,235,107171,1,2,0:0:0:0:
168,128,107339,5,8,0:0:0:0:
336,152,107506,1,2,0:0:0:0:
168,128,107674,1,2,0:0:0:0:
238,235,107842,1,2,0:0:0:0:
304,48,108009,1,8,0:0:0:0:
168,128,108344,1,2,0:0:0:0:
239,234,108680,6,0,B|312:312|392:232,2,160,8|0|8,0:0|0:0|0:0,0:0:0:0:
210,72,109518,1,2,0:0:0:0:
313,199,109685,1,2,0:0:0:0:
152,240,109853,1,2,0:0:0:0:
152,240,110020,1,8,0:0:0:0:
152,240,110356,1,2,0:0:0:0:
152,240,110691,5,8,0:0:0:0:
248,128,111026,2,0,P|390:155|396:147,2,160,0|8|0,0:0|0:0|0:0,0:0:0:0:
328,88,111864,1,2,0:0:0:0:
368,256,112032,1,8,0:0:0:0:
177,219,112199,1,2,0:0:0:0:
371,149,112367,5,2,0:0:0:0:
194,112,112534,1,2,0:0:0:0:
256,284,112702,1,8,0:0:0:0:
288,80,112870,1,2,0:0:0:0:
279,90,113037,1,2,0:0:0:0:
155,97,113205,1,2,0:0:0:0:
163,111,113372,1,8,0:0:0:0:
256,283,113540,5,2,0:0:0:0:
370,150,113708,1,4,0:0:0:0:
