osu file format v14

[General]
AudioFilename: rainbowaftersnow.mp3
AudioLeadIn: 0
PreviewTime: 70135
Countdown: 0
SampleSet: Soft
StackLeniency: 0.7
Mode: 3
LetterboxInBreaks: 0
SpecialStyle: 0
WidescreenStoryboard: 1

[Editor]
DistanceSpacing: 0.8
BeatDivisor: 4
GridSize: 8
TimelineZoom: 1.7

[Metadata]
Title:Rainbow After Snow
TitleUnicode:Rainbow After Snow
Artist:Nekomata Master feat. Hayashi Momoko
ArtistUnicode:猫叉Master feat. 林ももこ
Creator:ShikiNoHollow
Version:4K MX
Source:beatmania IIDX
Tags:20 tricoro crevice jubeat saucer CrazyStar PiKoBaKa -Sora-
BeatmapID:391270
BeatmapSetID:160162

[Difficulty]
HPDrainRate:8
CircleSize:4
OverallDifficulty:8
ApproachRate:5
SliderMultiplier:1.5
SliderTickRate:1

[Events]
//Background and Video events
0,0,"bg-kawaii.png",0,0
//Break Periods
//Storyboard Layer 0 (Background)
//Storyboard Layer 1 (Fail)
//Storyboard Layer 2 (Pass)
//Storyboard Layer 3 (Foreground)
//Storyboard Sound Samples

[TimingPoints]
1085,335.196,4,2,1,20,1,0
70805,-100,4,2,1,20,0,1
102984,-100,4,2,1,20,0,0

[HitObjects]
64,192,1085,5,2,0:0:0:0:
192,0,1085,128,0,1755:0:0:0:0:
64,192,1420,1,2,0:0:0:0:
320,0,1755,128,0,2425:0:0:0:0:
448,192,1755,1,2,0:0:0:0:
64,0,2425,128,0,3096:0:0:0:0:
448,0,2928,1,0,1:0:0:0:
192,0,3096,128,0,3766:0:0:0:0:
320,0,3096,1,0,1:0:0:0:
448,0,3263,1,0,1:0:0:0:
320,0,3431,1,0,1:0:0:0:
448,0,3598,1,0,1:0:0:0:
320,0,3766,128,0,4101:1:0:0:0:
64,0,3766,128,0,4436:0:0:0:0:
192,192,4101,1,2,0:0:0:0:
448,192,4436,1,2,0:0:0:0:
320,0,4436,128,0,5107:0:0:0:0:
192,192,4772,1,2,0:0:0:0:
64,192,5107,1,2,0:0:0:0:
192,0,5107,128,0,5777:0:0:0:0:
448,0,5442,128,0,5777:0:0:0:0:
320,0,5777,128,0,6112:0:0:0:0:
64,0,5777,128,0,6448:0:0:0:0:
192,0,6112,128,0,6448:0:0:0:0:
448,0,6448,128,0,7118:0:0:0:0:
320,192,6783,1,2,0:0:0:0:
64,192,7118,1,2,0:0:0:0:
192,0,7118,128,0,7788:0:0:0:0:
320,192,7453,1,2,0:0:0:0:
448,192,7788,1,2,0:0:0:0:
64,0,7788,128,0,8459:0:0:0:0:
448,0,8291,1,0,1:0:0:0:
320,0,8459,128,0,9129:0:0:0:0:
192,0,8459,1,0,1:0:0:0:
448,0,8626,1,0,1:0:0:0:
192,0,8794,1,0,1:0:0:0:
448,0,8962,1,0,1:0:0:0:
192,0,9129,128,0,9464:1:0:0:0:
64,0,9129,128,0,9800:0:0:0:0:
320,192,9297,1,0,0:0:0:0:
448,192,9464,1,0,0:0:0:0:
448,192,9632,1,0,0:0:0:0:
192,192,9800,1,0,0:0:0:0:
320,0,9800,128,2,10135:0:0:0:0:
192,192,9967,1,0,0:0:0:0:
64,192,10135,1,0,0:0:0:0:
448,0,10135,128,2,10470:0:0:0:0:
64,192,10302,1,0,0:0:0:0:
320,192,10470,1,0,3:0:0:0:
64,192,10554,1,0,3:0:0:0:
192,192,10638,1,0,3:0:0:0:
320,192,10721,1,0,3:0:0:0:
64,192,10805,1,0,3:0:0:0:
192,192,10889,1,0,3:0:0:0:
320,192,10973,1,0,3:0:0:0:
448,192,11057,1,0,3:0:0:0:
192,0,11140,128,8,11643:3:0:0:0:
64,192,11140,1,0,3:0:0:0:
320,192,11224,1,0,3:0:0:0:
448,192,11308,1,0,3:0:0:0:
64,192,11392,1,0,3:0:0:0:
320,192,11476,1,0,3:0:0:0:
448,192,11559,1,0,3:0:0:0:
320,192,11643,1,0,3:0:0:0:
192,192,11727,1,0,3:0:0:0:
64,192,11811,1,8,0:0:0:0:
320,192,11811,1,0,3:0:0:0:
448,192,11811,1,4,1:0:0:0:
192,192,11895,1,0,3:0:0:0:
64,192,11978,1,0,0:0:0:0:
448,192,12146,1,0,0:0:0:0:
64,192,12314,1,0,0:0:0:0:
448,192,12481,1,0,0:0:0:0:
64,192,12649,1,0,0:0:0:0:
192,192,12816,1,0,0:0:0:0:
320,192,12984,1,0,0:0:0:0:
64,192,13152,1,8,0:0:0:0:
192,192,13152,1,0,0:0:0:0:
320,192,13319,1,0,0:0:0:0:
64,192,13487,1,8,0:0:0:0:
192,192,13487,1,0,0:0:0:0:
320,192,13654,1,0,0:0:0:0:
448,0,13822,128,0,14157:1:0:0:0:
192,192,13990,1,0,0:0:0:0:
64,0,14157,128,0,15833:1:0:0:0:
192,192,14325,1,0,0:0:0:0:
320,192,14492,1,8,0:0:0:0:
448,192,14492,1,0,0:0:0:0:
192,192,14660,1,0,0:0:0:0:
320,192,14828,1,8,0:0:0:0:
448,0,14828,128,2,14995:0:0:0:0:
192,192,14995,1,0,0:0:0:0:
320,0,15163,128,2,15330:0:0:0:0:
192,192,15330,1,0,0:0:0:0:
448,0,15498,128,2,15666:0:0:0:0:
192,192,15666,1,0,0:0:0:0:
320,192,15833,1,8,0:0:0:0:
448,192,15833,1,0,0:0:0:0:
64,192,16001,1,8,0:0:0:0:
192,192,16001,1,0,0:0:0:0:
320,192,16168,1,8,0:0:0:0:
448,192,16168,1,0,0:0:0:0:
192,192,16336,1,0,0:0:0:0:
64,0,16504,128,0,16839:1:0:0:0:
320,192,16671,1,0,0:0:0:0:
448,0,16839,128,0,18179:1:0:0:0:
64,192,17006,1,0,0:0:0:0:
192,192,17174,1,8,0:0:0:0:
320,192,17174,1,0,0:0:0:0:
64,192,17342,1,0,0:0:0:0:
192,0,17509,128,2,17677:0:0:0:0:
320,192,17677,1,0,0:0:0:0:
64,0,17844,128,2,18012:0:0:0:0:
192,192,18012,1,0,0:0:0:0:
320,0,18179,128,2,18347:0:0:0:0:
64,192,18347,1,0,0:0:0:0:
320,192,18515,1,0,0:0:0:0:
448,192,18515,1,8,0:0:0:0:
192,0,18515,128,0,19185:1:0:0:0:
64,192,18682,1,0,0:0:0:0:
320,192,18850,1,0,0:0:0:0:
448,192,18850,1,8,0:0:0:0:
64,192,19017,1,0,0:0:0:0:
320,0,19185,128,0,19520:1:0:0:0:
448,192,19353,1,0,0:0:0:0:
64,0,19520,128,0,20861:1:0:0:0:
320,192,19688,1,0,0:0:0:0:
192,192,19855,1,8,0:0:0:0:
448,192,19855,1,0,0:0:0:0:
320,192,20023,1,0,0:0:0:0:
192,192,20191,1,8,0:0:0:0:
448,192,20191,1,0,0:0:0:0:
320,192,20358,1,0,0:0:0:0:
448,192,20526,1,0,0:0:0:0:
320,192,20693,1,0,0:0:0:0:
448,192,20861,128,0,21196:1:0:0:0:
192,192,20861,1,0,0:0:0:0:
320,192,21029,1,0,0:0:0:0:
192,192,21196,1,8,0:0:0:0:
64,192,21196,1,0,0:0:0:0:
192,192,21364,1,0,0:0:0:0:
320,192,21364,1,8,0:0:0:0:
320,192,21531,1,0,0:0:0:0:
448,192,21531,1,8,0:0:0:0:
192,192,21699,1,0,0:0:0:0:
64,192,21867,1,0,0:0:0:0:
320,192,22034,1,0,0:0:0:0:
192,192,22202,1,0,0:0:0:0:
320,192,22369,1,0,0:0:0:0:
64,192,22537,1,8,0:0:0:0:
192,192,22537,1,0,0:0:0:0:
448,192,22537,1,4,1:0:0:0:
320,192,22705,1,0,0:0:0:0:
64,192,22872,1,0,0:0:0:0:
192,192,23040,1,0,0:0:0:0:
320,192,23207,1,8,0:0:0:0:
448,192,23207,1,0,0:0:0:0:
320,192,23375,1,0,0:0:0:0:
64,192,23543,1,0,0:0:0:0:
192,192,23543,1,8,0:0:0:0:
448,192,23710,1,0,0:0:0:0:
192,192,23878,1,0,0:0:0:0:
320,192,23878,1,8,0:0:0:0:
192,192,24045,1,0,0:0:0:0:
320,192,24045,1,8,0:0:0:0:
64,192,24213,1,4,0:0:0:0:
448,192,24213,1,4,0:0:0:0:
192,192,24213,1,0,0:0:0:0:
64,192,25219,1,8,0:0:0:0:
192,192,25219,1,4,1:0:0:0:
320,192,25219,1,0,0:0:0:0:
448,192,25386,1,0,0:0:0:0:
64,192,25554,1,4,0:0:0:0:
192,192,25554,1,4,0:0:0:0:
448,192,25554,1,0,0:0:0:0:
320,192,25721,1,0,0:0:0:0:
64,192,25889,1,0,0:0:0:0:
192,192,26057,1,8,0:0:0:0:
320,192,26057,1,0,0:0:0:0:
64,192,26224,1,4,0:0:0:0:
192,192,26224,1,0,0:0:0:0:
448,192,26224,1,4,0:0:0:0:
448,192,26392,1,0,0:0:0:0:
64,192,26559,1,0,0:0:0:0:
192,192,26559,1,8,0:0:0:0:
320,192,26727,1,0,0:0:0:0:
64,192,26895,1,4,0:0:0:0:
192,192,26895,1,0,0:0:0:0:
448,192,26895,1,4,0:0:0:0:
320,192,27062,1,0,0:0:0:0:
448,192,27230,1,0,0:0:0:0:
64,192,27397,1,0,0:0:0:0:
192,192,27397,1,8,0:0:0:0:
64,192,27565,1,4,0:0:0:0:
320,192,27565,1,0,0:0:0:0:
448,192,27565,1,4,0:0:0:0:
192,192,27733,1,0,0:0:0:0:
64,192,27900,1,0,0:0:0:0:
320,192,27900,1,8,0:0:0:0:
192,192,28068,1,0,0:0:0:0:
64,192,28235,1,4,0:0:0:0:
320,192,28235,1,0,0:0:0:0:
448,192,28235,1,4,0:0:0:0:
192,192,28403,1,0,0:0:0:0:
64,192,28571,1,0,0:0:0:0:
320,192,28738,1,0,0:0:0:0:
448,192,28738,1,8,0:0:0:0:
64,192,28906,1,4,0:0:0:0:
192,192,28906,1,0,0:0:0:0:
448,192,28906,1,4,0:0:0:0:
64,192,29073,1,0,0:0:0:0:
192,192,29241,1,0,0:0:0:0:
320,192,29241,1,8,0:0:0:0:
192,192,29409,1,0,0:0:0:0:
64,192,29576,1,4,0:0:0:0:
320,192,29576,1,0,0:0:0:0:
448,192,29576,1,4,0:0:0:0:
192,192,29744,1,0,0:0:0:0:
448,192,29911,1,0,0:0:0:0:
64,192,30079,1,0,0:0:0:0:
192,192,30079,1,8,0:0:0:0:
64,192,30247,1,4,0:0:0:0:
192,192,30247,1,0,0:0:0:0:
448,192,30247,1,4,0:0:0:0:
320,192,30414,1,0,0:0:0:0:
64,192,30582,1,0,0:0:0:0:
192,192,30582,1,8,0:0:0:0:
320,192,30749,1,0,0:0:0:0:
64,192,30917,1,4,0:0:0:0:
192,192,30917,1,0,0:0:0:0:
448,192,30917,1,4,0:0:0:0:
320,192,31085,1,0,0:0:0:0:
192,192,31252,1,0,0:0:0:0:
64,192,31420,1,8,0:0:0:0:
320,192,31420,1,0,0:0:0:0:
64,192,31587,1,0,0:0:0:0:
192,192,31587,1,4,0:0:0:0:
448,192,31587,1,4,0:0:0:0:
320,192,31755,1,0,0:0:0:0:
64,192,31923,1,8,0:0:0:0:
448,192,31923,1,0,0:0:0:0:
192,192,32090,1,0,0:0:0:0:
64,192,32258,1,4,0:0:0:0:
192,192,32258,1,0,0:0:0:0:
448,192,32258,1,4,0:0:0:0:
448,192,32425,1,0,0:0:0:0:
320,0,32593,128,0,32761:1:0:0:0:
192,192,32761,1,8,0:0:0:0:
64,0,32761,128,0,32928:1:0:0:0:
320,192,32928,1,4,0:0:0:0:
448,192,32928,1,4,0:0:0:0:
192,0,32928,128,0,33096:1:0:0:0:
320,0,33096,128,0,33263:1:0:0:0:
192,0,33263,128,0,33431:1:0:0:0:
448,192,33263,1,8,0:0:0:0:
64,0,33431,128,0,33599:1:0:0:0:
192,192,33599,1,4,0:0:0:0:
320,192,33599,1,4,0:0:0:0:
448,0,33599,128,0,33766:1:0:0:0:
320,0,33766,128,0,33934:1:0:0:0:
192,0,33934,128,0,34101:1:0:0:0:
448,192,34101,1,8,0:0:0:0:
320,192,34101,1,0,0:0:0:0:
64,192,34269,1,4,0:0:0:0:
192,192,34269,1,0,0:0:0:0:
320,192,34269,1,4,0:0:0:0:
448,192,34437,1,0,3:0:0:0:
320,192,34520,1,0,3:0:0:0:
64,192,34604,1,8,0:0:0:0:
192,192,34604,1,0,3:0:0:0:
448,192,34688,1,0,3:0:0:0:
320,192,34688,1,4,0:0:0:0:
192,192,34772,1,0,3:0:0:0:
64,192,34772,1,8,0:0:0:0:
320,192,34855,1,0,3:0:0:0:
64,192,34939,1,4,0:0:0:0:
192,192,34939,1,0,3:0:0:0:
448,192,34939,1,4,0:0:0:0:
64,192,35945,1,8,0:0:0:0:
320,192,35945,1,4,1:0:0:0:
448,192,35945,1,0,0:0:0:0:
320,192,36112,1,0,0:0:0:0:
64,192,36280,1,4,0:0:0:0:
192,192,36280,1,0,0:0:0:0:
448,192,36280,1,4,0:0:0:0:
320,192,36448,1,0,0:0:0:0:
192,192,36615,1,0,0:0:0:0:
64,192,36783,1,8,0:0:0:0:
448,192,36783,1,0,0:0:0:0:
192,192,36950,1,0,0:0:0:0:
320,192,36950,1,4,0:0:0:0:
448,192,36950,1,4,0:0:0:0:
320,192,37118,1,0,0:0:0:0:
64,192,37286,1,0,0:0:0:0:
448,192,37286,1,8,0:0:0:0:
64,192,37453,1,0,0:0:0:0:
192,192,37621,1,4,0:0:0:0:
320,192,37621,1,4,0:0:0:0:
448,192,37621,1,0,0:0:0:0:
320,192,37788,1,0,0:0:0:0:
64,192,37956,1,0,0:0:0:0:
192,192,38124,1,0,0:0:0:0:
448,192,38124,1,8,0:0:0:0:
64,192,38291,1,4,0:0:0:0:
192,192,38291,1,4,0:0:0:0:
320,192,38291,1,0,0:0:0:0:
448,192,38459,1,0,0:0:0:0:
64,192,38626,1,8,0:0:0:0:
192,192,38626,1,0,0:0:0:0:
448,192,38794,1,0,0:0:0:0:
64,192,38962,1,0,0:0:0:0:
192,192,38962,1,4,0:0:0:0:
320,192,38962,1,4,0:0:0:0:
448,192,39129,1,0,0:0:0:0:
192,192,39297,1,0,0:0:0:0:
64,192,39464,1,0,0:0:0:0:
320,192,39464,1,8,0:0:0:0:
192,192,39632,1,4,0:0:0:0:
320,192,39632,1,0,0:0:0:0:
448,192,39632,1,4,0:0:0:0:
192,192,39800,1,0,0:0:0:0:
64,192,39967,1,8,0:0:0:0:
448,192,39967,1,0,0:0:0:0:
448,192,40135,1,0,0:0:0:0:
64,192,40302,1,0,0:0:0:0:
192,192,40302,1,4,0:0:0:0:
320,192,40302,1,4,0:0:0:0:
448,192,40470,1,0,0:0:0:0:
320,192,40638,1,0,0:0:0:0:
192,192,40805,1,0,0:0:0:0:
448,192,40805,1,8,0:0:0:0:
64,192,40973,1,4,0:0:0:0:
320,192,40973,1,4,0:0:0:0:
448,192,40973,1,0,0:0:0:0:
192,192,41140,1,0,0:0:0:0:
320,192,41308,1,8,0:0:0:0:
448,192,41308,1,0,0:0:0:0:
64,192,41476,1,0,0:0:0:0:
320,192,41643,1,0,0:0:0:0:
448,192,41643,1,4,0:0:0:0:
64,192,41643,1,4,0:0:0:0:
448,192,41811,1,0,0:0:0:0:
64,192,41978,1,0,0:0:0:0:
192,192,42146,1,0,0:0:0:0:
320,192,42146,1,8,0:0:0:0:
64,192,42314,1,4,0:0:0:0:
192,192,42314,1,0,0:0:0:0:
448,192,42314,1,4,0:0:0:0:
448,192,42481,1,0,0:0:0:0:
192,192,42649,1,8,0:0:0:0:
320,192,42649,1,0,0:0:0:0:
320,192,42816,1,0,0:0:0:0:
64,192,42984,1,4,0:0:0:0:
192,192,42984,1,0,0:0:0:0:
448,192,42984,1,4,0:0:0:0:
320,192,43152,1,0,0:0:0:0:
320,0,43319,128,0,43487:1:0:0:0:
64,192,43487,1,8,0:0:0:0:
192,0,43487,128,0,43654:1:0:0:0:
320,192,43654,1,4,0:0:0:0:
448,192,43654,1,4,0:0:0:0:
64,0,43654,128,0,43822:1:0:0:0:
192,0,43822,128,0,43990:1:0:0:0:
64,192,43990,1,8,0:0:0:0:
320,0,43990,128,0,44157:1:0:0:0:
448,0,44157,128,0,44325:1:0:0:0:
192,192,44325,1,4,0:0:0:0:
320,192,44325,1,4,0:0:0:0:
64,0,44325,128,0,44492:1:0:0:0:
192,0,44492,128,0,44660:1:0:0:0:
320,0,44660,128,0,44828:1:0:0:0:
192,192,44828,1,8,0:0:0:0:
448,0,44828,128,0,44995:1:0:0:0:
192,192,44995,1,4,0:0:0:0:
64,0,44995,128,4,45163:0:0:0:0:
320,192,44995,1,0,0:0:0:0:
320,192,45163,1,0,3:0:0:0:
192,192,45247,1,0,3:0:0:0:
64,192,45330,1,8,0:0:0:0:
448,192,45330,1,0,3:0:0:0:
320,192,45414,1,0,3:0:0:0:
192,192,45498,1,0,3:0:0:0:
320,192,45582,1,0,3:0:0:0:
448,192,45666,1,4,0:0:0:0:
192,192,45666,1,0,3:0:0:0:
64,192,45666,1,0,0:0:0:0:
320,192,45749,1,0,3:0:0:0:
192,192,45833,1,0,3:0:0:0:
448,192,45833,1,4,0:0:0:0:
64,192,45833,1,0,0:0:0:0:
320,192,45917,1,0,3:0:0:0:
192,192,46001,1,0,3:0:0:0:
64,192,46085,1,0,3:0:0:0:
448,192,46168,1,0,3:0:0:0:
192,192,46168,1,8,0:0:0:0:
320,192,46252,1,0,3:0:0:0:
64,192,46336,1,4,0:0:0:0:
192,192,46336,1,0,3:0:0:0:
448,192,46336,1,4,0:0:0:0:
64,192,46671,1,0,0:0:0:0:
192,192,46671,1,4,1:0:0:0:
320,192,46671,1,4,0:0:0:0:
448,192,46671,1,8,0:0:0:0:
448,192,47006,1,0,0:0:0:0:
64,192,47342,1,0,0:0:0:0:
192,192,47342,1,4,0:0:0:0:
320,192,47342,1,4,0:0:0:0:
320,192,47677,1,0,0:0:0:0:
64,192,48012,1,0,0:0:0:0:
192,192,48012,1,8,0:0:0:0:
64,192,48347,1,8,0:0:0:0:
192,192,48347,1,0,0:0:0:0:
192,192,48682,1,0,0:0:0:0:
320,192,48682,1,4,0:0:0:0:
448,192,48682,1,4,0:0:0:0:
64,192,49018,1,0,0:0:0:0:
448,192,49185,1,8,0:0:0:0:
320,192,49269,1,8,0:0:0:0:
64,192,49353,1,0,0:0:0:0:
192,192,49353,1,8,0:0:0:0:
320,192,49688,1,0,0:0:0:0:
192,192,50023,1,0,0:0:0:0:
320,192,50023,1,4,0:0:0:0:
448,192,50023,1,4,0:0:0:0:
64,192,50358,1,0,0:0:0:0:
320,192,50694,1,0,0:0:0:0:
320,192,51029,1,0,0:0:0:0:
448,192,51029,1,8,0:0:0:0:
64,192,51364,1,4,0:0:0:0:
192,192,51364,1,0,0:0:0:0:
448,192,51364,1,4,0:0:0:0:
64,192,51531,1,4,0:0:0:0:
448,192,51531,1,4,0:0:0:0:
192,192,51615,1,4,0:0:0:0:
320,192,51615,1,4,0:0:0:0:
192,192,51783,1,4,0:0:0:0:
320,192,51783,1,4,0:0:0:0:
64,192,51867,1,4,0:0:0:0:
448,192,51867,1,4,0:0:0:0:
320,192,51950,1,8,0:0:0:0:
64,192,52034,1,8,0:0:0:0:
192,0,52034,128,0,52202:1:0:0:0:
192,0,52369,128,0,52537:1:0:0:0:
64,192,52705,1,4,0:0:0:0:
192,192,52705,1,0,0:0:0:0:
448,192,52705,1,4,0:0:0:0:
64,0,53040,128,0,53207:1:0:0:0:
448,192,53375,1,8,0:0:0:0:
192,0,53375,128,0,53543:1:0:0:0:
448,192,53710,1,8,0:0:0:0:
320,0,53710,128,0,53878:1:0:0:0:
64,192,54045,1,4,0:0:0:0:
192,192,54045,1,0,0:0:0:0:
448,192,54045,1,4,0:0:0:0:
64,192,54381,1,0,0:0:0:0:
192,192,54548,1,0,0:0:0:0:
320,192,54548,1,4,0:0:0:0:
448,192,54548,1,4,0:0:0:0:
64,192,54716,1,8,0:0:0:0:
192,192,54716,1,0,0:0:0:0:
192,192,55051,1,0,0:0:0:0:
64,192,55051,1,8,0:0:0:0:
320,192,55219,1,0,0:0:0:0:
64,192,55386,1,4,0:0:0:0:
192,192,55386,1,0,0:0:0:0:
448,192,55386,1,4,0:0:0:0:
192,192,55721,1,0,1:0:0:0:
64,192,55889,1,0,1:0:0:0:
320,192,56057,1,0,1:0:0:0:
64,192,56392,1,8,0:0:0:0:
320,192,56392,1,0,0:0:0:0:
64,192,56727,1,4,0:0:0:0:
320,192,56727,1,0,0:0:0:0:
448,192,56727,1,4,0:0:0:0:
64,192,57062,1,0,0:0:0:0:
192,192,57230,1,0,0:0:0:0:
320,192,57230,1,4,0:0:0:0:
448,192,57230,1,4,0:0:0:0:
64,192,57397,1,8,0:0:0:0:
320,192,57397,1,4,1:0:0:0:
448,192,57397,1,0,0:0:0:0:
192,192,57565,1,0,0:0:0:0:
192,192,57733,1,0,0:0:0:0:
448,192,57900,1,0,0:0:0:0:
448,0,58068,128,0,58738:1:0:0:0:
64,192,58235,1,0,0:0:0:0:
64,192,58403,1,0,0:0:0:0:
192,192,58571,1,0,0:0:0:0:
192,192,58738,1,8,0:0:0:0:
64,0,58738,128,0,59409:1:0:0:0:
320,192,58906,1,0,0:0:0:0:
192,192,59073,1,0,0:0:0:0:
448,192,59241,1,0,0:0:0:0:
448,0,59409,128,0,60079:1:0:0:0:
192,192,59576,1,0,0:0:0:0:
192,192,59744,1,0,0:0:0:0:
320,192,59911,1,0,0:0:0:0:
192,192,60079,1,8,0:0:0:0:
320,0,60079,128,0,60749:1:0:0:0:
64,192,60247,1,0,0:0:0:0:
64,192,60414,1,0,0:0:0:0:
448,192,60582,1,0,0:0:0:0:
448,0,60749,128,0,61085:1:0:0:0:
192,192,60917,1,0,0:0:0:0:
192,0,61085,128,0,61420:1:0:0:0:
320,192,61252,1,0,0:0:0:0:
448,192,61420,1,8,0:0:0:0:
320,0,61420,128,0,61755:1:0:0:0:
64,192,61587,1,0,0:0:0:0:
64,0,61755,128,0,62090:1:0:0:0:
448,192,61923,1,0,0:0:0:0:
448,0,62090,128,0,62425:1:0:0:0:
192,192,62258,1,0,0:0:0:0:
192,0,62425,128,0,62761:1:0:0:0:
64,192,62593,1,0,0:0:0:0:
448,192,62761,1,8,0:0:0:0:
64,0,62761,128,0,63096:1:0:0:0:
320,192,62928,1,0,0:0:0:0:
320,192,63096,1,0,0:0:0:0:
192,192,63263,1,0,0:0:0:0:
320,192,63431,1,8,0:0:0:0:
192,0,63431,128,0,63766:1:0:0:0:
448,192,63599,1,0,0:0:0:0:
448,0,63766,128,0,64101:1:0:0:0:
64,192,63934,1,0,0:0:0:0:
64,192,64101,1,8,0:0:0:0:
320,192,64101,1,0,0:0:0:0:
192,192,64269,1,0,0:0:0:0:
192,0,64437,128,0,64604:1:0:0:0:
320,0,64604,128,0,64772:1:0:0:0:
64,192,64772,1,8,0:0:0:0:
448,0,64772,128,0,64939:1:0:0:0:
192,0,64939,128,0,65107:1:0:0:0:
320,0,65107,128,0,68124:1:0:0:0:
64,192,65275,1,0,0:0:0:0:
64,192,65442,1,0,0:0:0:0:
192,192,65442,1,8,0:0:0:0:
448,192,65610,1,0,0:0:0:0:
64,192,65777,1,0,0:0:0:0:
448,192,65777,1,8,0:0:0:0:
192,192,65945,1,0,0:0:0:0:
64,192,66113,1,8,0:0:0:0:
192,192,66113,1,0,0:0:0:0:
448,192,66280,1,0,0:0:0:0:
192,192,66448,1,8,0:0:0:0:
448,192,66448,1,0,0:0:0:0:
64,192,66615,1,0,0:0:0:0:
64,192,66783,1,8,0:0:0:0:
192,192,66783,1,0,0:0:0:0:
448,192,66951,1,0,0:0:0:0:
192,192,67118,1,0,0:0:0:0:
448,192,67118,1,8,0:0:0:0:
64,192,67286,1,0,0:0:0:0:
64,192,67453,1,8,0:0:0:0:
192,192,67453,1,0,0:0:0:0:
448,192,67621,1,0,0:0:0:0:
192,192,67789,1,0,0:0:0:0:
448,192,67789,1,8,0:0:0:0:
64,192,67956,1,0,0:0:0:0:
64,192,68124,1,0,0:0:0:0:
448,192,68124,1,8,0:0:0:0:
192,192,68291,1,0,0:0:0:0:
448,192,68459,1,8,0:0:0:0:
64,192,68459,1,0,0:0:0:0:
192,192,68626,1,0,0:0:0:0:
448,192,68794,1,0,0:0:0:0:
320,192,68794,1,8,0:0:0:0:
192,192,68962,1,8,0:0:0:0:
64,192,68962,1,0,0:0:0:0:
192,192,69129,1,8,0:0:0:0:
64,192,69129,1,0,0:0:0:0:
320,192,69297,1,0,0:0:0:0:
448,192,69297,1,8,0:0:0:0:
448,192,69464,1,8,0:0:0:0:
320,192,69464,1,0,3:0:0:0:
192,192,69548,1,0,3:0:0:0:
320,192,69632,1,0,3:0:0:0:
64,192,69632,1,8,0:0:0:0:
448,192,69716,1,0,3:0:0:0:
320,192,69800,1,0,3:0:0:0:
192,192,69800,1,4,0:0:0:0:
64,192,69800,1,4,0:0:0:0:
64,192,70805,1,8,0:0:0:0:
192,192,70805,1,4,1:0:0:0:
448,192,70805,1,0,0:0:0:0:
320,192,70889,1,0,0:0:0:0:
192,192,70973,1,0,0:0:0:0:
320,192,71057,1,0,0:0:0:0:
64,192,71140,1,4,0:0:0:0:
192,192,71140,1,0,0:0:0:0:
448,192,71140,1,4,0:0:0:0:
320,192,71224,1,0,0:0:0:0:
192,192,71308,1,0,0:0:0:0:
64,192,71392,1,0,0:0:0:0:
192,192,71476,1,0,0:0:0:0:
64,192,71559,1,0,0:0:0:0:
320,192,71643,1,0,0:0:0:0:
448,192,71643,1,8,0:0:0:0:
192,192,71727,1,0,0:0:0:0:
64,192,71811,1,4,0:0:0:0:
320,192,71811,1,4,0:0:0:0:
448,192,71811,1,0,0:0:0:0:
192,192,71895,1,0,0:0:0:0:
320,192,71978,1,0,0:0:0:0:
192,192,72062,1,0,0:0:0:0:
64,192,72146,1,0,0:0:0:0:
448,192,72146,1,8,0:0:0:0:
320,192,72230,1,0,0:0:0:0:
192,192,72314,1,0,0:0:0:0:
64,192,72397,1,0,0:0:0:0:
192,192,72481,1,0,0:0:0:0:
320,192,72481,1,4,0:0:0:0:
448,192,72481,1,4,0:0:0:0:
64,192,72565,1,0,0:0:0:0:
192,192,72649,1,0,0:0:0:0:
448,192,72733,1,0,0:0:0:0:
320,192,72816,1,0,0:0:0:0:
192,192,72900,1,0,0:0:0:0:
64,192,72984,1,8,0:0:0:0:
448,192,72984,1,0,0:0:0:0:
320,192,73068,1,0,0:0:0:0:
64,192,73152,1,4,0:0:0:0:
192,192,73152,1,4,0:0:0:0:
448,192,73152,1,0,0:0:0:0:
320,192,73235,1,0,0:0:0:0:
192,192,73319,1,0,0:0:0:0:
64,192,73403,1,0,0:0:0:0:
192,192,73487,1,0,0:0:0:0:
448,192,73487,1,8,0:0:0:0:
64,192,73571,1,0,0:0:0:0:
192,192,73654,1,0,0:0:0:0:
320,192,73738,1,0,0:0:0:0:
64,192,73822,1,4,0:0:0:0:
192,192,73822,1,4,0:0:0:0:
448,192,73822,1,0,0:0:0:0:
320,192,73906,1,0,0:0:0:0:
448,192,73990,1,0,0:0:0:0:
64,192,74073,1,0,0:0:0:0:
320,192,74157,1,0,0:0:0:0:
192,192,74241,1,0,0:0:0:0:
320,192,74325,1,0,0:0:0:0:
448,192,74325,1,8,0:0:0:0:
64,192,74409,1,0,0:0:0:0:
192,192,74492,1,0,0:0:0:0:
320,192,74492,1,4,0:0:0:0:
448,192,74492,1,4,0:0:0:0:
64,192,74576,1,0,0:0:0:0:
320,192,74660,1,0,0:0:0:0:
192,192,74744,1,0,0:0:0:0:
64,192,74828,1,0,0:0:0:0:
448,192,74828,1,8,0:0:0:0:
320,192,74911,1,0,0:0:0:0:
192,192,74995,1,0,0:0:0:0:
64,192,75079,1,0,0:0:0:0:
192,192,75163,1,0,0:0:0:0:
320,192,75163,1,4,0:0:0:0:
448,192,75163,1,4,0:0:0:0:
64,192,75247,1,0,0:0:0:0:
192,192,75330,1,0,0:0:0:0:
320,192,75414,1,0,0:0:0:0:
192,192,75498,1,0,0:0:0:0:
64,192,75582,1,0,0:0:0:0:
320,192,75666,1,0,0:0:0:0:
448,192,75666,1,8,0:0:0:0:
192,192,75749,1,0,0:0:0:0:
64,192,75833,1,0,0:0:0:0:
320,192,75833,1,4,0:0:0:0:
448,192,75833,1,4,0:0:0:0:
192,192,75917,1,0,0:0:0:0:
448,192,76001,1,0,0:0:0:0:
64,192,76085,1,0,0:0:0:0:
320,192,76085,1,4,0:0:0:0:
192,192,76168,1,0,0:0:0:0:
448,192,76168,1,8,0:0:0:0:
320,192,76252,1,0,0:0:0:0:
192,192,76336,1,0,0:0:0:0:
64,192,76420,1,0,0:0:0:0:
192,192,76504,1,0,0:0:0:0:
320,192,76504,1,4,0:0:0:0:
448,192,76504,1,4,0:0:0:0:
64,192,76587,1,0,0:0:0:0:
320,192,76671,1,0,0:0:0:0:
192,192,76755,1,0,0:0:0:0:
64,192,76839,1,0,0:0:0:0:
448,192,76923,1,0,0:0:0:0:
192,192,77006,1,8,0:0:0:0:
320,192,77006,1,0,0:0:0:0:
448,192,77090,1,0,0:0:0:0:
64,192,77174,1,4,0:0:0:0:
192,192,77174,1,0,0:0:0:0:
320,192,77174,1,4,0:0:0:0:
448,192,77258,1,0,0:0:0:0:
320,192,77342,1,0,0:0:0:0:
64,192,77425,1,0,0:0:0:0:
192,192,77509,1,0,0:0:0:0:
448,192,77509,1,8,0:0:0:0:
320,192,77593,1,0,0:0:0:0:
192,192,77677,1,0,0:0:0:0:
320,192,77761,1,0,0:0:0:0:
64,192,77844,1,4,0:0:0:0:
192,192,77844,1,4,0:0:0:0:
448,192,77844,1,0,0:0:0:0:
320,192,77928,1,0,0:0:0:0:
192,192,78012,1,0,0:0:0:0:
64,192,78096,1,0,0:0:0:0:
448,192,78180,1,0,0:0:0:0:
192,192,78263,1,0,0:0:0:0:
320,192,78347,1,8,0:0:0:0:
448,192,78347,1,0,0:0:0:0:
64,192,78431,1,0,0:0:0:0:
192,192,78515,1,4,0:0:0:0:
320,192,78515,1,4,0:0:0:0:
448,192,78515,1,0,0:0:0:0:
64,192,78599,1,0,0:0:0:0:
192,192,78682,1,0,0:0:0:0:
320,192,78766,1,0,0:0:0:0:
64,192,78850,1,8,0:0:0:0:
448,192,78850,1,0,0:0:0:0:
320,192,78934,1,0,0:0:0:0:
192,192,79018,1,0,0:0:0:0:
64,192,79101,1,0,0:0:0:0:
192,192,79185,1,0,0:0:0:0:
320,192,79185,1,4,0:0:0:0:
448,192,79185,1,4,0:0:0:0:
64,192,79269,1,0,0:0:0:0:
320,192,79353,1,0,0:0:0:0:
192,192,79437,1,0,0:0:0:0:
448,192,79520,1,0,0:0:0:0:
64,192,79604,1,0,0:0:0:0:
320,192,79688,1,0,0:0:0:0:
448,192,79688,1,8,0:0:0:0:
192,192,79772,1,0,0:0:0:0:
64,192,79856,1,4,0:0:0:0:
320,192,79856,1,0,0:0:0:0:
448,192,79856,1,4,0:0:0:0:
192,192,79939,1,0,0:0:0:0:
448,192,80023,1,0,0:0:0:0:
192,192,80107,1,0,0:0:0:0:
320,192,80191,1,0,0:0:0:0:
64,192,80191,1,8,0:0:0:0:
448,192,80275,1,0,0:0:0:0:
320,192,80358,1,0,0:0:0:0:
192,192,80442,1,0,0:0:0:0:
64,192,80526,1,0,0:0:0:0:
320,192,80526,1,4,0:0:0:0:
448,192,80526,1,4,0:0:0:0:
192,192,80610,1,0,0:0:0:0:
64,192,80694,1,0,0:0:0:0:
320,192,80694,1,4,0:0:0:0:
448,192,80694,1,4,0:0:0:0:
192,192,80777,1,0,0:0:0:0:
320,192,80861,1,0,0:0:0:0:
448,192,80945,1,0,0:0:0:0:
192,192,81029,1,8,0:0:0:0:
320,192,81029,1,0,0:0:0:0:
64,192,81113,1,0,0:0:0:0:
192,192,81196,1,0,0:0:0:0:
320,192,81196,1,4,0:0:0:0:
448,192,81196,1,4,0:0:0:0:
64,192,81280,1,0,0:0:0:0:
320,192,81364,1,8,0:0:0:0:
192,192,81364,1,0,0:0:0:0:
448,192,81448,1,8,0:0:0:0:
64,192,81448,1,0,0:0:0:0:
192,192,81532,1,0,0:0:0:0:
448,192,81532,1,8,0:0:0:0:
320,192,81532,1,4,1:0:0:0:
64,192,81699,1,0,0:0:0:0:
192,192,81867,1,0,0:0:0:0:
320,192,81867,1,4,0:0:0:0:
448,192,81867,1,4,0:0:0:0:
64,192,81951,1,0,0:0:0:0:
448,192,82034,1,0,0:0:0:0:
192,192,82118,1,0,0:0:0:0:
448,192,82202,1,0,0:0:0:0:
320,192,82286,1,0,0:0:0:0:
64,192,82370,1,8,0:0:0:0:
192,192,82370,1,0,0:0:0:0:
320,192,82453,1,0,0:0:0:0:
64,192,82537,1,4,0:0:0:0:
192,192,82537,1,0,0:0:0:0:
448,192,82537,1,4,0:0:0:0:
320,192,82621,1,0,0:0:0:0:
192,192,82705,1,0,0:0:0:0:
64,192,82789,1,0,0:0:0:0:
320,192,82872,1,8,0:0:0:0:
448,192,82872,1,0,0:0:0:0:
64,192,82956,1,0,0:0:0:0:
320,192,83040,1,0,0:0:0:0:
192,192,83124,1,0,0:0:0:0:
64,192,83208,1,4,0:0:0:0:
320,192,83208,1,0,0:0:0:0:
448,192,83208,1,4,0:0:0:0:
192,192,83291,1,0,0:0:0:0:
320,192,83375,1,0,0:0:0:0:
64,192,83459,1,0,0:0:0:0:
448,192,83543,1,0,0:0:0:0:
192,192,83627,1,0,0:0:0:0:
320,192,83710,1,0,0:0:0:0:
448,192,83710,1,8,0:0:0:0:
192,192,83794,1,0,0:0:0:0:
64,192,83878,1,4,0:0:0:0:
320,192,83878,1,0,0:0:0:0:
448,192,83878,1,4,0:0:0:0:
192,192,83962,1,0,0:0:0:0:
448,192,84046,1,0,0:0:0:0:
320,192,84129,1,0,0:0:0:0:
192,192,84213,1,8,0:0:0:0:
448,192,84213,1,0,0:0:0:0:
64,192,84297,1,0,0:0:0:0:
192,192,84381,1,0,0:0:0:0:
320,192,84465,1,0,0:0:0:0:
64,192,84548,1,4,0:0:0:0:
448,192,84548,1,4,0:0:0:0:
192,192,84548,1,0,0:0:0:0:
320,192,84632,1,0,0:0:0:0:
64,192,84716,1,0,0:0:0:0:
448,192,84800,1,0,0:0:0:0:
192,192,84884,1,0,0:0:0:0:
320,192,84967,1,0,0:0:0:0:
64,192,85051,1,0,0:0:0:0:
448,192,85051,1,8,0:0:0:0:
192,192,85135,1,0,0:0:0:0:
64,192,85219,1,4,0:0:0:0:
448,192,85219,1,4,0:0:0:0:
320,192,85219,1,0,0:0:0:0:
192,192,85302,1,0,0:0:0:0:
448,192,85386,1,0,0:0:0:0:
320,192,85470,1,0,0:0:0:0:
64,192,85554,1,0,0:0:0:0:
448,192,85554,1,8,0:0:0:0:
192,192,85638,1,0,0:0:0:0:
320,192,85721,1,0,0:0:0:0:
64,192,85805,1,0,0:0:0:0:
192,192,85889,1,0,0:0:0:0:
320,192,85889,1,4,0:0:0:0:
448,192,85889,1,4,0:0:0:0:
64,192,85973,1,0,0:0:0:0:
448,192,86057,1,0,0:0:0:0:
320,192,86140,1,0,0:0:0:0:
192,192,86224,1,0,0:0:0:0:
320,192,86308,1,0,0:0:0:0:
64,192,86392,1,0,0:0:0:0:
448,192,86392,1,8,0:0:0:0:
192,192,86476,1,0,0:0:0:0:
64,192,86559,1,4,0:0:0:0:
320,192,86559,1,0,0:0:0:0:
448,192,86559,1,4,0:0:0:0:
192,192,86643,1,0,0:0:0:0:
320,192,86727,1,0,0:0:0:0:
192,192,86811,1,0,0:0:0:0:
320,192,86895,1,8,0:0:0:0:
448,192,86895,1,0,0:0:0:0:
64,192,86978,1,0,0:0:0:0:
192,192,87062,1,0,0:0:0:0:
320,192,87146,1,0,0:0:0:0:
64,192,87230,1,4,0:0:0:0:
192,192,87230,1,0,0:0:0:0:
448,192,87230,1,4,0:0:0:0:
320,192,87314,1,0,0:0:0:0:
64,192,87397,1,0,0:0:0:0:
320,192,87481,1,0,0:0:0:0:
192,192,87565,1,0,0:0:0:0:
448,192,87649,1,0,0:0:0:0:
64,192,87733,1,8,0:0:0:0:
320,192,87733,1,0,0:0:0:0:
448,192,87816,1,0,0:0:0:0:
64,192,87900,1,4,0:0:0:0:
192,192,87900,1,4,0:0:0:0:
320,192,87900,1,0,0:0:0:0:
448,192,87984,1,0,0:0:0:0:
192,192,88068,1,0,0:0:0:0:
320,192,88152,1,0,0:0:0:0:
64,192,88235,1,8,0:0:0:0:
192,192,88235,1,0,0:0:0:0:
320,192,88319,1,0,0:0:0:0:
64,192,88403,1,0,0:0:0:0:
448,192,88487,1,0,0:0:0:0:
64,192,88571,1,4,0:0:0:0:
192,192,88571,1,4,0:0:0:0:
320,192,88571,1,0,0:0:0:0:
448,192,88654,1,0,0:0:0:0:
320,192,88738,1,0,0:0:0:0:
192,192,88822,1,0,0:0:0:0:
448,192,88906,1,0,0:0:0:0:
192,192,88990,1,0,0:0:0:0:
64,192,89073,1,0,0:0:0:0:
448,192,89073,1,8,0:0:0:0:
320,192,89157,1,0,0:0:0:0:
64,192,89241,1,4,0:0:0:0:
192,192,89241,1,4,0:0:0:0:
448,192,89241,1,0,0:0:0:0:
320,192,89325,1,0,0:0:0:0:
64,192,89409,1,0,0:0:0:0:
320,192,89492,1,0,0:0:0:0:
64,192,89576,1,8,0:0:0:0:
192,192,89576,1,0,0:0:0:0:
448,192,89660,1,0,0:0:0:0:
192,192,89744,1,0,0:0:0:0:
320,192,89828,1,0,0:0:0:0:
64,192,89911,1,4,0:0:0:0:
192,192,89911,1,0,0:0:0:0:
448,192,89911,1,4,0:0:0:0:
320,192,89995,1,0,0:0:0:0:
64,192,90079,1,4,0:0:0:0:
192,192,90079,1,0,0:0:0:0:
448,192,90079,1,4,0:0:0:0:
320,192,90163,1,0,0:0:0:0:
192,192,90247,1,0,0:0:0:0:
64,192,90330,1,0,0:0:0:0:
192,192,90414,1,0,0:0:0:0:
320,192,90414,1,8,0:0:0:0:
448,192,90498,1,0,0:0:0:0:
64,192,90582,1,4,0:0:0:0:
192,192,90582,1,0,0:0:0:0:
320,192,90582,1,4,0:0:0:0:
320,192,90749,1,0,0:0:0:0:
448,192,90833,1,0,0:0:0:0:
64,192,90917,1,0,0:0:0:0:
192,192,90917,1,8,0:0:0:0:
448,192,91001,1,0,0:0:0:0:
320,192,91085,1,4,0:0:0:0:
64,192,91085,1,0,0:0:0:0:
192,192,91085,1,4,0:0:0:0:
448,192,91168,1,0,0:0:0:0:
64,192,91252,1,0,0:0:0:0:
192,192,91252,1,8,0:0:0:0:
448,192,91336,1,0,0:0:0:0:
320,192,91420,1,4,0:0:0:0:
64,192,91420,1,0,0:0:0:0:
192,192,91420,1,4,0:0:0:0:
448,192,91504,1,0,0:0:0:0:
64,192,91587,1,0,0:0:0:0:
448,192,91671,1,0,0:0:0:0:
192,192,91755,1,0,0:0:0:0:
320,192,91755,1,8,0:0:0:0:
448,192,91839,1,0,0:0:0:0:
64,192,91923,1,4,0:0:0:0:
192,192,91923,1,4,0:0:0:0:
320,192,91923,1,0,0:0:0:0:
448,192,92006,1,0,0:0:0:0:
192,192,92090,1,0,0:0:0:0:
320,192,92090,1,8,0:0:0:0:
448,192,92174,1,8,0:0:0:0:
64,192,92174,1,0,0:0:0:0:
64,192,92258,1,0,0:0:0:0:
192,192,92258,1,4,1:0:0:0:
320,192,92258,1,8,0:0:0:0:
448,192,92425,1,0,0:0:0:0:
64,192,92593,1,4,0:0:0:0:
192,192,92593,1,4,0:0:0:0:
320,192,92593,1,0,0:0:0:0:
448,192,92677,1,0,0:0:0:0:
320,192,92761,1,0,0:0:0:0:
192,192,92844,1,0,0:0:0:0:
64,192,92928,1,0,0:0:0:0:
448,192,93012,1,0,0:0:0:0:
64,192,93096,1,8,0:0:0:0:
320,192,93096,1,0,0:0:0:0:
192,192,93180,1,0,0:0:0:0:
64,192,93263,1,4,0:0:0:0:
320,192,93263,1,0,0:0:0:0:
448,192,93263,1,4,0:0:0:0:
192,192,93347,1,0,0:0:0:0:
448,192,93431,1,0,0:0:0:0:
320,192,93515,1,0,0:0:0:0:
64,192,93599,1,0,0:0:0:0:
192,192,93599,1,8,0:0:0:0:
320,192,93682,1,0,0:0:0:0:
448,192,93766,1,0,0:0:0:0:
320,192,93850,1,0,0:0:0:0:
64,192,93934,1,4,0:0:0:0:
192,192,93934,1,0,0:0:0:0:
448,192,93934,1,4,0:0:0:0:
320,192,94018,1,0,0:0:0:0:
64,0,94101,128,0,94269:1:0:0:0:
448,192,94185,1,0,0:0:0:0:
192,0,94269,128,0,94437:1:0:0:0:
448,192,94353,1,0,0:0:0:0:
64,192,94437,1,8,0:0:0:0:
320,0,94437,128,0,94604:1:0:0:0:
448,192,94520,1,0,0:0:0:0:
64,192,94604,1,4,0:0:0:0:
192,0,94604,128,0,94772:1:0:0:0:
448,192,94688,1,0,0:0:0:0:
324,192,94772,1,4,0:0:0:0:
64,0,94772,128,0,94939:1:0:0:0:
437,192,94856,1,0,0:0:0:0:
192,192,94939,1,8,0:0:0:0:
320,0,94939,128,0,95107:1:0:0:0:
448,192,95023,1,0,0:0:0:0:
64,192,95107,1,0,0:0:0:0:
192,192,95191,1,0,0:0:0:0:
64,192,95275,1,4,0:0:0:0:
320,192,95275,1,0,0:0:0:0:
448,192,95275,1,4,0:0:0:0:
192,192,95358,1,0,0:0:0:0:
320,192,95442,1,0,0:0:0:0:
448,192,95526,1,0,0:0:0:0:
192,192,95610,1,0,0:0:0:0:
64,192,95694,1,0,0:0:0:0:
320,192,95777,1,8,0:0:0:0:
448,192,95777,1,0,0:0:0:0:
64,192,95861,1,0,0:0:0:0:
192,192,95945,1,4,0:0:0:0:
320,192,95945,1,0,0:0:0:0:
448,192,95945,1,4,0:0:0:0:
64,192,96029,1,0,0:0:0:0:
448,192,96113,1,0,0:0:0:0:
320,192,96196,1,0,0:0:0:0:
64,192,96280,1,0,0:0:0:0:
448,192,96280,1,8,0:0:0:0:
192,192,96364,1,0,0:0:0:0:
320,192,96448,1,0,0:0:0:0:
448,192,96532,1,0,0:0:0:0:
192,192,96615,1,0,0:0:0:0:
320,192,96615,1,4,0:0:0:0:
64,192,96615,1,4,0:0:0:0:
448,192,96699,1,0,0:0:0:0:
64,192,96783,1,0,0:0:0:0:
192,192,96867,1,0,0:0:0:0:
320,192,96951,1,0,0:0:0:0:
448,192,97034,1,0,0:0:0:0:
64,192,97118,1,0,0:0:0:0:
320,192,97118,1,8,0:0:0:0:
192,192,97202,1,0,0:0:0:0:
64,192,97286,1,4,0:0:0:0:
320,192,97286,1,0,0:0:0:0:
448,192,97286,1,4,0:0:0:0:
192,192,97370,1,0,0:0:0:0:
64,192,97453,1,0,0:0:0:0:
448,192,97537,1,0,0:0:0:0:
192,192,97621,1,0,0:0:0:0:
320,192,97621,1,8,0:0:0:0:
64,192,97705,1,0,0:0:0:0:
192,192,97789,1,0,0:0:0:0:
320,192,97872,1,0,0:0:0:0:
64,192,97956,1,4,0:0:0:0:
192,192,97956,1,0,0:0:0:0:
448,192,97956,1,4,0:0:0:0:
320,192,98040,1,0,0:0:0:0:
448,192,98124,1,0,0:0:0:0:
192,192,98208,1,0,0:0:0:0:
64,192,98291,1,0,0:0:0:0:
192,192,98375,1,0,0:0:0:0:
320,192,98459,1,0,0:0:0:0:
448,192,98459,1,8,0:0:0:0:
64,192,98543,1,0,0:0:0:0:
192,192,98627,1,4,0:0:0:0:
320,192,98627,1,4,0:0:0:0:
448,192,98627,1,0,0:0:0:0:
64,192,98710,1,0,0:0:0:0:
192,192,98794,1,0,0:0:0:0:
320,192,98878,1,0,0:0:0:0:
64,192,98962,1,8,0:0:0:0:
448,192,98962,1,0,0:0:0:0:
320,192,99046,1,0,0:0:0:0:
192,192,99129,1,0,0:0:0:0:
64,192,99213,1,0,0:0:0:0:
192,192,99297,1,0,0:0:0:0:
320,192,99297,1,4,0:0:0:0:
448,192,99297,1,4,0:0:0:0:
64,192,99381,1,0,0:0:0:0:
448,192,99465,1,0,0:0:0:0:
320,192,99548,1,0,0:0:0:0:
192,192,99632,1,0,0:0:0:0:
64,192,99716,1,0,0:0:0:0:
320,192,99800,1,0,0:0:0:0:
448,192,99800,1,8,0:0:0:0:
64,192,99884,1,0,0:0:0:0:
192,192,99967,1,4,0:0:0:0:
320,192,99967,1,4,0:0:0:0:
448,192,99967,1,0,0:0:0:0:
64,192,100051,1,0,0:0:0:0:
448,192,100135,1,0,0:0:0:0:
320,192,100219,1,0,0:0:0:0:
192,192,100303,1,0,0:0:0:0:
448,192,100303,1,8,0:0:0:0:
64,192,100386,1,0,0:0:0:0:
320,192,100470,1,0,0:0:0:0:
64,192,100554,1,0,0:0:0:0:
192,192,100638,1,0,0:0:0:0:
320,192,100638,1,4,0:0:0:0:
448,192,100638,1,4,0:0:0:0:
64,192,100722,1,0,0:0:0:0:
448,192,100805,1,0,0:0:0:0:
192,192,100889,1,0,0:0:0:0:
64,192,100973,1,0,0:0:0:0:
448,192,101057,1,0,0:0:0:0:
192,192,101141,1,8,0:0:0:0:
320,192,101141,1,0,0:0:0:0:
448,192,101224,1,0,0:0:0:0:
64,192,101308,1,4,0:0:0:0:
192,192,101308,1,4,0:0:0:0:
320,192,101308,1,0,0:0:0:0:
448,192,101392,1,0,0:0:0:0:
64,192,101476,1,4,0:0:0:0:
192,192,101476,1,4,0:0:0:0:
320,192,101476,1,0,0:0:0:0:
448,192,101560,1,0,0:0:0:0:
320,192,101643,1,0,0:0:0:0:
64,192,101727,1,0,0:0:0:0:
192,192,101811,1,0,0:0:0:0:
448,192,101811,1,8,0:0:0:0:
320,192,101895,1,0,0:0:0:0:
64,192,101978,1,4,0:0:0:0:
192,192,101978,1,4,0:0:0:0:
448,192,101978,1,0,0:0:0:0:
320,192,102062,1,0,0:0:0:0:
64,192,102146,1,4,0:0:0:0:
192,192,102146,1,4,0:0:0:0:
448,192,102146,1,0,0:0:0:0:
320,192,102230,1,0,0:0:0:0:
64,192,102314,1,0,0:0:0:0:
192,192,102397,1,0,0:0:0:0:
320,192,102481,1,0,0:0:0:0:
448,192,102481,1,8,0:0:0:0:
192,192,102565,1,0,0:0:0:0:
64,192,102649,1,0,0:0:0:0:
320,192,102649,1,4,0:0:0:0:
448,192,102649,1,4,0:0:0:0:
192,192,102733,1,0,0:0:0:0:
64,192,102816,1,0,0:0:0:0:
320,192,102816,1,8,0:0:0:0:
192,192,102900,1,8,0:0:0:0:
448,192,102900,1,0,0:0:0:0:
64,192,102984,1,8,0:0:0:0:
320,192,102984,1,4,1:0:0:0:
448,192,102984,1,0,0:0:0:0:
192,0,103319,128,0,103654:1:0:0:0:
64,192,103487,1,8,0:0:0:0:
64,192,103654,1,0,0:0:0:0:
448,192,103654,1,4,0:0:0:0:
320,0,103654,128,0,104995:1:0:0:0:
192,192,103822,1,0,0:0:0:0:
192,192,103990,1,0,0:0:0:0:
64,192,104157,1,0,0:0:0:0:
64,192,104325,1,0,0:0:0:0:
192,192,104325,1,8,0:0:0:0:
448,192,104492,1,0,0:0:0:0:
64,192,104660,1,0,0:0:0:0:
192,192,104660,1,8,0:0:0:0:
448,192,104828,1,0,0:0:0:0:
448,192,104995,1,4,0:0:0:0:
192,192,104995,1,0,0:0:0:0:
64,192,104995,128,0,105330:1:0:0:0:
192,192,105163,1,0,0:0:0:0:
448,0,105330,128,0,105666:1:0:0:0:
64,192,105498,1,4,0:0:0:0:
192,192,105498,1,4,0:0:0:0:
320,192,105498,1,0,0:0:0:0:
192,192,105666,1,8,0:0:0:0:
320,0,105666,128,0,106001:1:0:0:0:
448,192,105833,1,0,0:0:0:0:
64,0,106001,128,0,106336:1:0:0:0:
192,192,106168,1,0,0:0:0:0:
192,192,106336,1,4,0:0:0:0:
320,192,106336,1,4,0:0:0:0:
448,0,106336,128,0,106671:1:0:0:0:
64,192,106504,1,0,0:0:0:0:
64,0,106671,128,0,107006:1:0:0:0:
448,192,106839,1,0,0:0:0:0:
320,0,107006,128,0,107677:1:0:0:0:
448,192,107006,1,0,3:0:0:0:
192,192,107090,1,0,3:0:0:0:
64,192,107174,1,0,3:0:0:0:
448,192,107258,1,0,3:0:0:0:
64,192,107342,1,0,3:0:0:0:
192,192,107342,1,8,0:0:0:0:
448,192,107425,1,0,3:0:0:0:
192,192,107509,1,0,3:0:0:0:
64,192,107593,1,0,3:0:0:0:
192,192,107677,1,4,0:0:0:0:
448,0,107677,128,0,108012:1:0:0:0:
320,192,107761,1,0,3:0:0:0:
64,192,107844,1,8,0:0:0:0:
192,192,107844,1,0,3:0:0:0:
320,192,107928,1,0,3:0:0:0:
64,0,108012,128,0,108347:1:0:0:0:
192,192,108012,1,0,3:0:0:0:
320,192,108096,1,0,3:0:0:0:
448,192,108180,1,0,3:0:0:0:
320,192,108263,1,0,3:0:0:0:
192,192,108347,1,8,0:0:0:0:
448,0,108347,128,0,108515:1:0:0:0:
320,192,108515,1,0,0:0:0:0:
320,192,108682,1,0,0:0:0:0:
64,192,108850,1,0,0:0:0:0:
64,192,109018,1,4,0:0:0:0:
448,192,109018,1,4,0:0:0:0:
320,0,109018,128,0,109185:1:0:0:0:
448,192,109185,1,0,0:0:0:0:
320,0,109353,128,0,110023:1:0:0:0:
64,192,109520,1,0,0:0:0:0:
64,192,109688,1,0,0:0:0:0:
192,192,109688,1,8,0:0:0:0:
448,192,109856,1,0,0:0:0:0:
64,192,110023,1,0,0:0:0:0:
448,192,110023,1,8,0:0:0:0:
192,192,110191,1,0,0:0:0:0:
64,192,110358,1,4,0:0:0:0:
448,192,110358,1,4,0:0:0:0:
320,0,110358,128,0,110694:1:0:0:0:
64,192,110526,1,0,0:0:0:0:
64,0,110694,128,0,111029:1:0:0:0:
192,192,110861,1,4,0:0:0:0:
320,192,110861,1,4,0:0:0:0:
448,192,110861,1,0,0:0:0:0:
320,192,111029,1,8,0:0:0:0:
448,0,111029,128,0,111699:1:0:0:0:
64,192,111196,1,0,0:0:0:0:
64,192,111364,1,0,0:0:0:0:
192,192,111532,1,0,0:0:0:0:
64,192,111699,1,4,0:0:0:0:
192,192,111699,1,4,0:0:0:0:
320,192,111699,1,0,0:0:0:0:
320,192,111867,1,0,0:0:0:0:
448,192,111867,1,8,0:0:0:0:
192,192,112034,1,0,0:0:0:0:
64,192,112202,1,0,0:0:0:0:
64,0,112370,128,0,112705:1:0:0:0:
448,192,112537,1,0,0:0:0:0:
192,192,112705,1,0,0:0:0:0:
320,192,112705,1,8,0:0:0:0:
320,192,112872,1,0,0:0:0:0:
64,192,113040,1,4,0:0:0:0:
192,192,113040,1,0,3:0:0:0:
448,192,113040,1,4,0:0:0:0:
320,192,113124,1,0,3:0:0:0:
448,192,113208,1,0,3:0:0:0:
320,192,113291,1,0,3:0:0:0:
192,192,113375,1,0,3:0:0:0:
448,192,113375,1,8,0:0:0:0:
64,192,113459,1,0,3:0:0:0:
192,192,113543,1,0,3:0:0:0:
320,192,113627,1,0,3:0:0:0:
64,192,113710,1,4,1:0:0:0:
192,192,113710,1,0,3:0:0:0:
448,192,113710,1,8,0:0:0:0:
