osu file format v12

[General]
AudioFilename: 03 not eternity.mp3
AudioLeadIn: 0
PreviewTime: 59157
Countdown: 0
SampleSet: Soft
StackLeniency: 0.7
Mode: 0
LetterboxInBreaks: 1
WidescreenStoryboard: 1

[Editor]
DistanceSpacing: 1.2
BeatDivisor: 4
GridSize: 4

[Metadata]
Title:not eternity
TitleUnicode:not eternity
Artist:Nekomata Master
ArtistUnicode:Nekomata Master
Creator:Mesme
Version:Hard
Source:REFLEC BEAT Ver 1.5
Tags:sayonara sekai Naoyuki Sato
BeatmapID:338047
BeatmapSetID:134854

[Difficulty]
HPDrainRate:5
CircleSize:4
OverallDifficulty:5
ApproachRate:8
SliderMultiplier:2.5
SliderTickRate:2

[Events]
//Background and Video events
0,0,"bg.png",0,0
//Break Periods
2,105009,114494
2,144140,151016
//Storyboard Layer 0 (Background)
//Storyboard Layer 1 (Fail)
//Storyboard Layer 2 (Pass)
//Storyboard Layer 3 (Foreground)
//Storyboard Sound Samples
//Background Colour Transformations
3,100,163,162,255

[TimingPoints]
462,652.173913043478,3,2,0,50,1,0
5027,-200,3,2,0,40,0,0
28994,-100,3,2,0,50,0,0
32255,-100,3,1,0,40,0,0
32581,-100,3,2,0,40,0,0
37472,-100,3,1,0,40,0,0
37798,-100,3,2,0,40,0,0
42038,-100,3,2,0,20,0,0
43994,-100,3,2,0,40,0,0
47907,-100,3,1,0,40,0,0
48233,-100,3,2,0,40,0,0
53125,-100,3,1,0,40,0,0
53451,-100,3,2,0,40,0,0
57690,-200,3,1,0,30,0,0
60461,-100,3,1,0,30,0,1
60461,-100,3,1,0,30,0,1
69429,-200,3,2,0,50,0,0
70407,-100,3,1,0,40,0,0
70896,-100,3,1,0,40,0,1
79175,-100,3,1,0,40,0,0
99755,-100,3,1,0,20,0,0
101875,-100,3,1,0,40,0,0
104646,-100,3,2,0,40,0,0
115081,-133.333333333333,3,2,0,40,0,0
124211,-133.333333333333,3,2,0,50,0,0
125190,-100,3,1,0,30,0,0
125679,-100,3,1,0,40,0,1
135951,-100,3,1,0,40,0,0
136114,-100,3,1,0,40,0,1
141494,-100,3,1,0,40,0,1
143125,-133.333333333333,3,1,0,40,0,0
144103,-100,3,2,0,50,0,0
144266,-100,3,2,0,50,0,0
151603,-100,3,2,0,40,0,0
152907,-133.333333333333,3,1,0,30,0,0
154375,-100,3,1,0,40,0,1
159429,-100,3,1,0,40,0,1
161875,-100,3,2,0,40,0,0
167242,-100,3,1,0,40,0,0
167581,-100,3,2,0,40,0,0
172472,-100,3,1,0,40,0,0
172798,-100,3,2,0,40,0,0
177690,-100,3,1,0,40,0,0
178016,-100,3,2,0,40,0,0
182907,-133.333333333333,3,1,0,40,0,0
184211,-133.333333333333,3,1,0,20,0,0
184538,-100,3,2,0,50,0,0
188125,-100,3,1,0,40,0,0
203940,-100,3,1,0,40,0,0
214375,-100,3,1,0,40,0,0
219592,-100,3,1,0,40,0,0
224809,-100,3,1,0,40,0,0
229211,-100,3,1,0,30,0,0
229538,-100,3,1,0,20,0,0
229864,-100,3,2,0,40,0,0
235244,-100,3,2,0,50,0,1
239646,-100,3,1,0,50,0,1
239972,-100,3,2,0,40,0,1
244864,-100,3,1,0,50,0,0
245190,-100,3,2,0,40,0,0
250069,-100,3,1,0,50,0,0
250407,-100,3,2,0,40,0,0
253505,-100,3,2,0,40,0,1
257907,-100,3,1,0,40,0,1
258233,-100,3,2,0,40,0,1
263125,-100,3,1,0,50,0,1
263451,-100,3,2,0,40,0,0
263940,-100,3,2,0,40,0,1
268342,-100,3,1,0,50,0,0
268668,-100,3,2,0,40,0,0
271766,-100,3,2,0,40,0,0
274211,-100,3,2,0,20,0,0

[Colours]
Combo1 : 217,217,217
Combo2 : 19,165,213

[HitObjects]
64,96,5353,2,0,B|108:96|108:96|124:124,1,62.5,0|2,0:0|0:0,0:0:0:0:
160,172,6005,1,0,0:0:0:0:
220,216,6331,2,0,B|260:240|260:240|260:332,1,125,0|2,0:0|0:0,0:0:0:0:
148,316,7635,6,0,B|112:316|112:316|56:240,1,125,0|2,0:0|0:0,0:0:0:0:
196,184,8940,2,0,B|248:112|248:112|284:112,1,125,0|2,0:0|0:0,0:0:0:0:
356,128,9918,1,0,0:0:0:0:
424,156,10244,1,2,0:0:0:0:
360,292,10896,6,0,B|292:332|292:332|240:332,1,125,0|2,0:0|0:0,0:0:0:0:
116,256,12201,2,0,B|76:244|76:244|76:152,1,125,0|2,0:0|0:0,0:0:0:0:
60,88,13179,2,0,B|88:64|88:64|128:64,1,62.5,0|2,0:0|0:0,0:0:0:0:
172,112,13831,2,0,B|196:136|196:136|244:136,1,62.5,2|2,0:0|0:0,0:0:0:0:
284,88,14483,2,0,B|328:88|328:88|356:116,1,62.5,0|2,0:0|0:0,0:0:0:0:
340,100,15461,1,2,0:0:0:0:
340,100,15788,1,0,0:0:0:0:
288,48,16114,6,0,B|232:48|232:48|220:72,1,62.5
160,80,16766,2,2,B|124:80|124:80|80:176,1,125
116,308,18070,6,0,B|160:308|160:308|184:288,1,62.5
228,236,18722,2,2,B|272:192|272:192|336:192,1,125
336,192,19701,1,0,0:0:0:0:
256,69,20027,2,0,B|206:69|206:69|178:103,1,93.75,2|0,0:0|0:0,0:0:0:0:
157,133,20679,2,0,B|107:132|107:132|85:86,1,93.75,2|0,0:0|0:0,0:0:0:0:
57,117,21331,2,2,B|25:151|25:151|25:240,1,125
125,341,22635,6,0,B|157:307|157:307|157:218,1,125,0|2,0:0|0:0,0:0:0:0:
157,227,23614,1,0,0:0:0:0:
218,84,23940,6,0,B|240:85|240:85|296:100,1,62.5,0|2,0:0|0:0,0:0:0:0:
320,157,24592,2,0,B|352:158|352:158|414:79,2,125,2|0|2,0:0|0:0|0:0,0:0:0:0:
170,159,26548,1,2,0:0:0:0:
415,332,27853,6,2,B|384:334|384:334|357:319,1,62.5
349,244,28505,2,2,B|325:245|325:245|281:278,1,62.5
150,311,29157,6,0,B|105:310|105:310|56:223,1,125,2|0,0:0|0:0,0:0:0:0:
60,90,29809,2,0,B|88:48|88:48|191:48,1,125,2|0,0:0|0:0,0:0:0:0:
307,73,30461,6,0,B|345:125|345:125|291:177,1,125,2|0,0:0|0:0,0:0:0:0:
153,141,31114,2,0,B|115:193|115:193|158:235,1,125,2|0,0:0|0:0,0:0:0:0:
259,345,31766,2,0,B|308:303|308:303|308:188|308:188|386:128,1,250,2|0,0:0|0:0,0:0:0:0:
364,144,32744,1,0,0:0:0:0:
250,45,33070,5,2,0:0:0:0:
225,49,33233,1,0,0:0:0:0:
203,61,33396,1,2,0:0:0:0:
186,79,33559,1,0,0:0:0:0:
131,129,33722,2,0,B|87:128|87:128|28:198,1,125,2|0,0:0|0:0,0:0:0:0:
256,326,34375,6,0,B|304:327|304:327|372:252,1,125,2|0,0:0|0:0,0:0:0:0:
462,158,35027,1,2,0:0:0:0:
321,53,35353,1,0,0:0:0:0:
157,53,35679,2,0,B|112:53|112:53|59:121,2,125,2|0|2,0:0|0:0|0:0,0:0:0:0:
321,53,36657,1,0,0:0:0:0:
246,182,36983,6,0,B|313:166|313:166|405:238|405:238|502:202,1,250,2|0,0:0|0:0,0:0:0:0:
389,58,37961,1,0,0:0:0:0:
239,43,38288,1,2,0:0:0:0:
236,74,38451,1,0,0:0:0:0:
236,105,38614,1,2,0:0:0:0:
235,136,38777,1,0,0:0:0:0:
234,210,38940,2,2,B|157:209|157:209|126:164,1,125,2|2,0:0|0:0,0:0:0:0:
40,49,39592,6,0,B|133:50|133:50|161:111,1,125,2|0,0:0|0:0,0:0:0:0:
155,228,40244,2,0,B|248:227|248:227|276:166,1,125,2|0,0:0|0:0,0:0:0:0:
314,57,40896,1,2,0:0:0:0:
313,57,41548,2,0,B|264:57|264:57|195:105,1,125,2|0,0:0|0:0,0:0:0:0:
256,192,42201,12,2,43831,0:0:0:0:
257,84,44157,5,2,0:0:0:0:
255,282,44483,1,2,0:0:0:0:
131,187,44809,2,0,L|256:186,1,125,2|0,0:0|0:0,0:0:0:0:
382,185,45461,2,0,L|257:186,1,125,2|0,0:0|0:0,0:0:0:0:
166,65,46114,2,0,B|213:66|213:66|278:116,1,125,2|0,0:0|0:0,0:0:0:0:
418,184,46766,5,2,0:0:0:0:
269,294,47092,1,0,0:0:0:0:
130,237,47418,2,0,B|85:188|85:188|165:113,2,125,2|0|0,0:0|0:0|0:0,0:0:0:0:
193,86,48396,2,0,B|237:133|237:133|173:182,1,125,0|2,0:0|0:0,0:0:0:0:
40,193,49048,1,0,0:0:0:0:
80,337,49375,5,2,0:0:0:0:
100,322,49538,1,0,0:0:0:0:
126,305,49701,1,2,0:0:0:0:
152,287,49864,1,2,0:0:0:0:
217,249,50027,6,0,B|261:248|261:248|333:196,1,125,2|0,0:0|0:0,0:0:0:0:
285,56,50679,2,0,B|329:57|329:57|401:109,1,125,2|0,0:0|0:0,0:0:0:0:
252,150,51331,1,2,0:0:0:0:
252,150,51657,1,0,0:0:0:0:
127,67,51983,6,0,B|79:69|79:69|46:153,1,125,2|0,0:0|0:0,0:0:0:0:
134,264,52635,2,0,B|258:311|258:311|408:257,2,250,2|0|2,0:0|0:0|0:0,0:0:0:0:
66,129,54266,1,0,0:0:0:0:
222,50,54592,2,2,B|160:50|160:50|108:88,1,125
241,318,55244,6,0,B|306:319|306:319|387:272,1,125,2|0,0:0|0:0,0:0:0:0:
213,247,55896,2,0,B|148:248|148:248|67:201,1,125,2|0,0:0|0:0,0:0:0:0:
241,180,56548,2,0,B|306:181|306:181|386:143,1,125,2|0,0:0|0:0,0:0:0:0:
217,108,57201,2,0,B|146:108|146:108|65:61,1,125,2|0,0:0|0:0,0:0:0:0:
176,192,57853,6,0,B|224:224|224:224|296:184|296:184|344:216,1,187.5
344,152,59157,6,0,B|320:104|320:104|272:80,1,93.75
248,88,59809,2,0,B|212:105|212:105|188:153,1,93.75
208,224,60461,6,0,B|240:264|240:264|328:264,1,125,4|0,0:0|0:0,0:0:0:0:
448,192,61114,1,8,0:0:0:0:
328,64,61440,2,0,B|264:64|264:64|184:112,1,125
112,208,62092,2,0,B|72:208|72:208|24:112,1,125,0|8,0:0|0:0,0:0:0:0:
184,64,62744,1,0,0:0:0:0:
320,64,63070,2,0,B|400:64|400:64|448:136,1,125
448,176,63559,2,0,L|376:176,1,62.5,0|8,0:0|0:0,0:0:0:0:
232,192,64048,1,0,0:0:0:0:
120,88,64375,5,0,0:0:0:0:
96,112,64538,1,0,0:0:0:0:
80,136,64701,1,0,0:0:0:0:
64,160,64864,1,0,0:0:0:0:
32,224,65027,2,0,B|48:272|48:272|136:272,1,125,8|0,0:0|0:0,0:0:0:0:
208,152,65679,6,0,B|272:96|272:96|336:96,1,125,0|0,0:0|0:0,0:0:0:0:
312,168,66168,1,0,0:0:0:0:
312,240,66331,2,0,B|352:240|352:240|440:168,1,125,8|0,0:0|0:0,0:0:0:0:
392,40,66983,2,0,B|304:40|304:40|264:96,2,125,0|0|8,0:0|0:0|0:0,0:0:0:0:
392,40,67961,1,0,0:0:0:0:
464,168,68288,6,0,B|432:216|432:216|360:216,1,125,0|0,0:0|0:0,0:0:0:0:
328,280,68777,1,0,0:0:0:0:
288,344,68940,2,0,B|220:344|220:344|188:296,1,125,8|0,0:0|0:0,0:0:0:0:
48,192,69592,6,2,B|56:152|56:152|120:112,1,93.75
100,123,70244,1,0,0:0:0:0:
244,160,70570,1,0,0:0:0:0:
392,192,70896,6,0,B|440:192|440:192|488:120,1,125,4|0,0:0|0:0,0:0:0:0:
432,72,71385,1,0,0:0:0:0:
360,96,71548,1,8,0:0:0:0:
200,104,71875,2,0,B|240:48|240:48|304:48,2,125
192,248,72853,2,0,B|136:248|136:248|88:192,1,125,8|0,0:0|0:0,0:0:0:0:
184,64,73505,5,0,0:0:0:0:
336,48,73831,1,0,0:0:0:0:
400,88,73994,1,0,0:0:0:0:
440,152,74157,2,0,B|352:240|352:240|400:256|400:256|320:336,1,250,8|0,0:0|0:0,0:0:0:0:
348,308,75135,1,0,0:0:0:0:
203,299,75461,5,8,0:0:0:0:
289,175,75788,1,0,0:0:0:0:
392,66,76114,1,0,0:0:0:0:
289,175,76440,2,0,B|289:123|289:123|236:54,1,125,0|8,0:0|0:0,0:0:0:0:
178,175,77092,1,0,0:0:0:0:
28,185,77418,2,0,B|96:185|96:185|142:257|142:257|254:256,1,250,0|8,0:0|0:0,0:0:0:0:
179,118,78396,1,0,0:0:0:0:
316,59,78722,6,0,B|381:59|381:59|429:108,1,125,4|0,0:0|0:0,0:0:0:0:
478,241,79375,2,0,B|420:283|420:283|327:285,1,125,8|0,0:0|0:0,0:0:0:0:
211,324,80027,2,0,B|122:326|122:326|66:226|66:226|119:226,1,250,0|8,0:0|0:0,0:0:0:0:
262,227,81005,1,0,0:0:0:0:
356,149,81331,5,0,0:0:0:0:
356,149,81657,2,0,B|358:80|358:80|281:58,1,125,0|8,0:0|0:0,0:0:0:0:
150,70,82309,1,0,0:0:0:0:
150,70,82635,2,0,B|85:73|85:73|36:146,1,125
31,195,83125,1,0,0:0:0:0:
44,268,83288,2,0,B|108:269|108:269|158:222,1,125,8|0,0:0|0:0,0:0:0:0:
277,118,83940,6,0,B|316:67|316:67|386:67|386:67|460:28,1,187.5
459,127,84592,1,8,0:0:0:0:
457,282,84918,2,0,B|412:323|412:323|306:322,1,125
347,322,85570,1,0,0:0:0:0:
223,320,85896,6,0,B|222:260|222:260|308:201,1,125,8|0,0:0|0:0,0:0:0:0:
275,223,86385,1,0,0:0:0:0:
320,158,86548,2,0,B|354:93|354:93|296:43,1,125
164,71,87201,2,0,B|98:96|98:96|78:159,2,125,8|0|0,0:0|0:0|0:0,0:0:0:0:
253,190,88179,1,0,0:0:0:0:
342,310,88505,2,0,B|408:310|408:310|447:242,1,125,8|0,0:0|0:0,0:0:0:0:
472,112,89157,6,0,B|389:113|389:113|343:55|343:55|270:50,1,187.5
252,97,89809,2,0,B|187:98|187:98|141:149,1,125,8|0,0:0|0:0,0:0:0:0:
31,238,90461,2,0,B|30:315|30:315|92:334,1,125
361,291,91114,5,8,0:0:0:0:
463,181,91440,1,0,0:0:0:0:
412,236,91603,1,0,0:0:0:0:
398,162,91766,2,0,B|336:162|336:162|341:239,1,125
223,319,92418,5,8,0:0:0:0:
73,211,92744,1,0,0:0:0:0:
40,144,92907,1,0,0:0:0:0:
58,71,93070,2,0,B|107:41|107:41|187:44,1,125
190,116,93559,1,0,0:0:0:0:
162,185,93722,2,0,B|107:186|107:186|32:253,1,125,8|0,0:0|0:0,0:0:0:0:
197,257,94375,6,0,B|288:221|288:221|303:193,1,125
277,56,95027,2,0,B|186:92|186:92|174:116,1,125,8|0,0:0|0:0,0:0:0:0:
339,124,95679,2,0,B|419:123|419:123|472:153,1,125
460,220,96168,1,0,0:0:0:0:
440,292,96331,2,0,B|358:295|358:295|309:319,1,125,8|0,0:0|0:0,0:0:0:0:
158,304,96983,5,0,0:0:0:0:
54,189,97309,1,0,0:0:0:0:
216,103,97635,2,0,B|163:71|163:71|92:114,2,125,8|0|0,0:0|0:0|0:0,0:0:0:0:
207,272,98614,1,0,0:0:0:0:
324,178,98940,5,0,0:0:0:0:
346,155,99103,1,0,0:0:0:0:
317,141,99266,1,0,0:0:0:0:
343,116,99429,1,0,0:0:0:0:
316,100,99592,1,4,0:0:0:0:
256,192,99755,12,0,101548,0:0:0:0:
178,98,102201,6,0,B|117:128|117:128|140:187,1,125
361,291,102853,6,0,B|404:238|404:238|363:198,1,125
149,70,103505,6,0,B|88:100|88:100|111:159,1,125
320,285,104157,6,0,B|363:232|363:232|322:192,1,125
296,209,104646,1,0,0:0:0:0:
268,224,104809,1,4,0:0:0:0:
68,68,115244,6,0,B|68:144|68:144|113:116,1,93.7500035762788,2|0,0:0|0:0,0:0:0:0:
164,115,115896,1,2,0:0:0:0:
195,183,116222,2,0,B|194:253|194:253|170:236,1,93.7500035762788,0|2,0:0|0:0,0:0:0:0:
105,209,116875,1,0,0:0:0:0:
36,238,117201,2,0,B|36:296|36:296|66:330,1,93.7500035762788,2|0,0:0|0:0,0:0:0:0:
133,307,117853,1,2,0:0:0:0:
269,274,118179,5,2,0:0:0:0:
310,251,118505,1,2,0:0:0:0:
351,228,118831,1,2,0:0:0:0:
411,133,119157,6,2,B|407:83|407:83|381:67,1,46.8750017881394
360,55,119483,1,0,0:0:0:0:
250,29,119809,1,2,0:0:0:0:
163,101,120135,1,0,0:0:0:0:
185,211,120461,6,0,B|199:283|199:283|256:298,1,93.7500035762788,2|0,0:0|0:0,0:0:0:0:
331,313,121114,2,0,B|391:311|391:311|419:277,2,93.7500035762788,2|0|2,0:0|0:0|0:0,0:0:0:0:
218,310,122092,1,0,0:0:0:0:
122,251,122418,2,0,B|56:249|56:249|33:194,1,93.7500035762788,2|0,0:0|0:0,0:0:0:0:
74,114,123070,1,2,0:0:0:0:
170,56,123396,5,2,0:0:0:0:
209,79,123722,1,2,0:0:0:0:
244,115,124048,1,2,0:0:0:0:
189,213,124375,2,2,B|253:281|253:281|345:187,1,187.500007152558
344,64,125353,1,0,0:0:0:0:
189,55,125679,6,0,B|109:56|109:56|80:114,1,125,4|0,0:0|0:0,0:0:0:0:
67,220,126331,1,8,0:0:0:0:
180,317,126657,2,0,B|254:316|254:316|233:269,2,125
205,169,127635,2,0,B|177:111|177:111|231:76,1,125,8|0,0:0|0:0,0:0:0:0:
298,51,128125,1,0,0:0:0:0:
368,77,128288,6,0,B|442:116|442:116|464:171,1,125
443,228,128777,2,0,L|395:283,1,62.5,0|8,0:0|0:0,0:0:0:0:
229,308,129266,2,0,B|299:308|299:308|342:266,2,125
86,276,130244,2,0,B|33:238|33:238|103:200,1,125,8|0,0:0|0:0,0:0:0:0:
193,70,130896,5,0,0:0:0:0:
342,75,131222,2,0,B|294:73|294:73|239:142,1,125,0|8,0:0|0:0,0:0:0:0:
117,211,131875,2,0,B|176:211|176:211|262:258,1,125
376,212,132527,2,0,B|376:136|376:136|432:88,2,125,0|8|0,0:0|0:0|0:0,0:0:0:0:
256,300,133505,6,0,B|176:300|176:300|120:256,1,125
76,220,133994,1,0,0:0:0:0:
44,152,134157,2,0,B|48:88|48:88|104:52,1,125,8|0,0:0|0:0,0:0:0:0:
248,56,134809,2,0,B|316:56|316:56|376:112,1,125
380,244,135461,5,0,0:0:0:0:
352,260,135625,1,0,0:0:0:0:
324,276,135788,1,0,0:0:0:0:
296,292,135951,1,0,0:0:0:0:
228,320,136114,6,0,B|228:216|228:216|280:188,1,125,4|0,0:0|0:0,0:0:0:0:
388,140,136766,1,8,0:0:0:0:
264,56,137092,1,0,0:0:0:0:
116,48,137418,2,0,B|48:48|48:48|48:112,1,125
76,264,138070,2,0,B|152:264|152:264|156:188,1,125,8|0,0:0|0:0,0:0:0:0:
240,92,138722,6,0,B|312:92|312:92|384:116,1,125
412,164,139211,1,0,0:0:0:0:
440,236,139375,2,0,B|440:312|440:312|356:320,2,125,8|0|0,0:0|0:0|0:0,0:0:0:0:
360,108,140353,1,0,0:0:0:0:
228,36,140679,5,0,0:0:0:0:
228,68,140842,1,0,0:0:0:0:
196,68,141005,1,0,0:0:0:0:
164,68,141168,1,0,0:0:0:0:
88,68,141331,5,4,0:0:0:0:
36,208,141657,1,0,0:0:0:0:
152,304,141983,1,8,0:0:0:0:
276,216,142309,1,0,0:0:0:0:
240,72,142635,2,0,B|288:32|288:32|368:32,1,125
300,132,143288,2,0,B|412:208|412:208|456:156,1,187.500007152558,0|4,0:0|0:0,0:0:0:0:
392,64,151766,5,0,0:0:0:0:
368,64,152092,1,0,0:0:0:0:
344,64,152418,1,2,0:0:0:0:
320,64,152744,1,2,0:0:0:0:
256,132,153070,5,0,0:0:0:0:
276,132,153396,1,0,0:0:0:0:
324,132,153722,5,0,0:0:0:0:
336,132,153885,1,0,0:0:0:0:
348,132,154048,1,0,0:0:0:0:
360,132,154211,1,0,0:0:0:0:
428,128,154375,6,0,B|428:228|428:228|452:248,1,125,4|0,0:0|0:0,0:0:0:0:
312,300,155027,1,8,0:0:0:0:
164,288,155353,2,0,B|164:228|164:228|232:228,1,125
100,148,156005,2,0,B|100:80|100:80|44:80,2,125,0|8|0,0:0|0:0|0:0,0:0:0:0:
96,296,156983,6,0,B|172:296|172:296|240:224,1,125
256,208,157472,1,0,0:0:0:0:
300,148,157635,2,0,B|356:60|356:60|320:56,1,125,8|0,0:0|0:0,0:0:0:0:
180,52,158288,5,0,0:0:0:0:
156,72,158451,1,0,0:0:0:0:
132,92,158614,1,0,0:0:0:0:
108,112,158777,1,0,0:0:0:0:
56,164,158940,1,8,0:0:0:0:
204,168,159266,1,0,0:0:0:0:
352,164,159592,6,0,B|424:164|424:164|476:204,1,125,4|0,0:0|0:0,0:0:0:0:
412,340,160244,2,0,B|316:340|316:340|288:312,1,125,8|0,0:0|0:0,0:0:0:0:
140,276,160896,2,0,B|140:112|140:112|184:144,1,187.5
232,116,161548,2,0,B|232:280|232:280|188:248,1,187.5,8|0,0:0|0:0,0:0:0:0:
212,266,162201,5,2,0:0:0:0:
364,272,162527,1,0,0:0:0:0:
460,156,162853,2,0,B|460:84|460:84|392:48,1,125,2|0,0:0|0:0,0:0:0:0:
256,60,163505,2,2,B|176:60|176:60|176:176|176:176|96:176,1,250
122,177,164483,1,0,0:0:0:0:
122,177,164809,1,2,0:0:0:0:
404,277,165461,5,2,0:0:0:0:
404,277,165788,1,0,0:0:0:0:
404,277,166114,1,2,0:0:0:0:
156,95,166766,1,2,0:0:0:0:
425,182,167418,6,0,B|344:182|344:182|283:224,1,125
183,290,168070,2,0,B|117:291|117:291|63:242,1,125,2|0,0:0|0:0,0:0:0:0:
87,102,168722,2,0,B|141:60|141:60|204:61,1,125,2|0,0:0|0:0,0:0:0:0:
347,70,169375,1,2,0:0:0:0:
435,190,169701,1,0,0:0:0:0:
325,292,170027,6,0,L|256:324,1,62.5,2|0,0:0|0:0,0:0:0:0:
254,244,170353,2,2,L|171:272,1,62.5
132,222,170679,2,0,B|81:181|81:181|83:118,1,125,2|0,0:0|0:0,0:0:0:0:
85,120,171331,1,2,0:0:0:0:
391,70,171983,2,0,B|449:99|449:99|398:138,1,125,2|0,0:0|0:0,0:0:0:0:
259,96,172635,5,0,0:0:0:0:
53,321,173288,1,2,0:0:0:0:
53,321,173614,1,0,0:0:0:0:
154,210,173940,1,2,0:0:0:0:
257,101,174266,1,0,0:0:0:0:
408,60,174592,6,0,B|321:60|321:60|247:101,1,125,2|0,0:0|0:0,0:0:0:0:
212,82,175081,1,0,0:0:0:0:
142,117,175244,2,2,B|206:161|206:161|256:161,1,125
400,191,175896,2,0,B|398:274|398:274|361:316,1,125,2|0,0:0|0:0,0:0:0:0:
301,335,176385,1,0,0:0:0:0:
226,345,176548,2,0,B|229:254|229:254|272:219,1,125,2|0,0:0|0:0,0:0:0:0:
319,78,177201,5,2,0:0:0:0:
287,78,177364,1,0,0:0:0:0:
258,90,177527,1,0,0:0:0:0:
121,152,177853,6,0,B|62:187|62:187|61:258,1,125
200,317,178505,2,0,B|247:197|247:197|374:197,2,250,2|2|2,0:0|0:0|0:0,0:0:0:0:
200,318,180135,1,0,0:0:0:0:
99,195,180461,6,0,B|49:151|49:151|117:100,1,125,2|0,0:0|0:0,0:0:0:0:
232,52,181114,1,2,0:0:0:0:
374,100,181440,1,0,0:0:0:0:
441,234,181766,1,2,0:0:0:0:
315,316,182092,5,0,0:0:0:0:
283,316,182255,1,0,0:0:0:0:
257,299,182418,1,2,0:0:0:0:
282,281,182581,1,2,0:0:0:0:
301,256,182744,1,2,0:0:0:0:
365,164,183070,6,0,B|329:104|329:104|233:163|233:163|146:98|146:98|76:184,1,375.000014305115
95,164,185027,1,2,0:0:0:0:
95,164,185353,1,0,0:0:0:0:
95,164,185516,1,2,0:0:0:0:
256,192,185679,12,2,187961,0:0:0:0:
87,66,188288,6,0,B|155:65|155:65|278:152,1,187.5,4|0,0:0|0:0,0:0:0:0:
188,195,188940,2,0,B|240:240|240:240|294:202,1,125,8|0,0:0|0:0,0:0:0:0:
334,65,189592,2,0,B|401:65|401:65|451:138,1,125,0|0,0:0|0:0,0:0:0:0:
390,261,190244,5,8,0:0:0:0:
256,328,190570,2,0,B|216:272|216:272|283:238,1,125,0|0,0:0|0:0,0:0:0:0:
268,245,191222,1,0,0:0:0:0:
402,178,191548,5,8,0:0:0:0:
401,176,191875,2,0,B|441:120|441:120|361:86,1,125,0|0,0:0|0:0,0:0:0:0:
259,83,192527,2,0,L|178:83,1,62.5
116,87,192853,2,0,B|46:86|46:86|45:168,1,125,8|0,0:0|0:0,0:0:0:0:
121,269,193505,6,0,B|242:313|242:313|285:248,1,187.5,0|0,0:0|0:0,0:0:0:0:
233,178,194157,1,8,0:0:0:0:
362,102,194483,2,0,B|323:50|323:50|231:48,1,125,0|0,0:0|0:0,0:0:0:0:
263,50,195135,1,0,0:0:0:0:
119,92,195461,1,8,0:0:0:0:
263,49,195788,1,0,0:0:0:0:
382,139,196114,6,0,B|391:74|391:74|331:48,1,125,0|0,0:0|0:0,0:0:0:0:
316,257,196766,2,0,B|251:266|251:266|225:206,1,125,8|0,0:0|0:0,0:0:0:0:
78,188,197418,2,0,B|78:104|78:104|172:53|172:53|212:65,2,187.5
179,298,198722,6,0,B|243:328|243:328|360:288,1,187.5,4|0,0:0|0:0,0:0:0:0:
313,226,199375,2,0,B|248:246|248:246|193:215,1,125,8|0,0:0|0:0,0:0:0:0:
50,195,200027,2,0,B|158:66|158:66|255:64,1,250,0|8,0:0|0:0,0:0:0:0:
399,73,201005,2,0,B|466:74|466:74|456:132,1,125
310,67,201657,1,0,0:0:0:0:
167,68,201983,2,0,B|96:67|96:67|108:148,1,125,8|0,0:0|0:0,0:0:0:0:
243,174,202635,2,0,B|314:173|314:173|302:254,1,125
170,290,203288,5,0,0:0:0:0:
144,269,203451,1,0,0:0:0:0:
120,248,203614,1,0,0:0:0:0:
97,226,203777,1,0,0:0:0:0:
42,174,203940,6,0,B|46:103|46:103|131:143,1,125,4|0,0:0|0:0,0:0:0:0:
204,227,204592,2,0,B|253:266|253:266|283:139,1,187.5,8|0,0:0|0:0,0:0:0:0:
283,146,205244,2,0,B|298:75|298:75|360:155,1,125
458,193,205896,2,0,B|384:194|384:194|352:150,1,125,8|0,0:0|0:0,0:0:0:0:
231,50,206548,5,0,0:0:0:0:
169,61,206875,1,0,0:0:0:0:
91,118,207201,1,8,0:0:0:0:
38,231,207527,1,0,0:0:0:0:
181,250,207853,2,0,B|230:185|230:185|281:238|281:238|353:145,1,250,0|8,0:0|0:0,0:0:0:0:
339,162,208831,1,0,0:0:0:0:
467,84,209157,6,0,B|466:230|466:230|440:266,1,187.5,4|0,0:0|0:0,0:0:0:0:
380,306,209809,1,8,0:0:0:0:
225,307,210135,2,0,B|276:258|276:258|345:259,2,125
90,240,211114,6,0,B|37:197|37:197|38:120,1,125,8|0,0:0|0:0,0:0:0:0:
154,58,211766,2,0,B|219:57|219:57|276:98,2,125,0|0|8,0:0|0:0|0:0,0:0:0:0:
153,58,212744,1,0,0:0:0:0:
221,191,213070,2,0,B|291:193|291:193|340:144,1,125
379,295,213722,5,0,0:0:0:0:
398,270,213885,1,0,0:0:0:0:
417,245,214048,1,0,0:0:0:0:
430,217,214211,1,0,0:0:0:0:
398,148,214375,6,0,B|442:99|442:99|359:63,1,125,0|0,0:0|0:0,0:0:0:0:
234,55,215027,2,0,B|89:55|89:55|59:106,1,187.5,8|0,0:0|0:0,0:0:0:0:
47,159,215679,2,0,B|46:224|46:224|109:254,1,125
241,317,216331,1,8,0:0:0:0:
187,168,216657,1,0,0:0:0:0:
312,95,216983,6,0,B|391:95|391:95|437:131,1,125
446,261,217635,2,0,B|350:260|350:260|312:233,1,125,8|0,0:0|0:0,0:0:0:0:
223,143,218288,2,0,B|166:193|166:193|166:285,1,125
58,137,218940,5,0,0:0:0:0:
79,114,219103,1,0,0:0:0:0:
102,93,219266,1,0,0:0:0:0:
125,72,219429,1,0,0:0:0:0:
197,53,219592,6,0,B|271:50|271:50|334:72,1,125,4|0,0:0|0:0,0:0:0:0:
436,160,220244,1,8,0:0:0:0:
286,160,220570,1,0,0:0:0:0:
136,160,220896,2,0,B|71:162|71:162|36:214,2,125,0|0|8,0:0|0:0|0:0,0:0:0:0:
136,161,221875,1,0,0:0:0:0:
249,259,222201,2,0,B|179:258|179:258|129:224,1,125
70,91,222853,2,0,B|125:31|125:31|209:28,1,125,8|0,0:0|0:0,0:0:0:0:
313,63,223505,5,0,0:0:0:0:
313,63,223831,1,0,0:0:0:0:
432,153,224157,1,0,0:0:0:0:
400,153,224320,1,0,0:0:0:0:
368,156,224483,1,0,0:0:0:0:
336,156,224646,1,0,0:0:0:0:
260,156,224809,6,0,B|192:156|192:156|136:180,1,125,4|0,0:0|0:0,0:0:0:0:
252,280,225461,2,0,B|368:280|368:280|384:264,1,125,8|0,0:0|0:0,0:0:0:0:
428,220,225951,1,0,0:0:0:0:
464,156,226114,2,0,B|464:72|464:72|424:32,1,125
272,48,226766,1,8,0:0:0:0:
272,48,227092,1,0,0:0:0:0:
272,48,227255,1,0,0:0:0:0:
196,48,227418,6,0,B|112:48|112:48|72:80,1,125
76,224,228070,2,0,B|184:224|184:224|200:208,2,125,8|0|0,0:0|0:0|0:0,0:0:0:0:
76,224,229048,1,0,0:0:0:0:
152,92,229375,5,0,0:0:0:0:
180,80,229538,1,0,0:0:0:0:
208,96,229701,1,0,0:0:0:0:
236,80,229864,1,0,0:0:0:0:
264,92,230027,5,2,0:0:0:0:
328,92,230353,2,0,B|424:92|424:92|448:112,1,125,0|2,0:0|0:0,0:0:0:0:
376,212,231331,2,0,B|292:212|292:212|252:192,1,125,2|0,0:0|0:0,0:0:0:0:
256,132,231983,1,0,0:0:0:0:
256,132,232309,1,2,0:0:0:0:
256,132,232472,1,2,0:0:0:0:
196,176,232635,5,2,0:0:0:0:
144,212,232961,1,0,0:0:0:0:
96,172,233288,1,2,0:0:0:0:
196,284,233614,5,0,0:0:0:0:
248,248,233940,1,2,0:0:0:0:
276,260,234103,1,2,0:0:0:0:
300,284,234266,1,2,0:0:0:0:
448,288,234592,2,4,B|448:216|448:216|400:176,1,125,2|2,0:0|0:0,0:0:0:0:
316,64,235244,5,4,0:0:0:0:
168,52,235570,2,0,B|220:124|220:124|280:124,1,125,0|2,0:0|0:0,0:0:0:0:
384,136,236222,2,0,B|448:136|448:136|448:232,1,125,0|2,0:0|0:0,0:0:0:0:
296,204,236875,1,0,0:0:0:0:
140,200,237201,1,2,0:0:0:0:
140,200,237527,1,0,0:0:0:0:
216,328,237853,5,2,0:0:0:0:
364,328,238179,2,0,B|440:328|440:328|468:268,2,125,0|2|0,0:0|0:0|0:0,0:0:0:0:
248,224,239157,2,0,B|164:224|164:224|120:260,1,125,2|0,0:0|0:0,0:0:0:0:
200,112,239809,2,0,B|248:64|248:64|332:60,1,125,0|0,0:0|0:0,0:0:0:0:
428,148,240461,5,2,0:0:0:0:
296,240,240788,2,0,B|248:280|248:280|196:236,2,125,0|2|0,0:0|0:0|0:0,0:0:0:0:
300,92,241766,2,0,B|256:48|256:48|208:108,1,125,2|0,0:0|0:0,0:0:0:0:
216,96,242418,1,2,0:0:0:0:
80,188,242744,1,0,0:0:0:0:
188,304,243070,6,2,B|256:328|256:328|296:292,1,125
184,168,243722,2,2,B|116:120|116:120|184:56,1,125,2|0,0:0|0:0,0:0:0:0:
216,65,244211,1,0,0:0:0:0:
291,68,244375,2,2,B|371:68|371:68|407:112,1,125
470,235,245027,1,0,0:0:0:0:
470,235,245353,1,0,0:0:0:0:
242,312,245679,6,0,B|166:312|166:312|114:285,1,125,2|0,0:0|0:0,0:0:0:0:
59,152,246331,1,2,0:0:0:0:
192,82,246657,2,0,B|104:82|104:82|64:102,2,125,0|2|0,0:0|0:0|0:0,0:0:0:0:
293,192,247635,2,0,B|225:192|225:192|173:144,1,125,2|0,0:0|0:0,0:0:0:0:
79,44,248288,5,2,0:0:0:0:
225,74,248614,1,0,0:0:0:0:
285,211,248940,1,2,0:0:0:0:
186,323,249266,1,0,0:0:0:0:
48,172,249592,2,0,B|64:80|64:80|136:48,1,125,2|0,0:0|0:0,0:0:0:0:
236,88,250244,2,0,B|312:88|312:88|372:56,1,125
452,180,250896,6,0,B|368:180|368:180|316:224,1,125,2|0,0:0|0:0,0:0:0:0:
212,292,251548,2,2,B|260:248|260:248|328:248,1,125,0|2,0:0|0:0,0:0:0:0:
364,104,252201,2,2,B|280:104|280:104|228:148,1,125
120,208,252853,2,2,B|168:164|168:164|236:164,1,125,2|0,0:0|0:0,0:0:0:0:
124,68,253505,6,0,B|60:68|60:68|60:136,1,125,4|0,0:0|0:0,0:0:0:0:
216,68,254157,1,2,0:0:0:0:
336,156,254483,2,0,B|336:68|336:68|280:68,2,125,0|2|0,0:0|0:0|0:0,0:0:0:0:
204,228,255461,2,0,B|204:156|204:156|268:156,1,125,2|0,0:0|0:0,0:0:0:0:
408,164,256114,6,0,B|476:164|476:164|476:236,1,125,2|0,0:0|0:0,0:0:0:0:
336,164,256766,2,0,B|336:100|336:100|272:100,1,125,2|0,0:0|0:0,0:0:0:0:
124,116,257418,1,2,0:0:0:0:
124,148,257581,1,0,0:0:0:0:
124,180,257744,1,2,0:0:0:0:
124,212,257907,1,0,0:0:0:0:
120,288,258070,6,0,B|56:288|56:288|56:216,1,125
60,76,258722,1,2,0:0:0:0:
208,80,259048,2,0,B|292:80|292:80|292:132,1,125,0|2,0:0|0:0,0:0:0:0:
204,228,259701,2,0,B|204:300|204:300|260:300,2,125,0|2|0,0:0|0:0|0:0,0:0:0:0:
208,80,260679,2,0,B|292:80|292:80|292:132,1,125,2|0,0:0|0:0,0:0:0:0:
376,244,261331,6,0,B|452:244|452:244|452:180,2,125,2|0|2,0:0|0:0|0:0,0:0:0:0:
236,196,262309,1,0,0:0:0:0:
140,80,262635,2,0,B|64:80|64:80|64:144,2,125,2|0|0,0:0|0:0|0:0,0:0:0:0:
140,80,263614,1,0,0:0:0:0:
296,80,263940,5,2,0:0:0:0:
412,176,264266,1,0,0:0:0:0:
272,228,264592,2,0,B|196:228|196:228|160:184,1,125,2|0,0:0|0:0,0:0:0:0:
76,64,265244,2,0,B|144:64|144:64|184:108,2,125,2|0|2,0:0|0:0|0:0,0:0:0:0:
220,108,266222,1,0,0:0:0:0:
212,248,266548,6,0,B|212:320|212:320|264:320,1,125,2|0,0:0|0:0,0:0:0:0:
380,248,267201,1,2,0:0:0:0:
384,100,267527,1,0,0:0:0:0:
236,96,267853,5,2,0:0:0:0:
212,116,268016,1,0,0:0:0:0:
188,96,268179,1,2,0:0:0:0:
164,116,268342,1,0,0:0:0:0:
140,96,268505,5,0,0:0:0:0:
76,96,268831,1,2,0:0:0:0:
85,245,269157,6,0,B|85:309|85:309|153:309,1,125,2|0,0:0|0:0,0:0:0:0:
181,243,269646,1,0,0:0:0:0:
241,198,269809,2,0,B|305:198|305:198|305:138,1,125,2|0,0:0|0:0,0:0:0:0:
440,71,270461,2,0,B|356:71|356:71|314:129,1,125,2|0,0:0|0:0,0:0:0:0:
253,221,270951,1,0,0:0:0:0:
227,202,271114,5,2,0:0:0:0:
239,173,271277,1,0,0:0:0:0:
270,174,271440,1,2,0:0:0:0:
281,203,271603,1,2,0:0:0:0:
256,192,271766,5,6,0:0:0:0:
256,192,271929,12,6,274375,0:0:0:0:
