osu file format v10

[General]
AudioFilename: smospt.mp3
AudioLeadIn: 0
PreviewTime: 68914
Countdown: 0
SampleSet: Soft
StackLeniency: 0.4
Mode: 0
LetterboxInBreaks: 0

[Editor]
Bookmarks: 14807,25085,146910,148894,152783,153021,153498,153656,157307,157466,160402,160561,161117,161275,162307,162545,164133,170879,171831,172307,172545,177466,178498,178974,179371,183259,183974,187704,194529,195402,198418,199133,203021,205958,206752,209847,225006
DistanceSpacing: 0.8
BeatDivisor: 6
GridSize: 4

[Metadata]
Title:Smile of Split
TitleUnicode:Smile of Split
Artist:Nekomata Master
ArtistUnicode:Nekomata Master
Creator:Charles445
Version:Insane
Source:
Tags:Naoyuki Sato raindrops mmzz
BeatmapID:171678
BeatmapSetID:56847

[Difficulty]
HPDrainRate:6
CircleSize:4
OverallDifficulty:8
ApproachRate:9
SliderMultiplier:2.8
SliderTickRate:1

[Events]
//Background and Video events
0,0,"sorryztrot.jpg"
//Break Periods
2,84412,98850
2,147069,148374
//Storyboard Layer 0 (Background)
//Storyboard Layer 1 (Fail)
//Storyboard Layer 2 (Pass)
//Storyboard Layer 3 (Foreground)
//Storyboard Sound Samples
//Background Colour Transformations
3,100,163,162,255

[TimingPoints]
402.857142857143,476.190476190476,4,2,1,60,1,0
30998,-100,4,2,1,60,0,0
31712,-100,4,2,1,40,0,0
51057,-100,4,2,1,45,0,0
51771,-100,4,2,1,50,0,0
52902,-100,4,2,1,40,0,0
53676,-100,4,2,1,60,0,0
68914,-117.647058823529,4,2,1,60,0,0
70720,-100,4,2,1,60,0,0
84133,-133.333333333333,4,2,1,60,0,0
99390,-133.333333333333,4,2,1,20,0,0
99926,-133.333333333333,4,2,1,25,0,0
100164,-133.333333333333,4,2,1,30,0,0
100402,-133.333333333333,4,2,1,35,0,0
100640,-133.333333333333,4,2,1,40,0,0
100879,-133.333333333333,4,2,1,45,0,0
101275,-125,4,2,1,45,0,0
116474,-117.647058823529,4,2,1,60,0,0
131712,-111.111111111111,4,2,1,60,0,0
139390,-105.263157894737,4,2,1,65,0,0
143200,-100,4,2,1,70,0,0
148894,-80,4,1,1,55,0,0
177545,-100,4,2,1,60,0,0
177724,-100,4,2,1,45,0,0
178140,-100,4,2,1,50,0,0
178438,-100,4,2,1,55,0,0
179331,-100,4,2,1,60,0,0
182724,-100,4,1,1,55,0,0
182843,-100,4,2,1,60,0,0
186533,-100,4,1,1,55,0,0
186652,-100,4,2,1,60,0,0
190343,-100,4,1,1,55,0,0
190462,-100,4,2,1,60,0,0
194152,-100,4,1,1,55,0,0
194291,-100,4,2,1,70,0,0
197962,-100,4,1,1,65,0,0
198101,-100,4,2,1,70,0,0
201771,-100,4,1,1,65,0,0
201890,-100,4,2,1,70,0,0
205581,-100,4,2,1,65,0,0
205700,-100,4,2,1,70,0,0
209847,-111.111111111111,4,1,1,65,0,0
210283,-111.111111111111,4,1,1,50,0,0
216057,-111.111111111111,4,1,1,55,0,0
217486,-111.111111111111,4,1,1,50,0,0
220343,-111.111111111111,4,1,1,55,0,0
220462,-111.111111111111,4,1,1,50,0,0
221295,-111.111111111111,4,1,1,55,0,0
223200,-111.111111111111,4,1,1,50,0,0
223617,-111.111111111111,4,1,1,45,0,0
224093,-111.111111111111,4,1,1,40,0,0
224331,-111.111111111111,4,1,1,40,0,0
225085,-111.111111111111,4,2,1,45,0,0

[Colours]
Combo1 : 255,179,64
Combo2 : 234,132,255
Combo3 : 134,134,253

[HitObjects]
123,261,15640,6,0,B|147:309|211:309,1,93.3333333333333,4|0,0:0|0:0,0:0:0
319,309,15879,2,0,B|369:292|384:249,1,93.3333333333333,2|0,0:0|0:0,0:0:0
384,128,16117,2,0,B|360:80|296:80,1,93.3333333333333,8|0,0:0|0:0,0:0:0
184,72,16355,2,0,B|124:68,2,46.6666666666667,2|2|2,0:0|0:0|0:0,0:0:0
260,164,16593,6,0,B|296:256,1,93.3333333333333,2|8,0:0|0:0,0:0:0
128,256,16831,2,0,B|93:169,1,93.3333333333333,8|0,0:0|0:0,0:0:0
138,69,17069,2,0,B|194:213,1,140,8|2,0:0|0:0,0:0:0
264,348,17466,1,2,0:0:0
288,356,17545,6,0,B|342:363|370:324,1,93.3333333333333,8|0,0:0|0:0,0:0:0
377,220,17783,2,0,B|322:212|294:251,1,93.3333333333333
224,356,18021,2,0,B|169:363|141:324,1,93.3333333333333,8|0,0:0|0:0,0:0:0
80,236,18259,2,2,B|32:256,2,46.6666666666667
184,192,18498,5,8,0:0:0
312,152,18656,1,8,0:0:0
348,141,18736,1,0,0:0:0
220,100,18894,1,0,0:0:0
184,89,18974,1,8,0:0:0
312,48,19132,1,0,0:0:0
348,37,19212,2,0,B|396:24|440:56,1,93.3333333333333,8|2,0:0|0:0,0:0:0
460,76,19450,6,0,B|496:172,1,93.3333333333333,8|0,0:0|0:0,0:0:0
408,212,19688,2,0,B|444:308,1,93.3333333333333,8|0,0:0|0:0,0:0:0
356,348,19926,1,8,0:0:0
196,292,20164,1,2,0:0:0
164,280,20244,1,2,0:0:0
132,268,20323,1,2,0:0:0
100,256,20402,6,0,B|56:232|44:184,1,93.3333333333333,2|8,0:0|0:0,0:0:0
116,48,20640,2,0,B|160:72|172:120,1,93.3333333333333,8|0,0:0|0:0,0:0:0
296,264,20879,2,0,B|252:240|240:192,1,93.3333333333333,8|0,0:0|0:0,0:0:0
312,56,21117,2,0,B|356:80|368:128,1,93.3333333333333,2|2,0:0|0:0,0:0:0
408,212,21355,5,8,0:0:0
356,348,21513,1,0,0:0:0
324,368,21593,2,0,B|256:396|188:368,1,140,2|8,0:0|0:0,0:0:0
128,136,22069,2,2,B|112:92,2,46.6666666666667
240,108,22307,6,0,B|264:136|296:112|324:140,1,93.3333333333333,8|8,0:0|0:0,0:0:0
492,180,22545,2,0,B|468:208|436:184|408:212,1,93.3333333333333,8|0,0:0|0:0,0:0:0
240,252,22783,2,0,B|264:280|296:256|324:284,1,93.3333333333333,8|0,0:0|0:0,0:0:0
492,324,23021,1,8,0:0:0
240,252,23259,6,0,B|168:224|100:256,2,140,4|2|8,0:0|0:0|0:0,0:0:0
300,52,23974,1,2,0:0:0
288,84,24053,1,2,0:0:0
268,112,24133,1,2,0:0:0
240,132,24212,6,0,B|168:160|100:128,2,140,8|0|8,0:0|0:0|0:0,0:0:0
364,176,24847,1,0,0:0:0
392,192,24926,1,8,0:0:0
328,296,25085,1,2,0:0:0
300,312,25164,6,0,B|256:336|208:320,1,93.3333333333333,8|0,0:0|0:0,0:0:0
152,216,25402,2,0,B|196:192|244:208,1,93.3333333333333,2|0,0:0|0:0,0:0:0
210,320,25640,2,0,B|166:344|118:328,1,93.3333333333333,8|0,0:0|0:0,0:0:0
64,224,25879,2,0,B|20:240,2,46.6666666666667,2|2|2,0:0|0:0|0:0,0:0:0
72,188,26117,6,0,B|96:144|64:88,1,93.3333333333333,8|8,0:0|0:0,0:0:0
192,48,26355,2,0,B|168:92|200:148,1,93.3333333333333,8|0,0:0|0:0,0:0:0
292,184,26593,2,0,B|316:140|284:84,1,93.3333333333333,8|0,0:0|0:0,0:0:0
412,44,26831,2,0,B|388:88|420:144,1,93.3333333333333,2|2,0:0|0:0,0:0:0
460,224,27069,5,8,0:0:0
392,312,27228,1,0,0:0:0
372,332,27307,1,8,0:0:0
272,312,27466,1,0,0:0:0
252,332,27545,1,8,0:0:0
152,312,27704,1,0,0:0:0
136,327,27783,1,2,0:0:0
121,342,27863,1,2,0:0:0
106,357,27942,1,2,0:0:0
92,372,28021,6,0,B|44:352|36:304,1,93.3333333333333,8|8,0:0|0:0,0:0:0
28,196,28259,1,8,0:0:0
160,152,28418,1,0,0:0:0
192,144,28498,1,8,0:0:0
320,144,28656,1,0,0:0:0
352,152,28736,1,2,0:0:0
476,208,28894,1,2,0:0:0
492,232,28974,6,0,B|508:276|508:276|452:368,1,140,8|0,0:0|0:0,0:0:0
124,248,29450,2,0,B|108:204|108:204|164:112,1,140,8|2,0:0|0:0,0:0:0
188,108,29767,1,2,0:0:0
224,92,29847,1,2,0:0:0
260,92,29926,6,0,B|360:92,1,93.3333333333333,8|8,0:0|0:0,0:0:0
216,248,30164,2,0,B|122:248,1,93.3333333333333,8|0,0:0|0:0,0:0:0
353,92,30402,2,0,B|436:92|476:184,2,140,8|8|4,0:0|0:0|0:0,0:0:0
340,288,31117,5,0,0:0:0
120,296,31355,2,0,B|72:272|68:220,1,93.3333333333333
68,180,31593,1,0,0:0:0
172,212,31752,2,0,B|232:244|284:164|360:220,1,186.666666666667,2|2,0:0|0:0,0:0:0
408,24,32307,6,0,B|456:48|460:100,1,93.3333333333333
460,140,32545,1,0,0:0:0
356,108,32704,2,0,B|296:76|244:156|168:100,1,186.666666666667,2|2,0:0|0:0,0:0:0
468,256,33259,6,0,B|464:304|464:304|432:340,1,93.3333333333333
396,360,33498,1,0,0:0:0
308,288,33656,2,0,B|208:252|124:312,1,186.666666666667,2|2,0:0|0:0,0:0:0
129,76,34212,2,0,B|192:120|264:108,1,140,2|0,0:0|0:0,0:0:0
292,104,34529,1,0,0:0:0
320,92,34609,1,0,0:0:0
348,76,34688,6,0,B|408:116|408:116|436:180,1,140,2|0,0:0|0:0,0:0:0
152,320,35164,2,0,B|113:294|113:294|95:253,1,93.3333333333333
80,212,35402,1,0,0:0:0
172,184,35561,2,0,B|236:168|276:108|256:40,1,186.666666666667,2|2,0:0|0:0,0:0:0
360,320,36117,6,0,B|398:294|398:294|416:253,1,93.3333333333333
432,212,36355,1,0,0:0:0
340,184,36513,2,0,B|276:168|236:108|256:40,1,186.666666666667,2|2,0:0|0:0,0:0:0
128,128,37069,6,0,B|96:176|44:180,1,93.3333333333333
20,192,37307,1,0,0:0:0
176,204,37466,2,0,B|248:224|280:292,1,140,2|0,0:0|0:0,0:0:0
340,184,37783,2,0,B|280:113,1,93.3333333333333
370,49,38021,2,0,B|430:119,1,93.3333333333333
442,133,38259,1,0,0:0:0
454,149,38339,1,0,0:0:0
466,165,38418,1,0,0:0:0
478,181,38498,6,8,B|518:225|490:281,1,93.3333333333333,8|8,0:0|0:0,0:0:0
384,332,38736,2,0,B|344:288|372:232,1,93.3333333333333,8|0,0:0|0:0,0:0:0
332,140,38974,2,0,B|343:85|256:88|256:32,1,140,8|0,0:0|0:0,0:0:0
60,156,39371,1,2,0:0:0
34,181,39450,6,0,B|-6:225|22:281,1,93.3333333333333,8|8,0:0|0:0,0:0:0
128,332,39688,2,0,B|168:288|140:232,1,93.3333333333333,8|0,0:0|0:0,0:0:0
180,140,39926,2,0,B|170:85|256:88|256:32,1,140,8|0,0:0|0:0,0:0:0
416,176,40323,1,2,0:0:0
432,216,40402,6,0,B|456:256|436:308,1,93.3333333333333,8|8,0:0|0:0,0:0:0
324,268,40640,2,0,B|284:292|232:272,1,93.3333333333333,8|0,0:0|0:0,0:0:0
272,160,40879,2,0,B|248:120|268:68,1,93.3333333333333,8|0,0:0|0:0,0:0:0
380,108,41117,2,0,B|420:84|472:104,1,93.3333333333333,8|2,0:0|0:0,0:0:0
267,70,41355,6,0,B|172:36,1,93.3333333333333,8|8,0:0|0:0,0:0:0
188,192,41593,2,0,B|84:192,1,93.3333333333333,8|0,0:0|0:0,0:0:0
267,313,41831,2,0,B|135:365,1,140,8|0,0:0|0:0,0:0:0
356,160,42307,6,0,B|384:116|356:68,1,93.3333333333333,8|8,0:0|0:0,0:0:0
204,24,42545,2,0,B|176:68|204:116,1,93.3333333333333,8|0,0:0|0:0,0:0:0
330,269,42783,2,0,B|388:320|460:289,1,140,8|0,0:0|0:0,0:0:0
181,269,43180,1,2,0:0:0
140,272,43259,6,0,B|84:276|48:224,1,93.3333333333333,8|8,0:0|0:0,0:0:0
120,77,43498,2,0,B|176:73|212:125,1,93.3333333333333,8|0,0:0|0:0,0:0:0
356,160,43736,2,0,B|432:176|432:176|488:152,1,140,8|0,0:0|0:0,0:0:0
132,180,44133,1,2,0:0:0
96,184,44212,6,0,B|44:196|20:252,1,93.3333333333333,8|8,0:0|0:0,0:0:0
104,264,44450,2,0,B|116:316|172:340,1,93.3333333333333,8|0,0:0|0:0,0:0:0
184,256,44688,2,0,B|236:244|260:188,1,93.3333333333333,8|0,0:0|0:0,0:0:0
328,36,44926,2,0,B|276:48|252:104,1,93.3333333333333,8|2,0:0|0:0,0:0:0
336,116,45164,5,8,0:0:0
428,160,45323,1,8,0:0:0
460,184,45402,2,0,B|508:235|488:313,1,140,8|8,0:0|0:0,0:0:0
220,156,45879,2,2,B|183:125|183:125|138:129|138:129|101:98,1,140,8|0,0:0|0:0,0:0:0
256,192,46355,12,2,49450,0:0:0
64,100,49926,5,8,0:0:0
211,44,50164,2,0,B|256:27|303:44,1,93.3333333333333,8|8,0:0|0:0,0:0:0
332,56,50402,1,8,0:0:0
228,204,50640,2,0,B|183:221|136:204,1,93.3333333333333,8|8,0:0|0:0,0:0:0
104,188,50878,5,8,0:0:0
314,141,51117,1,8,0:0:0
350,135,51196,1,8,0:0:0
386,142,51275,1,8,0:0:0
420,160,51355,2,0,B|462:193|466:247,1,93.3333333333333,8|8,0:0|0:0,0:0:0
448,272,51593,1,8,0:0:0
424,300,51672,1,8,0:0:0
396,328,51752,1,8,0:0:0
364,348,51831,6,0,B|320:364|320:364|272:360,1,93.3333333333333,8|8,0:0|0:0,0:0:0
236,356,52069,1,8,0:0:0
204,340,52148,1,8,0:0:0
180,308,52228,1,8,0:0:0
168,272,52307,2,8,B|160:228,2,46.6666666666667
241,209,52545,2,8,B|233:165,2,46.6666666666667
316,148,52783,5,8,0:0:0
176,60,53021,1,10,0:0:0
140,52,53100,1,10,0:0:0
104,56,53180,1,10,0:0:0
68,68,53259,2,0,B|20:92|16:148,1,93.3333333333333,8|8,0:0|0:0,0:0:0
88,216,53498,2,0,B|136:192|140:136,1,93.3333333333333,8|0,0:0|0:0,0:0:0
256,56,53736,6,0,B|328:24|396:56,1,140,4|2,0:0|0:0,0:0:0
460,284,54212,2,0,B|388:316|320:284,1,140,8|2,0:0|0:0,0:0:0
290,271,54529,1,2,0:0:0
253,260,54609,1,2,0:0:0
216,260,54688,6,0,B|164:260|128:307,1,93.3333333333333,8|8,0:0|0:0,0:0:0
88,216,54926,2,0,B|104:148|64:80,2,140,0|8|0,0:0|0:0|0:0,0:0:0
244,128,55561,1,2,0:0:0
272,112,55640,5,8,0:0:0
392,92,55799,1,0,0:0:0
420,100,55879,2,0,B|490:137|491:214,1,140,8|8,0:0|0:0,0:0:0
352,312,56275,1,0,0:0:0
324,328,56355,2,0,B|256:356|188:328,1,140,8|8,0:0|0:0,0:0:0
120,92,56752,5,0,0:0:0
92,100,56831,2,0,B|21:137|20:214,2,140,8|8|2,0:0|0:0|0:0,0:0:0
276,64,57545,5,2,0:0:0
304,60,57625,1,2,0:0:0
332,56,57704,1,2,0:0:0
360,52,57783,2,0,B|412:44|452:60|480:112,1,140,8|8,0:0|0:0,0:0:0
332,220,58180,1,2,0:0:0
308,236,58259,1,2,0:0:0
284,252,58339,1,2,0:0:0
260,268,58418,1,2,0:0:0
236,284,58498,6,0,B|192:308|143:282,1,93.3333333333333,8|8,0:0|0:0,0:0:0
60,184,58736,2,0,B|124:139|193:167,1,140,8|8,0:0|0:0,0:0:0
480,304,59212,2,0,B|424:320|384:284,1,93.3333333333333,8|2,0:0|0:0,0:0:0
448,224,59450,6,0,B|468:140|400:88,1,140,8|2,0:0|0:0,0:0:0
101,96,59926,2,0,B|56:128|60:184,1,93.3333333333333,8|0,0:0|0:0,0:0:0
64,208,60164,1,8,0:0:0
256,140,60323,1,0,0:0:0
284,136,60402,6,0,B|332:124|380:136,1,93.3333333333333,8|8,0:0|0:0,0:0:0
224,248,60640,2,8,B|176:260|128:248,1,93.3333333333333,8|0,0:0|0:0,0:0:0
332,224,60879,2,0,B|344:272|332:320,1,93.3333333333333,8|0,0:0|0:0,0:0:0
180,160,61117,2,0,B|168:112|180:64,1,93.3333333333333,8|0,0:0|0:0,0:0:0
364,104,61355,6,0,B|432:120|456:208,1,140,4|2,0:0|0:0,0:0:0
148,280,61831,2,0,B|80:264|56:176,1,140,8|2,0:0|0:0,0:0:0
52,144,62148,1,2,0:0:0
60,108,62228,1,2,0:0:0
80,76,62307,6,0,B|116:40|168:52,1,93.3333333333333,8|8,0:0|0:0,0:0:0
266,136,62545,2,0,B|232:172|178:160,1,93.3333333333333,8|0,0:0|0:0,0:0:0
285,53,62783,2,0,B|320:16|373:29,1,93.3333333333333,8|0,0:0|0:0,0:0:0
471,113,63021,2,0,B|436:148|383:137,1,93.3333333333333,8|2,0:0|0:0,0:0:0
470,113,63259,6,0,B|490:185|430:241,1,140,8|2,0:0|0:0,0:0:0
42,113,63736,2,0,B|22:185|82:241,1,140,8|8,0:0|0:0,0:0:0
256,292,64133,1,0,0:0:0
288,292,64212,6,0,B|336:292|336:292|376:268,1,93.3333333333333,8|8,0:0|0:0,0:0:0
240,212,64450,2,0,B|192:212|192:212|152:188,1,93.3333333333333,8|0,0:0|0:0,0:0:0
288,132,64688,2,0,B|336:132|336:132|376:108,1,93.3333333333333,8|0,0:0|0:0,0:0:0
240,52,64926,2,0,B|192:52|192:52|152:28,1,93.3333333333333,8|0,0:0|0:0,0:0:0
344,36,65164,5,8,0:0:0
375,33,65244,1,0,0:0:0
408,33,65323,1,0,0:0:0
437,40,65402,1,2,0:0:0
492,144,65561,1,0,0:0:0
491,174,65640,1,8,0:0:0
448,286,65799,1,0,0:0:0
423,303,65879,1,2,0:0:0
395,311,65958,1,2,0:0:0
364,311,66037,1,2,0:0:0
336,300,66117,6,0,B|288:276|228:304,1,93.3333333333333,8|0,0:0|0:0,0:0:0
388,232,66355,2,0,B|436:168|388:104,2,140,8|8|8,0:0|0:0|0:0,0:0:0
164,208,66990,1,2,0:0:0
128,200,67069,6,0,B|76:192|40:240,1,93.3333333333333,8|0,0:0|0:0,0:0:0
92,344,67307,2,0,B|144:352|180:304,1,93.3333333333333,8|0,0:0|0:0,0:0:0
384,200,67545,2,0,B|436:192|472:240,1,93.3333333333333,8|8,0:0|0:0,0:0:0
420,344,67783,2,0,B|368:352|332:304,1,93.3333333333333,8|0,0:0|0:0,0:0:0
256,204,68021,5,8,0:0:0
152,128,68180,1,8,0:0:0
128,108,68259,1,8,0:0:0
256,80,68418,1,8,0:0:0
256,48,68498,1,8,0:0:0
360,128,68656,1,8,0:0:0
384,108,68736,1,8,0:0:0
460,212,68894,1,8,0:0:0
464,240,68974,6,0,B|476:304|420:344,1,119.000002269745,4|2,0:0|0:0,0:0:0
256,204,69450,1,0,0:0:0
152,236,69609,2,0,B|92:264|36:236,1,119.000002269745,2|2,0:0|0:0,0:0:0
96,176,69926,6,0,B|140:132|124:64,1,119.000002269745,0|2,0:0|0:0,0:0:0
375,53,70402,1,8,0:0:0
361,74,70482,1,8,0:0:0
352,98,70561,1,8,0:0:0
352,123,70640,1,8,0:0:0
404,224,70799,6,0,B|436:296|511:302,1,140,12|0,0:0|0:0,0:0:0
344,284,71117,2,0,B|276:256|208:280,2,140,8|8|8,0:0|0:0|0:0,0:0:0
208,352,71752,1,0,0:0:0
176,352,71831,6,0,B|104:344|72:264,1,140,8|8,0:0|0:0,0:0:0
176,32,72307,2,8,B|104:40|72:120,1,140,8|2,0:0|0:0,0:0:0
284,192,72783,5,2,0:0:0
320,192,72863,1,2,0:0:0
356,192,72942,1,2,0:0:0
392,192,73021,2,0,B|440:192|440:192|500:124,1,140,2|8,0:0|0:0,0:0:0
396,300,73418,1,0,0:0:0
372,320,73498,1,2,0:0:0
344,332,73577,1,0,0:0:0
312,336,73656,1,2,0:0:0
280,332,73736,6,0,B|160:300,1,93.3333333333333,8|0,0:0|0:0,0:0:0
48,192,73974,2,0,B|182:227,2,140,8|8|8,0:0|0:0|0:0,0:0:0
188,100,74609,1,2,0:0:0
216,88,74688,6,0,B|248:56|308:108|360:72,1,140,8|2,0:0|0:0,0:0:0
351,306,75164,2,0,B|308:276|248:328|216:296,1,140,8|8,0:0|0:0,0:0:0
48,192,75561,1,8,0:0:0
36,160,75640,6,0,B|12:112|52:64,1,93.3333333333333,8|8,0:0|0:0,0:0:0
188,100,75879,2,0,B|212:148|172:196,1,93.3333333333333,8|0,0:0|0:0,0:0:0
320,208,76117,2,0,B|296:160|336:112,1,93.3333333333333,8|0,0:0|0:0,0:0:0
472,148,76355,2,0,B|496:196|456:244,1,93.3333333333333,8|0,0:0|0:0,0:0:0
384,328,76593,6,0,B|320:368|236:328,1,140,12|8,0:0|0:0,0:0:0
47,71,77069,2,8,B|88:48|139:61,1,93.3333333333333,8|0,0:0|0:0,0:0:0
172,72,77307,1,2,0:0:0
208,84,77386,1,2,0:0:0
244,96,77466,1,2,0:0:0
280,108,77545,6,0,B|328:128|384:104,1,93.3333333333333,8|8,0:0|0:0,0:0:0
232,180,77783,2,0,B|184:160|128:184,1,93.3333333333333,8|0,0:0|0:0,0:0:0
304,252,78021,2,0,B|352:272|408:248,1,93.3333333333333,8|0,0:0|0:0,0:0:0
208,324,78259,2,0,B|160:304|104:328,1,93.3333333333333,8|2,0:0|0:0,0:0:0
17,318,78498,6,0,B|60:256|26:185,1,140,8|8,0:0|0:0,0:0:0
280,108,78974,2,0,B|420:68,1,140,8|8,0:0|0:0,0:0:0
484,200,79371,1,2,0:0:0
496,228,79450,5,8,0:0:0
396,248,79609,1,8,0:0:0
408,276,79688,1,8,0:0:0
308,296,79847,1,8,0:0:0
320,324,79926,1,8,0:0:0
148,172,80164,2,0,B|196:287,1,93.3333333333333,8|2,0:0|0:0,0:0:0
196,288,80402,5,2,0:0:0
208,316,80482,1,0,0:0:0
220,344,80561,1,2,0:0:0
232,372,80640,1,8,0:0:0
108,312,80799,1,0,0:0:0
96,284,80879,2,0,B|59:197,1,93.3333333333333,8|0,0:0|0:0,0:0:0
48,164,81117,1,2,0:0:0
44,128,81196,1,2,0:0:0
60,92,81275,1,2,0:0:0
88,68,81355,6,0,B|132:44|192:64,1,93.3333333333333,8|8,0:0|0:0,0:0:0
264,84,81593,2,0,B|332:116|399:89,2,140,8|8|8,0:0|0:0|0:0,0:0:0
328,192,82228,1,2,0:0:0
356,208,82307,6,0,B|420:256|408:336,1,140,8|2,0:0|0:0,0:0:0
156,208,82783,2,0,B|113:231|109:287,1,93.3333333333333,8|0,0:0|0:0,0:0:0
105,322,83021,1,8,0:0:0
220,280,83180,1,0,0:0:0
240,248,83259,6,0,B|256:212|256:212|256:152,1,93.3333333333333,8|0,0:0|0:0,0:0:0
324,88,83498,2,0,B|256:56|188:88,2,140,8|8|8,0:0|0:0|0:0,0:0:0
500,232,84212,5,4,0:0:0
256,192,99450,12,0,101117,0:0:0
372,264,101355,6,0,B|396:304|448:308,1,74.6666666666667,8|0,0:0|0:0,0:0:0
452,224,101593,2,0,B|492:200|496:148,1,74.6666666666667,0|0,0:0|0:0,0:0:0
408,152,101831,2,0,B|384:112|332:108,1,74.6666666666667,8|0,0:0|0:0,0:0:0
328,192,102069,1,0,0:0:0
220,260,102228,6,0,B|164:288|108:256,1,112,8|0,0:0|0:0,0:0:0
64,192,102545,2,0,B|96:168|136:180,1,74.6666666666667,8|0,0:0|0:0,0:0:0
268,108,102783,2,0,B|236:132|196:120,1,74.6666666666667,8|0,0:0|0:0,0:0:0
104,72,103021,1,0,0:0:0
120,48,103101,1,0,0:0:0
144,32,103180,1,0,0:0:0
172,24,103259,5,8,0:0:0
292,36,103418,1,0,0:0:0
320,40,103498,1,0,0:0:0
448,72,103656,1,0,0:0:0
476,76,103736,1,8,0:0:0
368,152,103894,1,0,0:0:0
340,160,103974,1,0,0:0:0
448,240,104133,6,0,B|476:300|448:348,1,112,8|0,0:0|0:0,0:0:0
372,292,104450,2,0,B|336:272|300:289,1,74.6666666666667,8|0,0:0|0:0,0:0:0
140,292,104688,2,0,B|176:312|216:292,1,74.6666666666667,8|0,0:0|0:0,0:0:0
256,204,104926,1,0,0:0:0
256,176,105006,1,0,0:0:0
256,148,105085,1,0,0:0:0
256,120,105164,6,0,B|256:84|256:84|232:52,1,74.6666666666667,8|0,0:0|0:0,0:0:0
156,108,105402,2,0,B|130:82|130:82|90:76,1,74.6666666666667
76,170,105640,2,0,B|39:169|39:169|7:194,1,74.6666666666667,8|0,0:0|0:0,0:0:0
64,270,105879,1,0,0:0:0
220,320,106037,6,0,B|272:340|272:340|328:340,1,112,8|0,0:0|0:0,0:0:0
472,272,106355,2,0,B|437:258|437:258|400:258,1,74.6666666666667,8|0,0:0|0:0,0:0:0
292,152,106593,2,0,B|326:165|326:165|363:165,1,74.6666666666667,8|0,0:0|0:0,0:0:0
476,80,106831,1,0,0:0:0
456,60,106910,1,0,0:0:0
428,48,106990,1,0,0:0:0
400,40,107069,6,0,B|368:28|328:40,1,74.6666666666667,8|0,0:0|0:0,0:0:0
232,68,107307,1,0,0:0:0
104,148,107466,1,0,0:0:0
76,168,107545,1,8,0:0:0
160,256,107704,1,0,0:0:0
188,276,107783,1,0,0:0:0
304,312,107942,6,0,B|368:332|416:280,1,112,8|0,0:0|0:0,0:0:0
336,224,108259,2,0,B|320:144,1,74.6666666666667,8|0,0:0|0:0,0:0:0
400,40,108498,2,0,B|414:113,1,74.6666666666667,8|0,0:0|0:0,0:0:0
280,64,108736,1,0,0:0:0
246,65,108815,1,0,0:0:0
214,66,108894,1,0,0:0:0
181,68,108974,6,0,B|140:72|120:104,1,74.6666666666667,8|0,0:0|0:0,0:0:0
20,136,109212,2,0,B|24:177|56:197,1,74.6666666666667
88,296,109450,2,0,B|129:292|149:260,1,74.6666666666667,8|0,0:0|0:0,0:0:0
249,228,109688,1,0,0:0:0
368,168,109847,6,0,B|420:140|428:76,1,112,8|0,0:0|0:0,0:0:0
492,200,110164,2,0,B|480:240|442:253,1,74.6666666666667,8|0,0:0|0:0,0:0:0
376,360,110402,2,0,B|335:348|322:310,1,74.6666666666667,8|0,0:0|0:0,0:0:0
248,228,110640,1,0,0:0:0
232,200,110720,1,0,0:0:0
216,172,110799,1,0,0:0:0
200,144,110879,6,0,B|183:106|144:97,1,74.6666666666667,8|0,0:0|0:0,0:0:0
52,204,111117,2,0,B|68:241|107:250,1,74.6666666666667
148,268,111355,1,8,0:0:0
268,304,111513,1,8,0:0:0
296,308,111593,1,8,0:0:0
416,284,111752,6,0,B|448:268|448:268|472:180,1,112,8|0,0:0|0:0,0:0:0
452,56,112069,2,0,B|424:76|424:76|412:116,1,74.6666666666667,8|0,0:0|0:0,0:0:0
288,224,112307,2,0,B|316:204|316:204|328:164,1,74.6666666666667,8|0,0:0|0:0,0:0:0
312,64,112545,1,0,0:0:0
292,40,112625,1,0,0:0:0
264,28,112704,1,0,0:0:0
236,24,112783,6,0,B|198:16|164:36,1,74.6666666666667,8|0,0:0|0:0,0:0:0
220,128,113021,2,0,B|232:168|208:200,1,74.6666666666667
96,236,113259,2,0,B|88:198|108:164,1,74.6666666666667,8|0,0:0|0:0,0:0:0
200,284,113498,1,0,0:0:0
340,316,113656,6,0,B|400:332|448:308,1,112,8|0,0:0|0:0,0:0:0
388,240,113974,1,8,0:0:0
300,172,114133,1,0,0:0:0
272,152,114212,1,8,0:0:0
164,148,114371,1,0,0:0:0
132,137,114450,1,0,0:0:0
98,132,114529,1,0,0:0:0
64,137,114609,1,0,0:0:0
34,153,114688,6,0,B|11:185|16:222,1,74.6666666666667,8|0,0:0|0:0,0:0:0
128,300,114926,2,0,B|151:268|146:231,1,74.6666666666667
300,172,115164,2,0,B|277:204|282:241,1,74.6666666666667,8|0,0:0|0:0,0:0:0
394,319,115402,1,0,0:0:0
492,216,115561,6,0,B|526:161|499:109,1,112,8|0,0:0|0:0,0:0:0
372,184,115879,2,0,B|332:196|292:168,1,74.6666666666667,8|0,0:0|0:0,0:0:0
140,184,116117,2,0,B|180:196|220:168,1,74.6666666666667,8|0,0:0|0:0,0:0:0
320,80,116355,1,0,0:0:0
292,60,116434,1,0,0:0:0
260,56,116513,1,0,0:0:0
224,56,116593,6,0,B|160:56|120:104,1,119.000002269745,12|8,0:0|0:0,0:0:0
36,240,116990,1,8,0:0:0
20,268,117069,1,8,0:0:0
132,320,117228,1,8,0:0:0
124,352,117307,1,8,0:0:0
256,336,117466,1,8,0:0:0
256,368,117545,5,8,0:0:0
380,320,117704,1,8,0:0:0
388,352,117783,1,8,0:0:0
448,240,117942,2,0,B|472:184|428:128,1,119.000002269745,8|8,0:0|0:0,0:0:0
403,109,118259,1,2,0:0:0
374,95,118339,1,2,0:0:0
342,93,118418,1,2,0:0:0
311,101,118498,6,0,B|248:128|192:84,1,119.000002269745,8|2,0:0|0:0,0:0:0
305,241,118894,1,0,0:0:0
333,257,118974,2,0,B|373:281|381:329,1,79.3333348464966,8|0,0:0|0:0,0:0:0
223,311,119212,2,0,B|199:351|151:359,1,79.3333348464966,8|8,0:0|0:0,0:0:0
169,201,119450,6,0,B|129:177|121:129,1,79.3333348464966,8|0,0:0|0:0,0:0:0
279,148,119688,1,8,0:0:0
444,176,119847,2,8,B|480:188|480:188|504:264,1,119.000002269745
396,300,120164,1,2,0:0:0
364,292,120244,1,2,0:0:0
336,276,120323,1,2,0:0:0
312,256,120402,6,0,B|260:208|280:140,1,119.000002269745,8|0,0:0|0:0,0:0:0
372,44,120799,1,2,0:0:0
400,48,120879,2,0,B|444:48|468:83,1,79.3333348464966,8|0,0:0|0:0,0:0:0
278,148,121117,2,8,B|234:148|210:112,1,79.3333348464966,8|8,0:0|0:0,0:0:0
101,30,121355,6,0,B|70:62|80:105,1,79.3333348464966,8|0,0:0|0:0,0:0:0
91,198,121593,1,2,0:0:0
200,332,121752,2,0,B|256:368|312:332,1,119.000002269745,8|0,0:0|0:0,0:0:0
392,272,122069,1,2,0:0:0
416,252,122148,1,2,0:0:0
432,224,122228,1,2,0:0:0
440,192,122307,6,0,B|452:148|424:104|392:96,1,119.000002269745,8|2,0:0|0:0,0:0:0
216,56,122704,1,8,0:0:0
188,64,122783,1,8,0:0:0
296,144,122942,1,8,0:0:0
324,152,123021,1,8,0:0:0
176,180,123180,1,8,0:0:0
148,188,123259,5,8,0:0:0
268,256,123418,1,8,0:0:0
296,264,123497,1,8,0:0:0
136,312,123656,2,0,B|66:308|41:250,1,119.000002269745,8|8,0:0|0:0,0:0:0
28,216,123974,1,2,0:0:0
24,180,124053,1,2,0:0:0
32,144,124133,1,2,0:0:0
48,112,124212,6,0,B|80:60|148:56,1,119.000002269745,8|8,0:0|0:0,0:0:0
340,56,124609,1,0,0:0:0
372,60,124688,2,0,B|414:58|442:90,1,79.3333348464966,8|0,0:0|0:0,0:0:0
396,216,124926,2,0,B|354:218|325:185,1,79.3333348464966,8|8,0:0|0:0,0:0:0
176,136,125164,6,0,B|134:134|106:166,1,79.3333348464966,8|8,0:0|0:0,0:0:0
132,252,125402,1,8,0:0:0
260,324,125561,2,0,B|308:364|376:352,1,119.000002269745,8|8,0:0|0:0,0:0:0
408,344,125879,1,2,0:0:0
440,328,125958,1,2,0:0:0
464,300,126037,1,2,0:0:0
480,268,126117,6,0,B|512:208|481:153,1,119.000002269745,8|2,0:0|0:0,0:0:0
292,48,126513,1,0,0:0:0
260,40,126593,2,0,B|172:24,1,79.3333348464966,8|0,0:0|0:0,0:0:0
80,137,126831,2,0,B|64:225,1,79.3333348464966,8|8,0:0|0:0,0:0:0
182,310,127069,6,0,B|270:326,1,79.3333348464966,8|8,0:0|0:0,0:0:0
348,220,127307,1,8,0:0:0
481,153,127466,2,0,B|512:208|480:268,1,119.000002269745,8|8,0:0|0:0,0:0:0
464,300,127783,1,2,0:0:0
440,328,127862,1,2,0:0:0
408,344,127941,1,2,0:0:0
371,352,128021,6,0,B|308:364|260:324,1,119.000002269745,8|2,0:0|0:0,0:0:0
308,156,128418,1,0,0:0:0
318,125,128498,2,0,B|330:85|330:85|318:41,1,79.3333348464966,8|0,0:0|0:0,0:0:0
189,130,128736,2,0,B|149:118|149:118|105:130,1,79.3333348464966,8|8,0:0|0:0,0:0:0
194,259,128974,6,0,B|182:299|182:299|194:343,1,79.3333348464966,8|8,0:0|0:0,0:0:0
323,254,129212,1,8,0:0:0
424,156,129371,2,0,B|464:112|440:44,1,119.000002269745,8|8,0:0|0:0,0:0:0
320,48,129688,1,2,0:0:0
280,52,129767,1,2,0:0:0
240,56,129847,1,2,0:0:0
200,60,129926,5,8,0:0:0
92,112,130085,1,8,0:0:0
60,128,130164,1,8,0:0:0
60,256,130323,1,8,0:0:0
92,272,130402,1,8,0:0:0
236,192,130561,1,8,0:0:0
264,164,130640,1,8,0:0:0
300,148,130720,1,8,0:0:0
340,148,130799,1,8,0:0:0
380,160,130879,6,0,B|436:184|444:256,1,119.000002269745,12|8,0:0|0:0,0:0:0
276,320,131275,1,8,0:0:0
232,320,131355,1,8,0:0:0
60,256,131513,1,8,0:0:0
44,214,131593,1,8,0:0:0
44,170,131672,1,8,0:0:0
60,128,131752,1,8,0:0:0
97,104,131831,6,0,B|218:47,1,125.999996154785,12|8,0:0|0:0,0:0:0
345,266,132307,2,8,B|231:320,1,125.999996154785,8|8,0:0|0:0,0:0:0
328,133,132704,1,0,0:0:0
358,118,132783,6,0,B|447:75,1,83.9999974365235,8|8,0:0|0:0,0:0:0
320,16,133021,1,0,0:0:0
188,24,133180,2,0,B|124:36|96:104,1,125.999996154785,8|8,0:0|0:0,0:0:0
24,164,133498,1,2,0:0:0
20,204,133577,1,2,0:0:0
32,244,133656,1,2,0:0:0
52,280,133736,6,0,B|92:312|148:296,1,83.9999974365235,8|0,0:0|0:0,0:0:0
176,208,133974,2,0,B|213:182|256:192,1,83.9999974365235,10|0,0:0|0:0,0:0:0
460,281,134212,2,0,B|420:313|364:297,1,83.9999974365235,8|0,0:0|0:0,0:0:0
336,208,134450,2,0,B|299:182|256:192,1,83.9999974365235,8|0,0:0|0:0,0:0:0
216,88,134688,6,0,B|256:108|296:88,1,83.9999974365235,8|8,0:0|0:0,0:0:0
392,32,134926,1,0,0:0:0
468,160,135085,2,0,B|496:216|460:280,1,125.999996154785,8|8,0:0|0:0,0:0:0
432,312,135402,1,2,0:0:0
396,332,135482,1,2,0:0:0
356,340,135561,1,2,0:0:0
316,344,135640,6,0,B|244:348|204:292,1,125.999996154785,8|8,0:0|0:0,0:0:0
344,168,136037,1,0,0:0:0
368,148,136117,2,0,B|412:100|392:28,1,125.999996154785,8|8,0:0|0:0,0:0:0
116,32,136513,1,0,0:0:0
112,64,136593,2,0,B|104:108|136:144,1,83.9999974365235,8|8,0:0|0:0,0:0:0
256,192,136831,1,0,0:0:0
136,244,136990,2,0,B|92:296|124:364,1,125.999996154785,8|8,0:0|0:0,0:0:0
200,312,137307,1,2,0:0:0
236,320,137386,1,2,0:0:0
272,320,137466,1,2,0:0:0
308,312,137545,6,0,B|388:284,1,83.9999974365235,8|0,0:0|0:0,0:0:0
376,140,137783,2,0,B|348:60,1,83.9999974365235,8|0,0:0|0:0,0:0:0
204,72,138021,2,0,B|124:100,1,83.9999974365235,8|0,0:0|0:0,0:0:0
136,244,138259,2,0,B|164:324,1,83.9999974365235,8|0,0:0|0:0,0:0:0
256,192,138498,6,0,B|284:160|276:108,1,83.9999974365235,8|8,0:0|0:0,0:0:0
272,20,138736,1,0,0:0:0
400,32,138894,2,0,B|464:52|484:124,1,125.999996154785,8|8,0:0|0:0,0:0:0
492,160,139212,1,2,0:0:0
492,200,139291,1,2,0:0:0
480,240,139371,1,2,0:0:0
452,272,139450,6,0,B|400:312|400:312|336:328,1,132.999996448517,8|8,0:0|0:0,0:0:0
88,244,139847,1,0,0:0:0
60,272,139926,2,0,B|112:312|112:312|176:328,1,132.999996448517,8|8,0:0|0:0,0:0:0
336,192,140323,1,0,0:0:0
298,168,140402,2,0,B|256:143|214:168,1,88.6666642990113,8|8,0:0|0:0,0:0:0
176,192,140640,1,0,0:0:0
192,48,140799,2,0,B|256:16|320:48,1,132.999996448517,8|8,0:0|0:0,0:0:0
356,72,141117,1,2,0:0:0
384,104,141196,1,2,0:0:0
408,140,141275,1,2,0:0:0
424,180,141355,6,0,B|440:228|412:264,1,88.6666642990113,8|0,0:0|0:0,0:0:0
268,324,141593,2,0,B|252:276|280:240,1,88.6666642990113,8|0,0:0|0:0,0:0:0
188,108,141831,2,0,B|204:156|176:192,1,88.6666642990113,8|0,0:0|0:0,0:0:0
32,252,142069,2,0,B|16:204|44:168,1,88.6666642990113,8|0,0:0|0:0,0:0:0
188,108,142307,6,0,B|284:88,1,88.6666642990113,8|8,0:0|0:0,0:0:0
356,72,142545,1,0,0:0:0
336,192,142704,2,0,B|330:264|391:304,1,132.999996448517,8|8,0:0|0:0,0:0:0
268,324,143021,1,2,0:0:0
228,328,143101,1,2,0:0:0
188,328,143180,1,2,0:0:0
144,324,143259,6,0,B|88:312|88:312|32:252,1,140,8|8,0:0|0:0,0:0:0
172,88,143656,1,0,0:0:0
144,60,143736,2,0,B|88:72|88:72|32:132,1,140,8|8,0:0|0:0,0:0:0
204,192,144133,1,0,0:0:0
244,192,144212,2,0,B|340:192,1,93.3333333333333,8|8,0:0|0:0,0:0:0
380,192,144450,1,0,0:0:0
468,256,144609,2,0,B|500:224|500:160|468:128,1,140,8|8,0:0|0:0,0:0:0
440,104,144926,1,2,0:0:0
408,88,145006,1,2,0:0:0
372,80,145085,1,2,0:0:0
336,76,145164,6,0,B|240:76,1,93.3333333333333,8|0,0:0|0:0,0:0:0
80,132,145402,2,0,B|176:132,1,93.3333333333333,8|0,0:0|0:0,0:0:0
336,192,145640,2,0,B|240:192,1,93.3333333333333,8|0,0:0|0:0,0:0:0
80,252,145878,2,0,B|176:252,1,93.3333333333333,8|0,0:0|0:0,0:0:0
336,312,146117,2,0,B|408:336|472:307,1,140,8|8,0:0|0:0,0:0:0
472,76,146513,2,0,B|386:38|290:70,1,186.666666666667,8|8,0:0|0:0,0:0:0
112,160,148974,6,0,B|100:248|192:304,1,175,4|0,0:0|0:0,0:0:0
360,304,149371,1,0,0:0:0
396,296,149450,2,0,B|452:272|456:204,1,116.666666666667
412,100,149688,1,0,0:0:0
280,44,149847,6,0,B|224:16|164:72|104:40,1,175
240,136,150164,2,0,B|308:212|248:300,2,175
108,248,150799,1,0,0:0:0
140,276,150879,6,0,B|192:316|252:296,1,116.666666666667
380,272,151117,2,0,B|436:252|436:252|484:140,2,175
296,128,151752,1,0,0:0:0
276,88,151831,5,0,0:0:0
140,36,151990,1,0,0:0:0
96,32,152069,1,0,0:0:0
56,44,152148,1,0,0:0:0
24,72,152228,1,0,0:0:0
4,108,152307,2,0,B|-30:191|17:280,1,175,2|0,0:0|0:0,0:0:0
312,68,152783,5,2,0:0:0
352,60,152863,1,0,0:0:0
388,64,152942,1,0,0:0:0
428,84,153021,2,0,B|480:128|472:196,1,116.666666666667
400,332,153259,2,0,B|348:288|356:220,1,116.666666666667
208,128,153498,1,0,0:0:0
224,152,153577,1,0,0:0:0
240,176,153656,1,0,0:0:0
256,200,153736,6,0,B|288:256|250:310,1,116.666666666667
104,192,153974,2,0,B|36:116|96:28,2,175
256,60,154609,1,0,0:0:0
300,44,154688,6,0,B|360:20|420:56,1,116.666666666667
352,168,154926,2,0,B|304:232|400:252|344:332,2,175
175,93,155561,6,0,B|67:69|67:69|7:93,1,175
110,154,155879,2,0,B|72:145|72:145|0:172,1,116.666666666667,0|2,0:0|0:0,0:0:0
87,243,156117,2,0,B|119:307|207:311,1,116.666666666667,0|2,0:0|0:0,0:0:0
344,332,156355,1,2,0:0:0
480,88,156593,6,0,B|408:8|296:44,1,175,6|0,0:0|0:0,0:0:0
404,188,156990,1,0,0:0:0
432,224,157069,2,0,B|464:280|436:336,1,116.666666666667
328,328,157307,1,0,0:0:0
292,312,157386,1,0,0:0:0
260,288,157466,1,0,0:0:0
228,260,157545,6,0,B|176:224|192:152,1,116.666666666667
312,108,157783,2,0,B|364:64|416:132|480:88,2,175
160,48,158418,1,0,0:0:0
116,52,158498,6,0,B|52:72|32:136,1,116.666666666667
73,267,158736,2,0,B|133:339|237:311,2,175
244,88,159371,1,0,0:0:0
280,72,159450,6,0,B|344:54|396:81,1,116.666666666667
376,216,159688,2,0,B|394:280|367:332,1,116.666666666667,0|2,0:0|0:0,0:0:0
232,312,159926,2,0,B|168:330|116:303,1,116.666666666667,0|2,0:0|0:0,0:0:0
136,168,160164,2,0,B|118:104|145:52,1,116.666666666667,2|0,0:0|0:0,0:0:0
280,72,160402,5,2,0:0:0
320,68,160482,1,0,0:0:0
360,72,160561,1,0,0:0:0
400,84,160640,2,0,B|456:112|456:112|484:176,1,116.666666666667
376,216,160879,2,0,B|385:277|385:277|348:337,1,116.666666666667
254,272,161117,1,0,0:0:0
224,300,161196,1,0,0:0:0
188,316,161275,1,0,0:0:0
148,320,161355,6,0,B|88:320|48:264,1,116.666666666667
136,168,161593,2,0,B|216:136|280:72,2,175
292,224,162228,1,0,0:0:0
328,236,162307,6,0,B|387:261|396:323,1,116.666666666667
148,320,162545,2,0,B|58:282|45:188,2,175
472,80,163259,6,0,B|405:24|308:40,1,175,2|0,0:0|0:0,0:0:0
40,80,163656,2,0,B|107:24|204:40,1,175,2|0,0:0|0:0,0:0:0
368,144,163974,1,2,0:0:0
128,168,164212,6,0,B|68:192|56:256,1,116.666666666667,6|0,0:0|0:0,0:0:0
172,276,164450,2,0,B|228:276|248:340|336:352,1,175,2|0,0:0|0:0,0:0:0
448,184,164847,1,0,0:0:0
456,144,164926,2,0,B|480:80|432:28,1,116.666666666667,2|0,0:0|0:0,0:0:0
304,80,165164,6,0,B|252:104|252:104|192:104,1,116.666666666667
340,220,165402,2,0,B|492:324,1,175,2|0,0:0|0:0,0:0:0
204,292,165799,1,0,0:0:0
172,276,165879,2,0,B|59:199,1,116.666666666667,2|0,0:0|0:0,0:0:0
232,164,166117,6,0,B|292:144|304:80,1,116.666666666667
340,220,166355,2,0,B|328:312|328:312|264:368,1,175,2|0,0:0|0:0,0:0:0
448,184,166752,1,0,0:0:0
456,144,166831,2,0,B|464:76|408:40,1,116.666666666667,2|0,0:0|0:0,0:0:0
304,80,167069,6,0,B|236:96|192:56,1,116.666666666667
52,136,167307,2,0,B|16:192|42:250,1,116.666666666667,2|0,0:0|0:0,0:0:0
164,212,167545,2,0,B|225:256|225:256|229:279|229:279|290:323,1,175,8|2,0:0|0:0,0:0:0
424,216,167942,1,0,0:0:0
448,184,168021,6,0,B|484:128|456:44,1,116.666666666667
304,80,168259,2,0,B|120:116,1,175,2|0,0:0|0:0,0:0:0
324,248,168656,1,0,0:0:0
352,272,168736,2,0,B|395:319|376:381,1,116.666666666667,2|0,0:0|0:0,0:0:0
189,319,168974,6,0,B|146:272|165:210,1,116.666666666667
332,160,169212,2,0,B|440:116|440:116|468:60,1,175,2|0,0:0|0:0,0:0:0
192,36,169609,1,0,0:0:0
152,40,169688,2,0,B|96:56|96:56|52:108,1,116.666666666667,2|0,0:0|0:0,0:0:0
72,272,169926,6,0,B|128:256|128:256|165:211,1,116.666666666667,0|0,0:0|0:0,0:0:0
332,160,170164,2,0,B|244:180|244:180|167:211,1,175,2|0,0:0|0:0,0:0:0
340,312,170561,1,0,0:0:0
376,328,170640,2,0,B|444:344|484:300,1,116.666666666667,2|0,0:0|0:0,0:0:0
480,184,170879,5,0,0:0:0
468,144,170958,1,0,0:0:0
456,104,171037,1,0,0:0:0
424,80,171117,1,0,0:0:0
388,60,171196,1,0,0:0:0
352,40,171275,1,0,0:0:0
312,36,171355,2,0,B|248:32|208:78,1,116.666666666667
228,202,171593,2,0,B|292:206|331:159,1,116.666666666667
208,78,171831,6,0,B|151:44|72:79,1,116.666666666667,6|0,0:0|0:0,0:0:0
32,184,172069,2,0,B|8:276|88:340,1,175,2|0,0:0|0:0,0:0:0
124,352,172386,1,0,0:0:0
164,356,172466,1,0,0:0:0
204,352,172545,2,0,B|264:344|300:292,1,116.666666666667,2|0,0:0|0:0,0:0:0
121,179,172783,6,0,B|79:130|97:59,1,116.666666666667
255,95,173021,2,0,B|336:136|424:95,1,175,2|0,0:0|0:0,0:0:0
436,288,173418,1,0,0:0:0
410,314,173498,2,0,B|346:333|298:290,1,116.666666666667,2|0,0:0|0:0,0:0:0
121,179,173736,6,0,B|57:160|9:203,1,116.666666666667
137,327,173974,2,0,B|231:355|302:291,1,175,2|0,0:0|0:0,0:0:0
460,124,174371,1,0,0:0:0
444,88,174450,2,0,B|392:56|392:56|336:52,1,116.666666666667,2|0,0:0|0:0,0:0:0
164,64,174688,6,0,B|40:100,1,116.666666666667
224,200,174926,2,0,B|336:167,1,116.666666666667,2|0,0:0|0:0,0:0:0
480,268,175164,2,0,B|433:281|433:281|413:312|413:312|321:338,1,175,8|2,0:0|0:0,0:0:0
68,228,175561,1,0,0:0:0
40,200,175640,6,0,B|4:152|4:152|0:80,1,116.666666666667
164,136,175879,2,0,B|272:136|303:48,1,175,2|0,0:0|0:0,0:0:0
392,188,176275,1,0,0:0:0
408,228,176355,2,0,B|432:284|496:308,1,116.666666666667,2|0,0:0|0:0,0:0:0
276,248,176593,6,0,B|220:220|164:248,1,116.666666666667
336,136,176831,2,0,B|408:76|408:76|492:64,1,175,2|0,0:0|0:0,0:0:0
164,136,177228,1,0,0:0:0
128,136,177307,2,0,B|64:132|24:64,1,116.666666666667,2|0,0:0|0:0,0:0:0
68,228,177545,6,0,B|84:288|84:288|152:344,2,140,8|2|0,0:0|0:0|0:0,0:0:0
272,276,178259,2,0,B|320:300|368:280,1,93.3333333333333
393,269,178498,5,8,0:0:0
420,251,178577,1,8,0:0:0
444,230,178656,1,8,0:0:0
462,202,178736,1,8,0:0:0
473,171,178815,1,8,0:0:0
475,138,178894,1,8,0:0:0
467,105,178974,1,10,0:0:0
256,36,179212,1,2,0:0:0
45,105,179450,6,0,B|16:144|28:200,1,93.3333333333333,12|0,0:0|0:0,0:0:0
132,256,179688,2,0,B|161:217|149:161,1,93.3333333333333,8|0,0:0|0:0,0:0:0
280,132,179926,2,0,B|251:171|263:227,1,93.3333333333333,8|0,0:0|0:0,0:0:0
336,292,180164,1,2,0:0:0
372,304,180244,1,2,0:0:0
408,308,180323,1,2,0:0:0
444,300,180402,6,0,B|488:280|496:224,1,93.3333333333333,8|0,0:0|0:0,0:0:0
436,72,180640,2,0,B|416:116|360:124,1,93.3333333333333,8|0,0:0|0:0,0:0:0
262,221,180879,2,0,B|210:213|186:161,1,93.3333333333333,8|0,0:0|0:0,0:0:0
132,31,181117,2,0,B|80:39|56:91,1,93.3333333333333,8|2,0:0|0:0,0:0:0
44,220,181355,5,8,0:0:0
148,301,181513,1,8,0:0:0
172,320,181593,1,8,0:0:0
263,221,181751,1,8,0:0:0
287,240,181831,1,8,0:0:0
378,141,181990,1,8,0:0:0
402,160,182068,1,8,0:0:0
493,61,182228,1,8,0:0:0
508,88,182307,6,0,B|524:140|496:176,1,93.3333333333333,8|0,0:0|0:0,0:0:0
376,328,182545,2,0,B|360:276|388:240,1,93.3333333333333,8|0,0:0|0:0,0:0:0
340,72,182783,2,0,B|300:132|220:133,1,140,8|8,0:0|0:0,0:0:0
31,187,183180,1,0,0:0:0
9,217,183259,5,10,0:0:0
4,254,183339,1,2,0:0:0
22,286,183418,1,2,0:0:0
52,306,183498,2,0,B|92:332|143:317,1,93.3333333333333,10|0,0:0|0:0,0:0:0
308,224,183736,2,0,B|268:200|217:213,1,93.3333333333333,8|0,0:0|0:0,0:0:0
376,328,183974,1,10,0:0:0
412,336,184053,1,2,0:0:0
449,331,184133,1,2,0:0:0
481,313,184212,6,0,B|514:278|503:227,1,93.3333333333333,8|0,0:0|0:0,0:0:0
428,96,184450,2,0,B|380:56|312:80,1,93.3333333333333,8|0,0:0|0:0,0:0:0
184,136,184688,2,0,B|112:172|44:128,1,140,8|0,0:0|0:0,0:0:0
312,44,185085,1,2,0:0:0
340,72,185164,6,0,B|376:112|352:172,1,93.3333333333333,8|0,0:0|0:0,0:0:0
376,276,185402,2,0,B|336:312|276:288,1,93.3333333333333,8|0,0:0|0:0,0:0:0
172,312,185640,2,0,B|136:272|160:212,1,93.3333333333333,8|0,0:0|0:0,0:0:0
136,108,185879,2,0,B|176:72|236:96,1,93.3333333333333,8|0,0:0|0:0,0:0:0
356,160,186117,6,0,B|444:216,1,93.3333333333333,8|0,0:0|0:0,0:0:0
288,292,186355,2,0,B|232:380,1,93.3333333333333,8|0,0:0|0:0,0:0:0
156,224,186593,2,0,B|98:187|98:187|57:185|57:185|23:164,1,140,8|0,0:0|0:0,0:0:0
380,68,187069,6,0,B|432:68|464:108,1,93.3333333333333,12|0,0:0|0:0,0:0:0
284,132,187307,2,8,B|232:132|200:172,1,93.3333333333333,8|8,0:0|0:0,0:0:0
380,196,187545,2,0,B|432:196|464:236,1,93.3333333333333,8|0,0:0|0:0,0:0:0
284,260,187783,1,10,0:0:0
244,276,187863,1,2,0:0:0
204,292,187942,1,2,0:0:0
168,308,188021,6,0,B|124:320|124:320|76:312,1,93.3333333333333,8|0,0:0|0:0,0:0:0
20,148,188259,2,0,B|64:136|64:136|112:144,1,93.3333333333333,8|0,0:0|0:0,0:0:0
300,40,188498,2,0,B|256:52|256:52|208:44,1,93.3333333333333,8|0,0:0|0:0,0:0:0
400,144,188736,2,0,B|448:136|448:136|492:148,1,93.3333333333333,8|2,0:0|0:0,0:0:0
448,256,188974,6,0,B|464:308|420:352,1,93.3333333333333,8|0,0:0|0:0,0:0:0
324,208,189212,2,0,B|340:156|296:112,1,93.3333333333333,8|0,0:0|0:0,0:0:0
192,257,189450,2,0,B|208:309|164:353,1,93.3333333333333,8|0,0:0|0:0,0:0:0
40,236,189688,2,0,B|56:184|12:140,1,93.3333333333333,8|0,0:0|0:0,0:0:0
133,73,189926,6,0,B|161:121|213:121,1,93.3333333333333,8|0,0:0|0:0,0:0:0
379,73,190164,2,0,B|351:121|299:121,1,93.3333333333333,8|0,0:0|0:0,0:0:0
256,216,190402,2,0,B|248:248|248:248|256:284|256:284|264:312|264:312|256:352,1,140,8|0,0:0|0:0,0:0:0
412,188,190799,6,0,B|468:136|468:136|486:74,2,140,12|8|8,0:0|0:0|0:0,0:0:0
304,118,191355,2,0,B|262:78|205:85,1,93.3333333333333,8|0,0:0|0:0,0:0:0
132,73,191593,1,12,0:0:0
60,200,191752,1,0,0:0:0
68,240,191831,6,0,B|76:288|132:308,1,93.3333333333333,8|0,0:0|0:0,0:0:0
296,228,192069,2,0,B|288:180|232:160,1,93.3333333333333,8|0,0:0|0:0,0:0:0
332,316,192307,2,0,B|378:367|461:347,1,140,8|8,0:0|0:0,0:0:0
400,124,192704,1,2,0:0:0
376,92,192783,6,0,B|352:48|304:40,1,93.3333333333333,8|0,0:0|0:0,0:0:0
156,72,193021,2,0,B|112:96|104:144,1,93.3333333333333,8|0,0:0|0:0,0:0:0
136,292,193259,2,0,B|160:336|208:344,1,93.3333333333333,8|0,0:0|0:0,0:0:0
356,312,193497,2,0,B|400:288|408:240,1,93.3333333333333,8|0,0:0|0:0,0:0:0
268,172,193736,6,0,B|224:144|240:76,1,93.3333333333333,8|0,0:0|0:0,0:0:0
452,52,193974,2,0,B|496:80|480:148,1,93.3333333333333,8|0,0:0|0:0,0:0:0
484,280,194212,2,0,B|436:336|356:312,1,140,8|0,0:0|0:0,0:0:0
112,296,194688,6,0,B|42:262|39:183,1,140,12|8,0:0|0:0,0:0:0
160,32,195085,1,0,0:0:0
196,52,195164,2,0,B|237:75|237:75|282:69,1,93.3333333333333,8|0,0:0|0:0,0:0:0
328,64,195402,1,2,0:0:0
372,64,195482,1,2,0:0:0
412,72,195561,1,2,0:0:0
448,96,195640,6,0,B|480:132|480:180,1,93.3333333333333,8|0,0:0|0:0,0:0:0
424,280,195879,2,0,B|376:332|296:316,2,140,8|8|8,0:0|0:0|0:0,0:0:0
220,140,196513,1,2,0:0:0
192,112,196593,6,0,B|160:68|104:68,1,93.3333333333333,8|0,0:0|0:0,0:0:0
80,216,196831,2,0,B|112:260|168:260,1,93.3333333333333,8|0,0:0|0:0,0:0:0
320,112,197069,2,0,B|352:68|408:68,1,93.3333333333333,8|0,0:0|0:0,0:0:0
432,216,197307,2,0,B|400:260|344:260,1,93.3333333333333,8|0,0:0|0:0,0:0:0
144,172,197545,6,0,B|108:136|116:84,1,93.3333333333333,8|0,0:0|0:0,0:0:0
256,60,197783,2,0,B|292:24|344:32,1,93.3333333333333,8|0,0:0|0:0,0:0:0
416,136,198021,2,0,B|436:184|436:184|432:216|432:216|460:272,1,140,8|8,0:0|0:0,0:0:0
220,308,198498,5,8,0:0:0
180,316,198577,1,2,0:0:0
140,320,198656,1,2,0:0:0
96,320,198736,2,0,B|40:312|16:264,1,93.3333333333333,8|0,0:0|0:0,0:0:0
144,172,198974,2,0,B|200:180|224:228,1,93.3333333333333,8|0,0:0|0:0,0:0:0
328,288,199212,1,10,0:0:0
368,300,199291,1,2,0:0:0
412,300,199371,1,2,0:0:0
452,288,199450,6,0,B|496:260|492:208,1,93.3333333333333,8|0,0:0|0:0,0:0:0
452,112,199688,2,0,B|408:40|408:40|348:24,2,140,8|8|8,0:0|0:0|0:0,0:0:0
328,288,200323,1,2,0:0:0
296,312,200402,6,0,B|240:352|156:336,1,140,8|0,0:0|0:0,0:0:0
220,52,200879,2,0,B|276:12|360:28,1,140,8|0,0:0|0:0,0:0:0
416,176,201275,1,0,0:0:0
392,204,201355,2,0,B|352:240|280:216,1,93.3333333333333,8|0,0:0|0:0,0:0:0
120,180,201593,2,0,B|160:144|232:168,1,93.3333333333333,8|0,0:0|0:0,0:0:0
296,312,201831,2,0,B|240:352|156:336,1,140,8|0,0:0|0:0,0:0:0
361,107,202307,6,0,B|404:76|400:28,1,93.3333333333333,12|0,0:0|0:0,0:0:0
220,52,202545,2,0,B|112:48,1,93.3333333333333,8|0,0:0|0:0,0:0:0
120,180,202783,2,0,B|77:212|81:260,1,93.3333333333333,8|0,0:0|0:0,0:0:0
192,316,203022,1,10,0:0:0
220,348,203101,1,2,0:0:0
260,364,203180,1,2,0:0:0
296,368,203259,6,0,B|344:368|344:368|388:352,1,93.3333333333333,8|0,0:0|0:0,0:0:0
480,240,203498,2,0,B|432:240|432:240|388:256,1,93.3333333333333,8|0,0:0|0:0,0:0:0
224,204,203736,2,0,B|272:204|272:204|316:188,1,93.3333333333333,8|0,0:0|0:0,0:0:0
452,92,203974,2,0,B|404:92|404:92|360:108,1,93.3333333333333,8|2,0:0|0:0,0:0:0
224,204,204212,6,0,B|160:240|88:220,1,140,8|0,0:0|0:0,0:0:0
284,48,204609,1,0,0:0:0
324,48,204688,2,0,B|397:43|453:93,1,140,8|0,0:0|0:0,0:0:0
424,300,205085,1,0,0:0:0
392,328,205164,6,0,B|360:360|304:352,1,93.3333333333333,8|0,0:0|0:0,0:0:0
120,328,205402,2,0,B|152:360|208:352,1,93.3333333333333,8|0,0:0|0:0,0:0:0
328,256,205640,2,0,B|356:192|356:192|328:128,1,140,8|8,0:0|0:0,0:0:0
144,192,206037,6,0,B|72:224|0:192,1,140,8|0,0:0|0:0,0:0:0
284,48,206513,2,0,B|375:7|466:48,1,186.666666666667,0|12,0:0|0:0,0:0:0
420,192,206990,1,0,0:0:0
404,232,207069,6,0,B|384:284|420:328,1,93.3333333333333,8|0,0:0|0:0,0:0:0
276,236,207307,2,0,B|296:184|260:140,1,93.3333333333333,8|0,0:0|0:0,0:0:0
176,256,207545,2,0,B|156:308|192:352,1,93.3333333333333,8|0,0:0|0:0,0:0:0
60,236,207783,2,0,B|80:184|44:140,1,93.3333333333333,8|0,0:0|0:0,0:0:0
152,72,208021,6,0,B|212:28|288:48,1,140,8|0,0:0|0:0,0:0:0
488,280,208498,2,0,B|432:328|352:304,1,140,8|0,0:0|0:0,0:0:0
136,240,208894,1,0,0:0:0
108,212,208974,6,0,B|68:172|84:120,1,93.3333333333333,8|8,0:0|0:0,0:0:0
152,72,209212,1,8,0:0:0
400,160,209450,2,0,B|436:200|425:249,1,93.3333333333333,8|8,0:0|0:0,0:0:0
356,304,209688,1,8,0:0:0
164,332,209926,6,0,B|92:336|48:288,1,125.999996154785,4|0,0:0|0:0,0:0:0
60,128,210323,1,0,0:0:0
76,96,210402,1,0,0:0:0
100,72,210482,1,0,0:0:0
128,52,210561,1,0,0:0:0
160,44,210640,1,0,0:0:0
192,44,210720,1,0,0:0:0
224,52,210799,1,0,0:0:0
256,60,210879,6,0,B|300:80|356:56,1,83.9999974365235
400,160,211117,2,0,B|417:198|397:242,1,83.9999974365235
288,336,211355,2,0,B|250:353|206:333,1,83.9999974365235
108,288,211593,1,0,0:0:0
32,188,211752,1,0,0:0:0
24,152,211831,5,0,0:0:0
256,192,212069,1,0,0:0:0
488,152,212307,1,0,0:0:0
500,184,212386,1,0,0:0:0
504,216,212466,1,0,0:0:0
496,248,212545,1,0,0:0:0
476,276,212625,1,0,0:0:0
452,300,212704,1,0,0:0:0
420,312,212783,6,0,B|364:328,2,41.9999987182618
360,256,213021,2,0,B|304:272,2,41.9999987182618,0|0|0,0:0|0:0|0:0,0:0:0
300,200,213259,2,0,B|244:216,2,41.9999987182618
240,144,213498,2,0,B|184:160,2,41.9999987182618
180,88,213736,6,0,B|96:111,1,83.9999974365235
32,216,213974,2,0,B|32:280|96:316,1,125.999996154785
304,332,214371,1,0,0:0:0
336,328,214450,1,0,0:0:0
368,316,214529,1,0,0:0:0
400,300,214609,1,0,0:0:0
424,276,214688,6,0,B|440:256|448:228,2,41.9999987182618
364,224,214926,2,0,B|332:192|336:144,1,83.9999974365235
272,80,215164,2,0,B|240:112|244:160,1,83.9999974365235
176,224,215402,2,0,B|144:192|148:144,1,83.9999974365235
55,221,215640,5,0,0:0:0
40,251,215720,1,0,0:0:0
40,284,215799,1,0,0:0:0
50,316,215879,2,0,B|65:364|111:371,1,83.9999974365235,0|0,0:0|0:0,0:0:0
196,324,216117,2,0,B|256:292|316:324,1,125.999996154785,4|0,0:0|0:0,0:0:0
216,152,216513,1,0,0:0:0
192,120,216593,6,0,B|160:64|84:68,1,125.999996154785,4|0,0:0|0:0,0:0:0
348,100,216990,1,0,0:0:0
388,120,217069,2,0,B|452:140|512:112,1,125.999996154785,4|0,0:0|0:0,0:0:0
224,316,217545,6,0,B|156:340|100:316,1,125.999996154785,4|0,0:0|0:0,0:0:0
48,148,217942,1,0,0:0:0
48,112,218021,2,0,B|68:48|136:32,1,125.999996154785
236,32,218379,2,0,B|292:36,2,31.4999990386963
280,112,218617,6,0,B|344:116,1,62.9999980773926
336,208,218855,2,0,B|398:211,1,62.9999980773926,0|0,0:0|0:0,0:0:0
396,300,219093,2,0,B|452:304,2,31.4999990386963
288,304,219331,1,0,0:0:0
192,320,219450,6,0,B|144:344,6,31.4999990386963,0|0|0|0|0|0|0,0:0|0:0|0:0|0:0|0:0|0:0|0:0,0:0:0
120,240,219926,2,0,B|68:224,6,31.4999990386963,0|0|0|0|0|0|0,0:0|0:0|0:0|0:0|0:0|0:0|0:0,0:0:0
180,156,220402,6,0,B|224:108|200:24,1,125.999996154785,4|0,0:0|0:0,0:0:0
420,160,220879,2,0,B|440:204|488:212,1,83.9999974365235
456,304,221117,2,0,B|436:348|388:356,1,83.9999974365235
316,276,221355,6,0,B|256:240|196:276,1,125.999996154785,4|0,0:0|0:0,0:0:0
95,306,221712,1,0,0:0:0
59,210,221831,2,0,B|35:142,1,62.9999980773926
143,122,222069,2,0,B|119:54,1,62.9999980773926
247,54,222307,6,0,B|287:34|339:46,2,83.9999974365235
339,150,222783,2,0,B|379:170|431:158,2,83.9999974365235
184,184,223259,6,0,B|124:208|124:208|96:264,1,125.999996154785
400,284,223736,2,0,B|460:260|460:260|488:204,1,125.999996154785
388,76,224133,1,2,0:0:0
356,56,224212,6,0,B|300:24|228:48,1,125.999996154785
184,184,224609,2,0,B|224:254|194:346,1,167.999994873047
400,284,225164,5,0,0:0:0
