osu file format v12

[General]
AudioFilename: smile.mp3
AudioLeadIn: 0
PreviewTime: 68385
Countdown: 0
SampleSet: Normal
StackLeniency: 0.7
Mode: 1
LetterboxInBreaks: 0
WidescreenStoryboard: 0

[Editor]
Bookmarks: 500,16957,33414,49871,66328,68385,84842,92900
DistanceSpacing: 0
BeatDivisor: 4
GridSize: 32

[Metadata]
Title:Silence
TitleUnicode:Silence
Artist:Nekomata Master
ArtistUnicode:猫叉Master
Creator:Tasha
Version:Oni
Source:Reflec Beat
Tags:Drafura Krah Deif Taiko CtB
BeatmapID:342676
BeatmapSetID:127126

[Difficulty]
HPDrainRate:6
CircleSize:5
OverallDifficulty:5
ApproachRate:5
SliderMultiplier:1.4
SliderTickRate:1

[Events]
//Background and Video events
0,0,"jreg4cdqti1876.jpg",0,0
//Break Periods
//Storyboard Layer 0 (Background)
//Storyboard Layer 1 (Fail)
//Storyboard Layer 2 (Pass)
//Storyboard Layer 3 (Foreground)
//Storyboard Sound Samples
//Background Colour Transformations
3,100,163,162,255

[TimingPoints]
500,342.857142857143,3,1,0,100,1,0
49871,-100,3,1,0,100,0,1
66328,-100,3,1,0,100,0,0
68385,-100,3,1,0,100,0,1
84842,-100,3,1,0,100,0,0

[HitObjects]
256,192,500,1,4,0:0:0:0:
256,192,842,1,0,0:0:0:0:
256,192,1014,1,0,0:0:0:0:
256,192,1185,1,0,0:0:0:0:
256,192,1528,1,8,0:0:0:0:
256,192,1871,1,0,0:0:0:0:
256,192,2214,1,8,0:0:0:0:
256,192,2557,1,4,0:0:0:0:
256,192,2900,1,0,0:0:0:0:
256,192,3071,1,0,0:0:0:0:
256,192,3242,1,0,0:0:0:0:
256,192,3585,1,8,0:0:0:0:
256,192,3928,1,0,0:0:0:0:
256,192,4271,1,8,0:0:0:0:
256,192,4614,1,12,0:0:0:0:
256,192,4957,1,0,0:0:0:0:
256,192,5128,1,0,0:0:0:0:
256,192,5300,1,8,0:0:0:0:
256,192,5642,1,8,0:0:0:0:
256,192,5985,1,0,0:0:0:0:
256,192,6328,1,8,0:0:0:0:
256,192,6671,1,12,0:0:0:0:
256,192,7014,1,0,0:0:0:0:
256,192,7185,1,0,0:0:0:0:
256,192,7357,1,8,0:0:0:0:
256,192,7700,1,8,0:0:0:0:
256,192,8042,1,0,0:0:0:0:
256,192,8385,1,8,0:0:0:0:
256,192,8728,1,4,0:0:0:0:
256,192,9071,1,0,0:0:0:0:
256,192,9242,1,0,0:0:0:0:
256,192,9414,1,0,0:0:0:0:
256,192,9757,1,8,0:0:0:0:
256,192,10100,1,0,0:0:0:0:
256,192,10271,1,0,0:0:0:0:
256,192,10442,1,8,0:0:0:0:
256,192,10785,1,4,0:0:0:0:
256,192,11128,1,0,0:0:0:0:
256,192,11300,1,0,0:0:0:0:
256,192,11471,1,0,0:0:0:0:
256,192,11814,1,8,0:0:0:0:
256,192,12157,1,0,0:0:0:0:
256,192,12328,1,0,0:0:0:0:
256,192,12500,1,8,0:0:0:0:
256,192,12842,1,4,0:0:0:0:
256,192,13185,1,0,0:0:0:0:
256,192,13357,1,0,0:0:0:0:
256,192,13528,1,0,0:0:0:0:
256,192,13871,1,8,0:0:0:0:
256,192,14214,1,0,0:0:0:0:
256,192,14385,1,0,0:0:0:0:
256,192,14557,1,8,0:0:0:0:
256,192,14900,1,4,0:0:0:0:
256,192,15242,1,0,0:0:0:0:
256,192,15414,1,0,0:0:0:0:
256,192,15585,1,0,0:0:0:0:
256,192,15928,1,8,0:0:0:0:
256,192,16271,5,0,0:0:0:0:
256,192,16614,1,8,0:0:0:0:
256,192,16785,1,8,0:0:0:0:
256,192,16957,1,0,0:0:0:0:
256,192,17128,1,0,0:0:0:0:
256,192,17214,1,0,0:0:0:0:
256,192,17300,1,0,0:0:0:0:
256,192,17471,1,8,0:0:0:0:
256,192,17642,1,0,0:0:0:0:
256,192,17814,1,8,0:0:0:0:
256,192,17985,1,0,0:0:0:0:
256,192,18328,1,0,0:0:0:0:
256,192,18500,1,8,0:0:0:0:
256,192,18671,1,0,0:0:0:0:
256,192,18842,1,8,0:0:0:0:
256,192,19014,1,0,0:0:0:0:
256,192,19185,1,0,0:0:0:0:
256,192,19271,1,0,0:0:0:0:
256,192,19357,1,0,0:0:0:0:
256,192,19528,1,8,0:0:0:0:
256,192,19700,1,0,0:0:0:0:
256,192,19871,1,8,0:0:0:0:
256,192,20042,1,0,0:0:0:0:
256,192,20214,1,0,0:0:0:0:
256,192,20385,1,8,0:0:0:0:
256,192,20557,1,0,0:0:0:0:
256,192,20728,1,8,0:0:0:0:
256,192,20900,1,8,0:0:0:0:
256,192,21071,1,0,0:0:0:0:
256,192,21242,1,0,0:0:0:0:
256,192,21328,1,0,0:0:0:0:
256,192,21414,1,0,0:0:0:0:
256,192,21585,1,0,0:0:0:0:
256,192,21928,1,0,0:0:0:0:
256,192,22100,1,8,0:0:0:0:
256,192,22442,1,0,0:0:0:0:
256,192,22614,1,0,0:0:0:0:
256,192,22785,1,8,0:0:0:0:
256,192,23128,1,0,0:0:0:0:
256,192,23300,1,0,0:0:0:0:
256,192,23385,1,0,0:0:0:0:
256,192,23471,1,0,0:0:0:0:
256,192,23642,1,0,0:0:0:0:
256,192,23985,1,0,0:0:0:0:
256,192,24157,1,8,0:0:0:0:
256,192,24328,1,0,0:0:0:0:
256,192,24414,1,0,0:0:0:0:
256,192,24500,1,0,0:0:0:0:
256,192,24671,1,0,0:0:0:0:
256,192,24842,1,8,0:0:0:0:
256,192,25014,1,8,0:0:0:0:
256,192,25185,1,0,0:0:0:0:
256,192,25357,1,0,0:0:0:0:
256,192,25442,1,0,0:0:0:0:
256,192,25528,1,0,0:0:0:0:
256,192,25700,1,8,0:0:0:0:
256,192,26042,1,8,0:0:0:0:
256,192,26214,1,0,0:0:0:0:
256,192,26557,1,0,0:0:0:0:
256,192,26728,1,8,0:0:0:0:
256,192,26900,1,0,0:0:0:0:
256,192,26985,1,0,0:0:0:0:
256,192,27071,1,8,0:0:0:0:
256,192,27242,1,0,0:0:0:0:
256,192,27414,1,0,0:0:0:0:
256,192,27585,1,8,0:0:0:0:
256,192,27757,1,8,0:0:0:0:
256,192,27928,1,0,0:0:0:0:
256,192,28100,1,0,0:0:0:0:
256,192,28271,1,12,0:0:0:0:
256,192,28442,1,0,0:0:0:0:
256,192,28528,1,0,0:0:0:0:
256,192,28614,1,8,0:0:0:0:
256,192,28785,1,4,0:0:0:0:
256,192,28957,1,8,0:0:0:0:
256,192,29128,1,8,0:0:0:0:
256,192,29300,1,4,0:0:0:0:
256,192,29471,1,0,0:0:0:0:
256,192,29557,1,0,0:0:0:0:
256,192,29642,1,0,0:0:0:0:
256,192,29814,1,0,0:0:0:0:
256,192,30157,1,0,0:0:0:0:
256,192,30328,1,8,0:0:0:0:
256,192,30500,1,0,0:0:0:0:
256,192,30671,1,8,0:0:0:0:
256,192,30842,1,8,0:0:0:0:
256,192,30928,1,8,0:0:0:0:
256,192,31014,1,8,0:0:0:0:
256,192,31185,1,8,0:0:0:0:
256,192,31357,1,0,0:0:0:0:
256,192,31528,1,0,0:0:0:0:
256,192,31614,1,0,0:0:0:0:
256,192,31700,1,0,0:0:0:0:
256,192,31871,1,8,0:0:0:0:
256,192,32214,1,8,0:0:0:0:
256,192,32385,1,0,0:0:0:0:
256,192,32442,1,0,0:0:0:0:
256,192,32500,1,0,0:0:0:0:
256,192,32557,1,8,0:0:0:0:
256,192,32900,1,0,0:0:0:0:
256,192,33071,1,8,0:0:0:0:
256,192,33242,1,8,0:0:0:0:
256,192,33414,1,0,0:0:0:0:
256,192,33585,1,0,0:0:0:0:
256,192,33671,1,0,0:0:0:0:
256,192,33757,1,0,0:0:0:0:
256,192,33928,1,8,0:0:0:0:
256,192,34100,1,0,0:0:0:0:
256,192,34271,1,8,0:0:0:0:
256,192,34357,1,8,0:0:0:0:
256,192,34442,1,0,0:0:0:0:
256,192,34614,1,0,0:0:0:0:
256,192,34785,1,0,0:0:0:0:
256,192,34957,1,8,0:0:0:0:
256,192,35128,1,0,0:0:0:0:
256,192,35299,1,8,0:0:0:0:
256,192,35471,1,0,0:0:0:0:
256,192,35642,1,0,0:0:0:0:
256,192,35728,1,0,0:0:0:0:
256,192,35814,1,0,0:0:0:0:
256,192,35985,1,8,0:0:0:0:
256,192,36157,1,0,0:0:0:0:
256,192,36328,1,8,0:0:0:0:
256,192,36499,1,0,0:0:0:0:
256,192,36671,1,0,0:0:0:0:
256,192,36757,1,0,0:0:0:0:
256,192,36842,1,8,0:0:0:0:
256,192,37014,1,8,0:0:0:0:
256,192,37185,1,0,0:0:0:0:
256,192,37357,1,8,0:0:0:0:
256,192,37528,1,0,0:0:0:0:
256,192,37699,1,0,0:0:0:0:
256,192,37785,1,0,0:0:0:0:
256,192,37871,1,0,0:0:0:0:
256,192,38042,1,0,0:0:0:0:
256,192,38385,1,0,0:0:0:0:
256,192,38557,1,8,0:0:0:0:
256,192,38728,1,0,0:0:0:0:
256,192,38899,1,8,0:0:0:0:
256,192,39071,1,8,0:0:0:0:
256,192,39157,1,8,0:0:0:0:
256,192,39242,1,8,0:0:0:0:
256,192,39414,1,8,0:0:0:0:
256,192,39585,1,0,0:0:0:0:
256,192,39757,1,0,0:0:0:0:
256,192,39842,1,0,0:0:0:0:
256,192,39928,1,0,0:0:0:0:
256,192,40099,1,0,0:0:0:0:
256,192,40442,1,0,0:0:0:0:
256,192,40614,1,8,0:0:0:0:
256,192,40785,1,0,0:0:0:0:
256,192,40957,1,8,0:0:0:0:
256,192,41128,1,8,0:0:0:0:
256,192,41214,1,8,0:0:0:0:
256,192,41300,1,8,0:0:0:0:
256,192,41471,1,8,0:0:0:0:
256,192,41642,1,0,0:0:0:0:
256,192,41814,1,0,0:0:0:0:
256,192,41899,1,0,0:0:0:0:
256,192,41985,1,0,0:0:0:0:
256,192,42157,1,8,0:0:0:0:
256,192,42499,1,0,0:0:0:0:
256,192,42671,1,12,0:0:0:0:
256,192,42842,1,0,0:0:0:0:
256,192,42928,1,0,0:0:0:0:
256,192,43014,1,0,0:0:0:0:
256,192,43185,1,12,0:0:0:0:
256,192,43357,1,0,0:0:0:0:
256,192,43442,1,0,0:0:0:0:
256,192,43528,1,8,0:0:0:0:
256,192,43699,1,4,0:0:0:0:
256,192,43871,1,0,0:0:0:0:
256,192,43957,1,0,0:0:0:0:
256,192,44042,1,0,0:0:0:0:
256,192,44214,5,8,0:0:0:0:
256,192,44385,1,0,0:0:0:0:
256,192,44557,1,8,0:0:0:0:
256,192,44728,1,0,0:0:0:0:
256,192,45071,1,0,0:0:0:0:
256,192,45242,1,8,0:0:0:0:
256,192,45414,1,0,0:0:0:0:
256,192,45585,1,8,0:0:0:0:
256,192,45757,1,4,0:0:0:0:
256,192,45928,1,0,0:0:0:0:
256,192,46014,1,0,0:0:0:0:
256,192,46099,1,0,0:0:0:0:
256,192,46271,1,8,0:0:0:0:
256,192,46442,1,0,0:0:0:0:
256,192,46614,1,0,0:0:0:0:
256,192,46785,1,8,0:0:0:0:
256,192,47128,1,0,0:0:0:0:
256,192,47300,1,0,0:0:0:0:
256,192,47471,1,8,0:0:0:0:
256,192,47642,1,8,0:0:0:0:
256,192,47728,1,8,0:0:0:0:
256,192,47814,1,0,0:0:0:0:
256,192,47985,1,0,0:0:0:0:
256,192,48071,1,0,0:0:0:0:
256,192,48157,1,0,0:0:0:0:
256,192,48328,1,0,0:0:0:0:
256,192,48499,1,8,0:0:0:0:
256,192,48671,1,0,0:0:0:0:
256,192,48842,1,8,0:0:0:0:
256,192,49185,1,0,0:0:0:0:
256,192,49528,1,8,0:0:0:0:
256,192,49871,1,4,0:0:0:0:
256,192,50042,1,0,0:0:0:0:
256,192,50128,1,0,0:0:0:0:
256,192,50214,1,0,0:0:0:0:
256,192,50385,1,0,0:0:0:0:
256,192,50557,1,8,0:0:0:0:
256,192,50728,1,0,0:0:0:0:
256,192,50814,1,0,0:0:0:0:
256,192,50900,1,8,0:0:0:0:
256,192,51071,1,0,0:0:0:0:
256,192,51157,1,0,0:0:0:0:
256,192,51242,1,0,0:0:0:0:
256,192,51414,1,0,0:0:0:0:
256,192,51585,1,8,0:0:0:0:
256,192,51757,1,8,0:0:0:0:
256,192,51842,1,8,0:0:0:0:
256,192,51928,1,0,0:0:0:0:
256,192,52100,1,0,0:0:0:0:
256,192,52185,1,0,0:0:0:0:
256,192,52271,1,0,0:0:0:0:
256,192,52442,1,0,0:0:0:0:
256,192,52614,1,8,0:0:0:0:
256,192,52785,1,0,0:0:0:0:
256,192,52871,1,0,0:0:0:0:
256,192,52957,1,8,0:0:0:0:
256,192,53128,1,0,0:0:0:0:
256,192,53300,1,8,0:0:0:0:
256,192,53471,1,0,0:0:0:0:
256,192,53642,1,8,0:0:0:0:
256,192,53814,1,8,0:0:0:0:
256,192,53900,1,8,0:0:0:0:
256,192,53985,1,0,0:0:0:0:
256,192,54157,1,0,0:0:0:0:
256,192,54242,1,0,0:0:0:0:
256,192,54328,1,0,0:0:0:0:
256,192,54500,1,0,0:0:0:0:
256,192,54671,1,8,0:0:0:0:
256,192,54842,1,8,0:0:0:0:
256,192,55014,1,0,0:0:0:0:
256,192,55185,1,0,0:0:0:0:
256,192,55271,1,0,0:0:0:0:
256,192,55357,1,0,0:0:0:0:
256,192,55528,1,0,0:0:0:0:
256,192,55700,1,8,0:0:0:0:
256,192,56042,1,0,0:0:0:0:
256,192,56214,1,0,0:0:0:0:
256,192,56300,1,0,0:0:0:0:
256,192,56385,1,0,0:0:0:0:
256,192,56557,1,0,0:0:0:0:
256,192,56728,1,8,0:0:0:0:
256,192,56900,1,0,0:0:0:0:
256,192,57071,1,8,0:0:0:0:
256,192,57242,1,0,0:0:0:0:
256,192,57414,1,8,0:0:0:0:
256,192,57500,1,8,0:0:0:0:
256,192,57585,1,8,0:0:0:0:
256,192,57671,1,8,0:0:0:0:
256,192,57757,1,8,0:0:0:0:
256,192,57928,1,8,0:0:0:0:
256,192,58100,1,0,0:0:0:0:
256,192,58271,1,0,0:0:0:0:
256,192,58357,1,0,0:0:0:0:
256,192,58443,1,0,0:0:0:0:
256,192,58614,1,0,0:0:0:0:
256,192,58786,1,8,0:0:0:0:
256,192,59043,1,0,0:0:0:0:
256,192,59129,1,8,0:0:0:0:
256,192,59300,1,8,0:0:0:0:
256,192,59386,1,8,0:0:0:0:
256,192,59471,1,0,0:0:0:0:
256,192,59643,1,0,0:0:0:0:
256,192,59814,1,8,0:0:0:0:
256,192,59985,1,0,0:0:0:0:
256,192,60157,1,0,0:0:0:0:
256,192,60328,1,0,0:0:0:0:
256,192,60414,1,0,0:0:0:0:
256,192,60500,1,8,0:0:0:0:
256,192,60671,1,0,0:0:0:0:
256,192,60843,1,8,0:0:0:0:
256,192,61014,1,0,0:0:0:0:
256,192,61186,1,0,0:0:0:0:
256,192,61442,1,0,0:0:0:0:
256,192,61529,1,8,0:0:0:0:
256,192,61700,1,0,0:0:0:0:
256,192,61871,1,8,0:0:0:0:
256,192,62042,1,0,0:0:0:0:
256,192,62214,1,0,0:0:0:0:
256,192,62385,1,0,0:0:0:0:
256,192,62471,1,0,0:0:0:0:
256,192,62557,1,0,0:0:0:0:
256,192,62728,1,0,0:0:0:0:
256,192,62900,1,8,0:0:0:0:
256,192,63071,1,0,0:0:0:0:
256,192,63242,1,8,0:0:0:0:
256,192,63414,1,0,0:0:0:0:
256,192,63500,1,0,0:0:0:0:
256,192,63585,1,8,0:0:0:0:
256,192,63757,1,0,0:0:0:0:
256,192,63928,1,8,0:0:0:0:
256,192,64100,1,8,0:0:0:0:
256,192,64271,1,0,0:0:0:0:
256,192,64442,1,0,0:0:0:0:
256,192,64528,1,0,0:0:0:0:
256,192,64614,1,0,0:0:0:0:
256,192,64785,1,0,0:0:0:0:
256,192,64957,1,8,0:0:0:0:
256,192,65128,1,0,0:0:0:0:
256,192,65300,1,8,0:0:0:0:
256,192,65471,1,8,0:0:0:0:
256,192,65557,1,8,0:0:0:0:
256,192,65642,1,8,0:0:0:0:
256,192,65814,1,8,0:0:0:0:
256,192,65900,1,8,0:0:0:0:
256,192,65985,1,8,0:0:0:0:
256,192,66071,1,8,0:0:0:0:
256,192,66157,1,8,0:0:0:0:
256,192,66328,12,0,68042,0:0:0:0:
256,192,68385,5,0,0:0:0:0:
256,192,68557,1,8,0:0:0:0:
256,192,68642,1,8,0:0:0:0:
256,192,68728,1,0,0:0:0:0:
256,192,68900,1,0,0:0:0:0:
256,192,69242,1,0,0:0:0:0:
256,192,69414,1,8,0:0:0:0:
256,192,69585,1,0,0:0:0:0:
256,192,69757,1,8,0:0:0:0:
256,192,69842,1,8,0:0:0:0:
256,192,69928,1,8,0:0:0:0:
256,192,70014,1,8,0:0:0:0:
256,192,70100,1,8,0:0:0:0:
256,192,70271,1,8,0:0:0:0:
256,192,70442,1,0,0:0:0:0:
256,192,70614,1,8,0:0:0:0:
256,192,70700,1,8,0:0:0:0:
256,192,70785,1,0,0:0:0:0:
256,192,70957,1,0,0:0:0:0:
256,192,71300,1,0,0:0:0:0:
256,192,71471,1,8,0:0:0:0:
256,192,71642,1,0,0:0:0:0:
256,192,71814,1,8,0:0:0:0:
256,192,71900,1,8,0:0:0:0:
256,192,71985,1,0,0:0:0:0:
256,192,72071,1,0,0:0:0:0:
256,192,72157,1,8,0:0:0:0:
256,192,72328,1,0,0:0:0:0:
256,192,72500,1,8,0:0:0:0:
256,192,72671,1,0,0:0:0:0:
256,192,72842,1,0,0:0:0:0:
256,192,73014,1,8,0:0:0:0:
256,192,73185,1,0,0:0:0:0:
256,192,73357,1,8,0:0:0:0:
256,192,73528,1,0,0:0:0:0:
256,192,73700,1,0,0:0:0:0:
256,192,73871,1,8,0:0:0:0:
256,192,74042,1,0,0:0:0:0:
256,192,74214,1,0,0:0:0:0:
256,192,74385,1,8,0:0:0:0:
256,192,74471,1,8,0:0:0:0:
256,192,74557,1,0,0:0:0:0:
256,192,74728,1,0,0:0:0:0:
256,192,74900,1,8,0:0:0:0:
256,192,75071,1,0,0:0:0:0:
256,192,75242,1,0,0:0:0:0:
256,192,75414,1,8,0:0:0:0:
256,192,75585,1,8,0:0:0:0:
256,192,75757,1,0,0:0:0:0:
256,192,75928,1,8,0:0:0:0:
256,192,76014,1,8,0:0:0:0:
256,192,76100,1,8,0:0:0:0:
256,192,76185,1,8,0:0:0:0:
256,192,76271,1,8,0:0:0:0:
256,192,76442,1,8,0:0:0:0:
256,192,76614,5,0,0:0:0:0:
256,192,76786,1,8,0:0:0:0:
256,192,76871,1,8,0:0:0:0:
256,192,76957,1,0,0:0:0:0:
256,192,77129,1,0,0:0:0:0:
256,192,77471,1,0,0:0:0:0:
256,192,77643,1,8,0:0:0:0:
256,192,77814,1,0,0:0:0:0:
256,192,77986,1,0,0:0:0:0:
256,192,78071,1,0,0:0:0:0:
256,192,78157,1,0,0:0:0:0:
256,192,78242,1,0,0:0:0:0:
256,192,78329,1,8,0:0:0:0:
256,192,78500,1,8,0:0:0:0:
256,192,78671,1,0,0:0:0:0:
256,192,78843,1,8,0:0:0:0:
256,192,78929,1,8,0:0:0:0:
256,192,79014,1,0,0:0:0:0:
256,192,79186,1,0,0:0:0:0:
256,192,79529,1,0,0:0:0:0:
256,192,79700,1,8,0:0:0:0:
256,192,79871,1,0,0:0:0:0:
256,192,80043,1,8,0:0:0:0:
256,192,80128,1,8,0:0:0:0:
256,192,80214,1,8,0:0:0:0:
256,192,80300,1,8,0:0:0:0:
256,192,80386,1,8,0:0:0:0:
256,192,80557,1,8,0:0:0:0:
256,192,80729,1,0,0:0:0:0:
256,192,80900,1,0,0:0:0:0:
256,192,80985,1,0,0:0:0:0:
256,192,81071,1,8,0:0:0:0:
256,192,81243,1,0,0:0:0:0:
256,192,81414,1,8,0:0:0:0:
256,192,81586,1,8,0:0:0:0:
256,192,81671,1,8,0:0:0:0:
256,192,81757,1,0,0:0:0:0:
256,192,81928,1,0,0:0:0:0:
256,192,82100,1,8,0:0:0:0:
256,192,82271,1,0,0:0:0:0:
256,192,82443,1,8,0:0:0:0:
256,192,82614,1,8,0:0:0:0:
256,192,82786,1,0,0:0:0:0:
256,192,82957,1,0,0:0:0:0:
256,192,83042,1,0,0:0:0:0:
256,192,83129,1,8,0:0:0:0:
256,192,83300,1,0,0:0:0:0:
256,192,83471,1,8,0:0:0:0:
256,192,83643,1,8,0:0:0:0:
256,192,83728,1,8,0:0:0:0:
256,192,83814,1,0,0:0:0:0:
256,192,83985,1,0,0:0:0:0:
256,192,84157,1,8,0:0:0:0:
256,192,84329,1,0,0:0:0:0:
256,192,84500,1,8,0:0:0:0:
256,192,84585,1,8,0:0:0:0:
256,192,84671,1,8,0:0:0:0:
256,192,84842,1,4,0:0:0:0:
256,192,85185,1,0,0:0:0:0:
256,192,85357,1,8,0:0:0:0:
256,192,85528,1,0,0:0:0:0:
256,192,85700,1,8,0:0:0:0:
256,192,85785,1,8,0:0:0:0:
256,192,85871,1,0,0:0:0:0:
256,192,86214,1,0,0:0:0:0:
256,192,86385,1,0,0:0:0:0:
256,192,86471,1,0,0:0:0:0:
256,192,86557,1,8,0:0:0:0:
256,192,86728,1,8,0:0:0:0:
256,192,86900,1,0,0:0:0:0:
256,192,87242,1,0,0:0:0:0:
256,192,87414,1,8,0:0:0:0:
256,192,87500,1,8,0:0:0:0:
256,192,87585,1,0,0:0:0:0:
256,192,87757,1,8,0:0:0:0:
256,192,87928,1,0,0:0:0:0:
256,192,88271,1,0,0:0:0:0:
256,192,88357,1,0,0:0:0:0:
256,192,88442,1,0,0:0:0:0:
256,192,88614,1,8,0:0:0:0:
256,192,88785,1,8,0:0:0:0:
256,192,88957,1,0,0:0:0:0:
256,192,89042,1,0,0:0:0:0:
256,192,89128,1,0,0:0:0:0:
256,192,89214,1,0,0:0:0:0:
256,192,89300,1,0,0:0:0:0:
256,192,89471,1,0,0:0:0:0:
256,192,89642,1,8,0:0:0:0:
256,192,89814,1,0,0:0:0:0:
256,192,89985,1,8,0:0:0:0:
256,192,90071,1,8,0:0:0:0:
256,192,90157,1,8,0:0:0:0:
256,192,90242,1,8,0:0:0:0:
256,192,90328,1,8,0:0:0:0:
256,192,90500,1,0,0:0:0:0:
256,192,90671,1,8,0:0:0:0:
256,192,90842,1,8,0:0:0:0:
256,192,91014,1,0,0:0:0:0:
256,192,91100,1,0,0:0:0:0:
256,192,91185,1,8,0:0:0:0:
256,192,91271,1,8,0:0:0:0:
256,192,91357,1,0,0:0:0:0:
256,192,91442,1,0,0:0:0:0:
256,192,91528,1,8,0:0:0:0:
256,192,91614,1,8,0:0:0:0:
256,192,91700,1,0,0:0:0:0:
256,192,91871,1,0,0:0:0:0:
256,192,92042,1,12,0:0:0:0:
256,192,92385,1,12,0:0:0:0:
256,192,92728,1,12,0:0:0:0:
256,192,92900,1,12,0:0:0:0:
