osu file format v14

[General]
AudioFilename: boroknya hewan.mp3
AudioLeadIn: 0
PreviewTime: 81250
Countdown: 1
SampleSet: Soft
StackLeniency: 0.7
Mode: 3
LetterboxInBreaks: 1
SpecialStyle: 0
WidescreenStoryboard: 0

[Editor]
DistanceSpacing: 0.9
BeatDivisor: 4
GridSize: 4
TimelineZoom: 3

[Metadata]
Title:Scars of FAUNA
TitleUnicode:Scars of FAUNA
Artist:Nekomata Master
ArtistUnicode:猫叉Master
Creator:egas00
Version:FLORA
Source:jubeat saucer fulfill
Tags:follow slowly konami groovecoaster maimai maimaiORANGE 太鼓の達人 キミドリ taikonotatsujin naoyuki sato
BeatmapID:665219
BeatmapSetID:296236

[Difficulty]
HPDrainRate:7
CircleSize:7
OverallDifficulty:8
ApproachRate:5
SliderMultiplier:1.4
SliderTickRate:1

[Events]
//Background and Video events
0,0,"flora fauna.jpg",0,0
//Break Periods
//Storyboard Layer 0 (Background)
//Storyboard Layer 1 (Fail)
//Storyboard Layer 2 (Pass)
//Storyboard Layer 3 (Foreground)
//Storyboard Sound Samples

[TimingPoints]
523,363.636363636364,3,2,0,25,1,0
19068,-125,3,2,0,25,0,0
27795,-111.111111111111,3,2,0,25,0,0
32250,-500,3,2,0,25,0,0
32341,-66.6666666666667,3,2,0,25,0,0
32523,-500,3,2,0,25,0,0
32613,-66.6666666666667,3,2,0,25,0,0
32750,-500,3,2,0,25,0,0
32841,-66.6666666666667,3,2,0,25,0,0
32954,-100,3,2,0,25,0,0
33341,-500,3,2,0,25,0,0
33432,-66.6666666666667,3,2,0,25,0,0
33613,-500,3,2,0,25,0,0
33704,-66.6666666666667,3,2,0,25,0,0
33841,-500,3,2,0,25,0,0
33932,-66.6666666666667,3,2,0,25,0,0
33977,-100,3,2,0,25,0,0
34432,-500,3,2,0,25,0,0
34523,-66.6666666666667,3,2,0,25,0,0
34704,-500,3,2,0,25,0,0
34795,-66.6666666666667,3,2,0,25,0,0
34932,-500,3,2,0,25,0,0
35023,-66.6666666666667,3,2,0,25,0,0
35068,-100,3,2,0,25,0,0
35159,-500,3,2,0,25,0,0
35341,-66.6666666666667,3,2,0,25,0,0
35432,-90.9090909090909,3,2,0,25,0,0
36523,-100,3,2,0,25,0,0
79068,-142.857142857143,3,2,0,25,0,0
81250,-100,3,2,0,25,0,0
151068,-125,3,2,0,25,0,0
153250,-100,3,2,0,25,0,0

[HitObjects]
475,192,1432,5,0,0:0:0:0:
402,192,1477,1,0,0:0:0:0:
256,192,1523,1,0,0:0:0:0:
109,192,1568,1,0,0:0:0:0:
36,192,1613,1,0,0:0:0:0:
402,192,1613,1,0,0:0:0:0:
182,192,1613,1,0,0:0:0:0:
182,192,1886,1,0,0:0:0:0:
182,192,2159,1,0,0:0:0:0:
182,192,2341,1,0,0:0:0:0:
182,192,2704,1,0,0:0:0:0:
402,192,2704,1,0,0:0:0:0:
182,192,2977,1,0,0:0:0:0:
182,192,3250,1,0,0:0:0:0:
109,192,3310,1,0,0:0:0:0:
36,192,3371,1,0,0:0:0:0:
182,192,3432,1,0,0:0:0:0:
329,192,3795,1,0,0:0:0:0:
109,192,3795,1,0,0:0:0:0:
475,192,3795,1,0,0:0:0:0:
329,192,4068,1,0,0:0:0:0:
329,192,4341,1,0,0:0:0:0:
329,192,4523,1,0,0:0:0:0:
109,192,4886,1,0,0:0:0:0:
402,192,4886,1,0,0:0:0:0:
475,192,4886,1,0,0:0:0:0:
256,192,4886,1,0,0:0:0:0:
109,192,5159,1,0,0:0:0:0:
109,192,5432,1,0,0:0:0:0:
182,192,5492,1,0,0:0:0:0:
256,192,5553,1,0,0:0:0:0:
109,192,5613,1,0,0:0:0:0:
475,192,5795,1,0,0:0:0:0:
36,192,5886,1,0,0:0:0:0:
182,192,5977,1,0,0:0:0:0:
329,192,5977,1,0,0:0:0:0:
402,192,5977,1,0,0:0:0:0:
475,192,6068,1,0,0:0:0:0:
329,192,6159,1,0,0:0:0:0:
182,192,6250,1,0,0:0:0:0:
402,192,6250,1,0,0:0:0:0:
109,192,6250,1,0,0:0:0:0:
36,192,6341,1,0,0:0:0:0:
256,192,6432,1,0,0:0:0:0:
182,192,6523,1,0,0:0:0:0:
329,192,6523,1,0,0:0:0:0:
475,192,6523,1,0,0:0:0:0:
109,192,6613,1,0,0:0:0:0:
402,192,6613,1,0,0:0:0:0:
182,192,6704,1,0,0:0:0:0:
329,192,6704,1,0,0:0:0:0:
36,192,6704,1,0,0:0:0:0:
475,192,6795,1,0,0:0:0:0:
109,192,6886,1,0,0:0:0:0:
182,192,6977,1,0,0:0:0:0:
329,192,7068,1,0,0:0:0:0:
475,192,7068,1,0,0:0:0:0:
36,192,7068,1,0,0:0:0:0:
256,192,7159,1,0,0:0:0:0:
182,192,7250,1,0,0:0:0:0:
329,192,7341,1,0,0:0:0:0:
36,192,7341,1,0,0:0:0:0:
109,192,7341,1,0,0:0:0:0:
182,192,7432,1,0,0:0:0:0:
256,192,7523,1,0,0:0:0:0:
329,192,7613,1,0,0:0:0:0:
109,192,7613,1,0,0:0:0:0:
402,192,7674,1,0,0:0:0:0:
475,192,7735,1,0,0:0:0:0:
329,192,7795,1,0,0:0:0:0:
36,192,7795,1,0,0:0:0:0:
256,192,7795,1,0,0:0:0:0:
109,192,7886,1,0,0:0:0:0:
329,192,7977,1,0,0:0:0:0:
182,192,7977,1,0,0:0:0:0:
475,192,7977,1,0,0:0:0:0:
256,192,8068,1,0,0:0:0:0:
109,192,8068,1,0,0:0:0:0:
402,192,8068,1,0,0:0:0:0:
475,192,8159,1,0,0:0:0:0:
36,192,8159,1,0,0:0:0:0:
329,192,8159,1,0,0:0:0:0:
182,192,8250,1,0,0:0:0:0:
109,192,8341,1,0,0:0:0:0:
402,192,8432,1,0,0:0:0:0:
256,192,8432,1,0,0:0:0:0:
182,192,8523,1,0,0:0:0:0:
329,192,8613,1,0,0:0:0:0:
475,192,8613,1,0,0:0:0:0:
402,192,8704,1,0,0:0:0:0:
256,192,8704,1,0,0:0:0:0:
36,192,8704,1,0,0:0:0:0:
109,192,8795,1,0,0:0:0:0:
402,192,8886,1,0,0:0:0:0:
182,192,8886,1,0,0:0:0:0:
256,192,8886,1,0,0:0:0:0:
402,192,9129,1,0,0:0:0:0:
329,192,9189,1,0,0:0:0:0:
256,192,9250,1,0,0:0:0:0:
36,192,9250,1,0,0:0:0:0:
475,192,9341,1,0,0:0:0:0:
36,192,9432,1,0,0:0:0:0:
256,192,9523,1,0,0:0:0:0:
402,192,9613,1,0,0:0:0:0:
109,192,9613,1,0,0:0:0:0:
475,192,9704,1,0,0:0:0:0:
182,192,9704,1,0,0:0:0:0:
256,192,9795,1,0,0:0:0:0:
329,192,9795,1,0,0:0:0:0:
109,192,9886,1,0,0:0:0:0:
402,192,9886,1,0,0:0:0:0:
256,192,9977,1,0,0:0:0:0:
36,192,9977,1,0,0:0:0:0:
329,192,9977,1,0,0:0:0:0:
109,192,10068,1,0,0:0:0:0:
402,192,10068,1,0,0:0:0:0:
182,192,10159,1,0,0:0:0:0:
329,192,10159,1,0,0:0:0:0:
256,192,10250,1,0,0:0:0:0:
402,192,10250,1,0,0:0:0:0:
36,192,10250,1,0,0:0:0:0:
182,192,10341,1,0,0:0:0:0:
329,192,10341,1,0,0:0:0:0:
109,192,10341,1,0,0:0:0:0:
475,192,10341,128,0,11068:0:0:0:0:
256,192,10432,1,0,0:0:0:0:
402,192,10523,1,0,0:0:0:0:
329,192,10613,1,0,0:0:0:0:
182,192,10613,1,0,0:0:0:0:
109,192,10704,1,0,0:0:0:0:
36,192,10795,1,0,0:0:0:0:
329,192,10886,1,0,0:0:0:0:
182,192,10886,1,0,0:0:0:0:
402,192,10977,1,0,0:0:0:0:
329,192,11068,1,0,0:0:0:0:
182,192,11068,1,0,0:0:0:0:
109,192,11159,1,0,0:0:0:0:
475,192,11250,1,0,0:0:0:0:
109,192,11341,1,0,0:0:0:0:
256,192,11401,1,0,0:0:0:0:
329,192,11432,1,0,0:0:0:0:
402,192,11432,1,0,0:0:0:0:
182,192,11523,1,0,0:0:0:0:
109,192,11613,1,0,0:0:0:0:
329,192,11704,1,0,0:0:0:0:
475,192,11704,1,0,0:0:0:0:
402,192,11795,1,0,0:0:0:0:
182,192,11795,1,0,0:0:0:0:
36,192,11886,1,0,0:0:0:0:
256,192,11886,1,0,0:0:0:0:
329,192,11977,1,0,0:0:0:0:
109,192,11977,1,0,0:0:0:0:
256,192,12038,1,0,0:0:0:0:
402,192,12068,1,0,0:0:0:0:
182,192,12098,1,0,0:0:0:0:
329,192,12159,1,0,0:0:0:0:
475,192,12159,1,0,0:0:0:0:
109,192,12159,1,0,0:0:0:0:
256,192,12250,1,0,0:0:0:0:
109,192,12341,1,0,0:0:0:0:
182,192,12432,1,0,0:0:0:0:
329,192,12492,1,0,0:0:0:0:
402,192,12523,1,0,0:0:0:0:
36,192,12523,1,0,0:0:0:0:
256,192,12613,1,0,0:0:0:0:
182,192,12704,1,0,0:0:0:0:
402,192,12795,1,0,0:0:0:0:
109,192,12795,1,0,0:0:0:0:
256,192,12886,1,0,0:0:0:0:
36,192,12977,1,0,0:0:0:0:
402,192,13068,1,0,0:0:0:0:
109,192,13068,1,0,0:0:0:0:
256,192,13159,1,0,0:0:0:0:
402,192,13250,1,0,0:0:0:0:
182,192,13250,1,0,0:0:0:0:
475,192,13250,1,0,0:0:0:0:
36,192,13341,1,0,0:0:0:0:
109,192,13432,1,0,0:0:0:0:
402,192,13523,1,0,0:0:0:0:
256,192,13583,1,0,0:0:0:0:
182,192,13613,1,0,0:0:0:0:
475,192,13613,1,0,0:0:0:0:
36,192,13704,1,0,0:0:0:0:
329,192,13795,1,0,0:0:0:0:
182,192,13886,1,0,0:0:0:0:
402,192,13886,1,0,0:0:0:0:
475,192,13977,1,0,0:0:0:0:
109,192,14068,1,0,0:0:0:0:
329,192,14068,1,0,0:0:0:0:
182,192,14159,1,0,0:0:0:0:
402,192,14159,1,0,0:0:0:0:
109,192,14219,1,0,0:0:0:0:
256,192,14250,1,0,0:0:0:0:
36,192,14280,1,0,0:0:0:0:
182,192,14341,1,0,0:0:0:0:
329,192,14341,1,0,0:0:0:0:
402,192,14432,1,0,0:0:0:0:
329,192,14523,1,0,0:0:0:0:
109,192,14613,1,0,0:0:0:0:
256,192,14644,1,0,0:0:0:0:
329,192,14674,1,0,0:0:0:0:
402,192,14704,1,0,0:0:0:0:
475,192,14704,1,0,0:0:0:0:
36,192,14704,1,0,0:0:0:0:
182,192,14704,1,0,0:0:0:0:
329,192,14795,1,0,0:0:0:0:
256,192,14886,1,0,0:0:0:0:
475,192,14977,1,0,0:0:0:0:
329,192,14977,1,0,0:0:0:0:
402,192,15068,1,0,0:0:0:0:
182,192,15068,1,0,0:0:0:0:
36,192,15159,1,0,0:0:0:0:
329,192,15250,1,0,0:0:0:0:
109,192,15250,1,0,0:0:0:0:
475,192,15341,1,0,0:0:0:0:
329,192,15432,1,0,0:0:0:0:
182,192,15432,1,0,0:0:0:0:
109,192,15523,1,0,0:0:0:0:
329,192,15613,1,0,0:0:0:0:
475,192,15704,1,0,0:0:0:0:
256,192,15765,1,0,0:0:0:0:
329,192,15795,1,0,0:0:0:0:
36,192,15795,1,0,0:0:0:0:
109,192,15886,1,0,0:0:0:0:
182,192,15977,1,0,0:0:0:0:
329,192,16068,1,0,0:0:0:0:
36,192,16068,1,0,0:0:0:0:
109,192,16159,1,0,0:0:0:0:
182,192,16250,1,0,0:0:0:0:
329,192,16341,1,0,0:0:0:0:
109,192,16341,1,0,0:0:0:0:
402,192,16401,1,0,0:0:0:0:
36,192,16432,1,0,0:0:0:0:
475,192,16462,1,0,0:0:0:0:
329,192,16523,1,0,0:0:0:0:
182,192,16523,1,0,0:0:0:0:
402,192,16613,1,0,0:0:0:0:
475,192,16704,1,0,0:0:0:0:
329,192,16795,1,0,0:0:0:0:
182,192,16856,1,0,0:0:0:0:
109,192,16886,1,0,0:0:0:0:
36,192,16886,1,0,0:0:0:0:
402,192,16886,1,0,0:0:0:0:
475,192,16977,1,0,0:0:0:0:
402,192,17068,1,0,0:0:0:0:
109,192,17159,1,0,0:0:0:0:
256,192,17159,1,0,0:0:0:0:
329,192,17250,1,0,0:0:0:0:
475,192,17341,1,0,0:0:0:0:
109,192,17432,1,0,0:0:0:0:
402,192,17432,1,0,0:0:0:0:
36,192,17523,1,0,0:0:0:0:
329,192,17523,1,0,0:0:0:0:
109,192,17613,1,0,0:0:0:0:
256,192,17613,1,0,0:0:0:0:
329,192,17659,1,0,0:0:0:0:
402,192,17704,1,0,0:0:0:0:
36,192,17704,1,0,0:0:0:0:
475,192,17750,1,0,0:0:0:0:
109,192,17795,1,0,0:0:0:0:
329,192,17795,1,0,0:0:0:0:
182,192,17841,1,0,0:0:0:0:
256,192,17886,1,0,0:0:0:0:
36,192,17886,1,0,0:0:0:0:
329,192,17932,1,0,0:0:0:0:
402,192,17977,1,0,0:0:0:0:
109,192,17977,1,0,0:0:0:0:
475,192,17977,1,0,0:0:0:0:
256,192,18068,1,0,0:0:0:0:
329,192,18159,1,0,0:0:0:0:
402,192,18159,1,0,0:0:0:0:
109,192,18250,1,0,0:0:0:0:
182,192,18250,1,0,0:0:0:0:
329,192,18432,1,0,0:0:0:0:
256,192,18523,1,0,0:0:0:0:
109,192,18523,1,0,0:0:0:0:
182,192,18704,1,0,0:0:0:0:
402,192,18704,1,0,0:0:0:0:
329,192,18795,1,0,0:0:0:0:
36,192,18886,1,0,0:0:0:0:
256,192,18886,1,0,0:0:0:0:
182,192,18977,1,0,0:0:0:0:
402,192,19068,128,0,20886:0:0:0:0:
109,192,19068,128,0,21250:0:0:0:0:
36,192,19250,1,0,0:0:0:0:
475,192,19432,1,0,0:0:0:0:
182,192,19432,1,0,0:0:0:0:
256,192,19613,1,0,0:0:0:0:
475,192,19795,1,0,0:0:0:0:
182,192,19795,1,0,0:0:0:0:
475,192,19977,1,0,0:0:0:0:
329,192,19977,1,0,0:0:0:0:
475,192,20159,1,0,0:0:0:0:
36,192,20159,1,0,0:0:0:0:
329,192,20341,1,0,0:0:0:0:
182,192,20341,1,0,0:0:0:0:
475,192,20523,1,0,0:0:0:0:
256,192,20523,1,0,0:0:0:0:
182,192,20704,1,0,0:0:0:0:
36,192,20704,1,0,0:0:0:0:
475,192,20886,1,0,0:0:0:0:
329,192,20886,1,0,0:0:0:0:
256,192,20886,1,0,0:0:0:0:
36,192,20886,1,0,0:0:0:0:
402,192,21068,1,0,0:0:0:0:
182,192,21068,1,0,0:0:0:0:
329,192,21068,1,0,0:0:0:0:
36,192,21250,128,0,22341:0:0:0:0:
182,192,21250,1,0,0:0:0:0:
475,192,21250,1,0,0:0:0:0:
256,192,21250,1,0,0:0:0:0:
329,192,21432,1,0,0:0:0:0:
109,192,21432,1,0,0:0:0:0:
475,192,21613,1,0,0:0:0:0:
182,192,21613,1,0,0:0:0:0:
256,192,21795,1,0,0:0:0:0:
402,192,21795,1,0,0:0:0:0:
329,192,21977,1,0,0:0:0:0:
475,192,21977,1,0,0:0:0:0:
182,192,22159,1,0,0:0:0:0:
402,192,22159,1,0,0:0:0:0:
329,192,22341,1,0,0:0:0:0:
109,192,22341,128,0,23432:0:0:0:0:
182,192,22523,1,0,0:0:0:0:
402,192,22523,1,0,0:0:0:0:
475,192,22704,1,0,0:0:0:0:
329,192,22704,1,0,0:0:0:0:
182,192,22886,1,0,0:0:0:0:
402,192,22886,1,0,0:0:0:0:
475,192,23068,1,0,0:0:0:0:
256,192,23068,1,0,0:0:0:0:
182,192,23250,1,0,0:0:0:0:
329,192,23250,1,0,0:0:0:0:
475,192,23250,1,0,0:0:0:0:
256,192,23341,1,0,0:0:0:0:
402,192,23341,1,0,0:0:0:0:
182,192,23432,128,0,25613:0:0:0:0:
329,192,23432,1,0,0:0:0:0:
475,192,23432,1,0,0:0:0:0:
36,192,23432,1,0,0:0:0:0:
36,192,23613,1,0,0:0:0:0:
402,192,23613,1,0,0:0:0:0:
109,192,23795,1,0,0:0:0:0:
475,192,23795,1,0,0:0:0:0:
329,192,23977,1,0,0:0:0:0:
36,192,23977,1,0,0:0:0:0:
475,192,24159,128,0,24432:0:0:0:0:
256,192,24159,1,0,0:0:0:0:
402,192,24159,1,0,0:0:0:0:
402,192,24341,128,0,25068:0:0:0:0:
109,192,24341,1,0,0:0:0:0:
329,192,24341,1,0,0:0:0:0:
36,192,24523,1,0,0:0:0:0:
256,192,24523,1,0,0:0:0:0:
475,192,24523,128,0,25068:0:0:0:0:
109,192,24704,1,0,0:0:0:0:
329,192,24704,1,0,0:0:0:0:
256,192,24886,1,0,0:0:0:0:
256,192,25068,128,0,25613:0:0:0:0:
36,192,25068,1,0,0:0:0:0:
402,192,25250,1,0,0:0:0:0:
475,192,25250,1,0,0:0:0:0:
402,192,25432,1,0,0:0:0:0:
329,192,25432,1,0,0:0:0:0:
36,192,25613,128,0,26704:0:0:0:0:
402,192,25613,128,0,26704:0:0:0:0:
109,192,25613,1,0,0:0:0:0:
329,192,25613,1,0,0:0:0:0:
475,192,25613,1,0,0:0:0:0:
256,192,25795,1,0,0:0:0:0:
109,192,25795,1,0,0:0:0:0:
182,192,25977,1,0,0:0:0:0:
475,192,25977,1,0,0:0:0:0:
329,192,26159,1,0,0:0:0:0:
109,192,26159,1,0,0:0:0:0:
256,192,26341,1,0,0:0:0:0:
182,192,26341,1,0,0:0:0:0:
475,192,26523,1,0,0:0:0:0:
329,192,26523,1,0,0:0:0:0:
109,192,26704,128,0,27432:0:0:0:0:
256,192,26704,128,0,27068:0:0:0:0:
182,192,26704,1,0,0:0:0:0:
329,192,26704,128,0,26795:0:0:0:0:
182,192,27068,128,0,27523:0:0:0:0:
329,192,27068,128,0,27432:0:0:0:0:
402,192,27068,128,0,27159:0:0:0:0:
256,192,27432,128,0,27795:0:0:0:0:
402,192,27432,128,0,27795:0:0:0:0:
36,192,27432,1,0,0:0:0:0:
475,192,27432,128,0,27523:0:0:0:0:
109,192,27523,1,0,0:0:0:0:
182,192,27613,1,0,0:0:0:0:
109,192,27704,1,0,0:0:0:0:
36,192,27795,1,0,0:0:0:0:
475,192,27795,1,0,0:0:0:0:
329,192,27795,128,0,27886:0:0:0:0:
182,192,27795,1,0,0:0:0:0:
109,192,27977,128,0,28068:0:0:0:0:
475,192,27977,1,0,0:0:0:0:
36,192,27977,1,0,0:0:0:0:
256,192,28159,128,0,28250:0:0:0:0:
329,192,28159,1,0,0:0:0:0:
182,192,28159,1,0,0:0:0:0:
402,192,28341,128,0,28432:0:0:0:0:
475,192,28341,1,0,0:0:0:0:
109,192,28341,1,0,0:0:0:0:
36,192,28523,128,0,28613:0:0:0:0:
329,192,28523,1,0,0:0:0:0:
109,192,28523,1,0,0:0:0:0:
182,192,28704,128,0,28795:0:0:0:0:
475,192,28704,1,0,0:0:0:0:
256,192,28704,1,0,0:0:0:0:
329,192,28886,128,0,28977:0:0:0:0:
402,192,28886,1,0,0:0:0:0:
109,192,28886,1,0,0:0:0:0:
256,192,29068,128,0,29159:0:0:0:0:
182,192,29068,1,0,0:0:0:0:
402,192,29068,1,0,0:0:0:0:
329,192,29250,128,0,29341:0:0:0:0:
36,192,29250,1,0,0:0:0:0:
475,192,29250,1,0,0:0:0:0:
402,192,29432,128,0,29523:0:0:0:0:
182,192,29432,1,0,0:0:0:0:
109,192,29432,1,0,0:0:0:0:
109,192,29613,128,0,29704:0:0:0:0:
329,192,29613,1,0,0:0:0:0:
36,192,29613,1,0,0:0:0:0:
182,192,29795,128,0,29886:0:0:0:0:
475,192,29795,1,0,0:0:0:0:
256,192,29795,1,0,0:0:0:0:
256,192,29977,128,0,30068:0:0:0:0:
109,192,29977,1,0,0:0:0:0:
329,192,29977,1,0,0:0:0:0:
36,192,29977,1,0,0:0:0:0:
36,192,30159,128,0,30250:0:0:0:0:
329,192,30159,1,0,0:0:0:0:
475,192,30159,1,0,0:0:0:0:
256,192,30341,128,0,30432:0:0:0:0:
402,192,30341,1,0,0:0:0:0:
109,192,30341,1,0,0:0:0:0:
475,192,30523,128,0,30613:0:0:0:0:
256,192,30523,1,0,0:0:0:0:
182,192,30523,1,0,0:0:0:0:
109,192,30704,128,0,30795:0:0:0:0:
36,192,30704,1,0,0:0:0:0:
329,192,30704,1,0,0:0:0:0:
256,192,30886,128,0,30977:0:0:0:0:
402,192,30886,1,0,0:0:0:0:
182,192,30886,1,0,0:0:0:0:
475,192,31068,128,0,31159:0:0:0:0:
256,192,31068,1,0,0:0:0:0:
109,192,31068,1,0,0:0:0:0:
36,192,31250,128,0,31341:0:0:0:0:
109,192,31250,1,0,0:0:0:0:
329,192,31250,1,0,0:0:0:0:
256,192,31432,128,0,31523:0:0:0:0:
182,192,31432,1,0,0:0:0:0:
402,192,31432,1,0,0:0:0:0:
402,192,31613,128,0,31704:0:0:0:0:
256,192,31613,1,0,0:0:0:0:
109,192,31613,1,0,0:0:0:0:
36,192,31613,1,0,0:0:0:0:
329,192,31704,1,0,0:0:0:0:
256,192,31795,128,0,31886:0:0:0:0:
402,192,31795,1,0,0:0:0:0:
475,192,31795,1,0,0:0:0:0:
182,192,31795,1,0,0:0:0:0:
329,192,31886,1,0,0:0:0:0:
36,192,31977,128,0,32068:0:0:0:0:
109,192,31977,1,0,0:0:0:0:
475,192,31977,1,0,0:0:0:0:
182,192,32068,1,0,0:0:0:0:
475,192,32159,128,0,32432:0:0:0:0:
402,192,32159,128,0,32432:0:0:0:0:
329,192,32159,1,0,0:0:0:0:
36,192,32159,1,0,0:0:0:0:
109,192,32159,1,0,0:0:0:0:
256,192,32159,1,0,0:0:0:0:
109,192,32432,128,0,32704:0:0:0:0:
36,192,32432,128,0,32704:0:0:0:0:
182,192,32432,1,0,0:0:0:0:
256,192,32432,1,0,0:0:0:0:
402,192,32704,128,0,32886:0:0:0:0:
475,192,32704,128,0,32886:0:0:0:0:
329,192,32704,1,0,0:0:0:0:
256,192,32704,1,0,0:0:0:0:
36,192,32886,128,0,33250:0:0:0:0:
109,192,32886,128,0,33250:0:0:0:0:
182,192,32886,1,0,0:0:0:0:
329,192,32886,1,0,0:0:0:0:
256,192,33068,1,0,0:0:0:0:
329,192,33250,128,0,33523:0:0:0:0:
402,192,33250,128,0,33523:0:0:0:0:
475,192,33250,1,0,0:0:0:0:
182,192,33250,1,0,0:0:0:0:
109,192,33523,128,0,33795:0:0:0:0:
182,192,33523,128,0,33795:0:0:0:0:
256,192,33523,1,0,0:0:0:0:
36,192,33523,1,0,0:0:0:0:
329,192,33795,128,0,33977:0:0:0:0:
402,192,33795,128,0,33977:0:0:0:0:
475,192,33795,1,0,0:0:0:0:
256,192,33795,1,0,0:0:0:0:
109,192,33977,128,0,34341:0:0:0:0:
182,192,33977,128,0,34341:0:0:0:0:
36,192,33977,1,0,0:0:0:0:
475,192,33977,1,0,0:0:0:0:
402,192,34068,1,0,0:0:0:0:
329,192,34159,1,0,0:0:0:0:
256,192,34250,1,0,0:0:0:0:
329,192,34341,128,0,34613:0:0:0:0:
475,192,34341,128,0,34613:0:0:0:0:
402,192,34341,1,0,0:0:0:0:
36,192,34341,1,0,0:0:0:0:
182,192,34613,128,0,34886:0:0:0:0:
109,192,34613,1,0,0:0:0:0:
36,192,34613,128,0,34886:0:0:0:0:
329,192,34886,128,0,35068:0:0:0:0:
475,192,34886,128,0,35068:0:0:0:0:
402,192,34886,1,0,0:0:0:0:
36,192,35068,128,0,35341:0:0:0:0:
182,192,35068,128,0,35341:0:0:0:0:
109,192,35068,1,0,0:0:0:0:
256,192,35068,1,0,0:0:0:0:
256,192,35432,128,0,35795:0:0:0:0:
402,192,35432,128,0,35795:0:0:0:0:
182,192,35432,128,0,36159:0:0:0:0:
475,192,35432,1,0,0:0:0:0:
109,192,35432,1,0,0:0:0:0:
329,192,35523,1,0,0:0:0:0:
36,192,35613,1,0,0:0:0:0:
109,192,35704,1,0,0:0:0:0:
329,192,35795,128,0,36159:0:0:0:0:
475,192,35795,128,0,36159:0:0:0:0:
36,192,35795,1,0,0:0:0:0:
402,192,36159,128,0,36523:0:0:0:0:
256,192,36159,128,0,36523:0:0:0:0:
109,192,36159,128,0,36523:0:0:0:0:
36,192,36159,1,0,0:0:0:0:
475,192,36250,1,0,0:0:0:0:
329,192,36341,1,0,0:0:0:0:
182,192,36432,1,0,0:0:0:0:
329,192,36523,1,0,0:0:0:0:
475,192,36523,1,0,0:0:0:0:
36,192,36523,128,0,36704:0:0:0:0:
182,192,36613,1,0,0:0:0:0:
402,192,36704,1,0,0:0:0:0:
109,192,36795,128,0,36977:0:0:0:0:
475,192,36795,1,0,0:0:0:0:
256,192,36886,1,0,0:0:0:0:
182,192,36886,1,0,0:0:0:0:
329,192,36977,1,0,0:0:0:0:
182,192,37068,128,0,37159:0:0:0:0:
402,192,37068,1,0,0:0:0:0:
475,192,37159,1,0,0:0:0:0:
256,192,37250,128,0,37341:0:0:0:0:
182,192,37250,1,0,0:0:0:0:
36,192,37250,1,0,0:0:0:0:
475,192,37341,1,0,0:0:0:0:
329,192,37432,1,0,0:0:0:0:
182,192,37523,1,0,0:0:0:0:
475,192,37613,128,0,37795:0:0:0:0:
36,192,37613,1,0,0:0:0:0:
256,192,37613,1,0,0:0:0:0:
109,192,37704,1,0,0:0:0:0:
329,192,37795,1,0,0:0:0:0:
402,192,37886,128,0,38068:0:0:0:0:
256,192,37886,1,0,0:0:0:0:
109,192,37977,1,0,0:0:0:0:
475,192,37977,1,0,0:0:0:0:
182,192,38068,1,0,0:0:0:0:
475,192,38159,128,0,38250:0:0:0:0:
36,192,38159,1,0,0:0:0:0:
329,192,38219,1,0,0:0:0:0:
109,192,38250,1,0,0:0:0:0:
256,192,38280,1,0,0:0:0:0:
402,192,38341,128,0,38432:0:0:0:0:
182,192,38341,1,0,0:0:0:0:
475,192,38341,1,0,0:0:0:0:
329,192,38432,1,0,0:0:0:0:
256,192,38523,1,0,0:0:0:0:
109,192,38613,1,0,0:0:0:0:
182,192,38704,128,0,38886:0:0:0:0:
36,192,38704,1,0,0:0:0:0:
329,192,38704,1,0,0:0:0:0:
402,192,38704,1,0,0:0:0:0:
256,192,38795,1,0,0:0:0:0:
475,192,38886,1,0,0:0:0:0:
182,192,38977,128,0,39159:0:0:0:0:
402,192,38977,1,0,0:0:0:0:
256,192,39068,1,0,0:0:0:0:
109,192,39068,1,0,0:0:0:0:
329,192,39159,1,0,0:0:0:0:
36,192,39250,128,0,39341:0:0:0:0:
475,192,39250,1,0,0:0:0:0:
402,192,39341,1,0,0:0:0:0:
182,192,39432,128,0,39523:0:0:0:0:
256,192,39432,1,0,0:0:0:0:
36,192,39432,1,0,0:0:0:0:
329,192,39523,1,0,0:0:0:0:
109,192,39613,1,0,0:0:0:0:
182,192,39704,1,0,0:0:0:0:
329,192,39795,128,0,39977:0:0:0:0:
256,192,39795,1,0,0:0:0:0:
475,192,39795,1,0,0:0:0:0:
182,192,39886,1,0,0:0:0:0:
36,192,39977,1,0,0:0:0:0:
329,192,40068,128,0,40250:0:0:0:0:
182,192,40068,1,0,0:0:0:0:
256,192,40159,1,0,0:0:0:0:
475,192,40159,1,0,0:0:0:0:
36,192,40250,1,0,0:0:0:0:
475,192,40341,128,0,40432:0:0:0:0:
109,192,40341,1,0,0:0:0:0:
256,192,40401,1,0,0:0:0:0:
329,192,40432,1,0,0:0:0:0:
182,192,40462,1,0,0:0:0:0:
329,192,40523,128,0,40613:0:0:0:0:
475,192,40523,1,0,0:0:0:0:
109,192,40523,1,0,0:0:0:0:
36,192,40523,1,0,0:0:0:0:
402,192,40613,1,0,0:0:0:0:
182,192,40613,1,0,0:0:0:0:
329,192,40704,1,0,0:0:0:0:
109,192,40704,1,0,0:0:0:0:
256,192,40795,1,0,0:0:0:0:
475,192,40795,1,0,0:0:0:0:
475,192,40886,128,0,41068:0:0:0:0:
36,192,40886,1,0,0:0:0:0:
329,192,40886,1,0,0:0:0:0:
182,192,40886,128,0,41977:0:0:0:0:
109,192,40977,1,0,0:0:0:0:
329,192,41068,1,0,0:0:0:0:
402,192,41159,128,0,41341:0:0:0:0:
256,192,41159,1,0,0:0:0:0:
36,192,41250,1,0,0:0:0:0:
475,192,41250,1,0,0:0:0:0:
109,192,41341,1,0,0:0:0:0:
475,192,41432,128,0,41523:0:0:0:0:
329,192,41432,1,0,0:0:0:0:
256,192,41523,1,0,0:0:0:0:
402,192,41613,128,0,41704:0:0:0:0:
36,192,41613,1,0,0:0:0:0:
109,192,41613,1,0,0:0:0:0:
475,192,41613,1,0,0:0:0:0:
329,192,41704,1,0,0:0:0:0:
475,192,41795,1,0,0:0:0:0:
256,192,41795,1,0,0:0:0:0:
402,192,41886,1,0,0:0:0:0:
36,192,41886,1,0,0:0:0:0:
109,192,41977,128,0,42159:0:0:0:0:
329,192,41977,1,0,0:0:0:0:
256,192,41977,1,0,0:0:0:0:
402,192,42068,1,0,0:0:0:0:
475,192,42159,1,0,0:0:0:0:
36,192,42250,128,0,42432:0:0:0:0:
329,192,42250,1,0,0:0:0:0:
109,192,42341,1,0,0:0:0:0:
182,192,42341,1,0,0:0:0:0:
402,192,42432,1,0,0:0:0:0:
109,192,42523,128,0,42613:0:0:0:0:
475,192,42523,1,0,0:0:0:0:
182,192,42583,1,0,0:0:0:0:
402,192,42613,1,0,0:0:0:0:
256,192,42644,1,0,0:0:0:0:
36,192,42704,128,0,42795:0:0:0:0:
329,192,42704,1,0,0:0:0:0:
182,192,42704,1,0,0:0:0:0:
475,192,42704,1,0,0:0:0:0:
402,192,42795,1,0,0:0:0:0:
329,192,42886,1,0,0:0:0:0:
182,192,42977,1,0,0:0:0:0:
329,192,43068,128,0,43250:0:0:0:0:
256,192,43068,1,0,0:0:0:0:
475,192,43068,1,0,0:0:0:0:
109,192,43068,1,0,0:0:0:0:
402,192,43159,1,0,0:0:0:0:
36,192,43250,1,0,0:0:0:0:
329,192,43341,128,0,43523:0:0:0:0:
109,192,43341,1,0,0:0:0:0:
182,192,43432,1,0,0:0:0:0:
475,192,43432,1,0,0:0:0:0:
402,192,43432,1,0,0:0:0:0:
256,192,43523,1,0,0:0:0:0:
475,192,43613,128,0,43704:0:0:0:0:
109,192,43613,1,0,0:0:0:0:
256,192,43674,1,0,0:0:0:0:
36,192,43704,1,0,0:0:0:0:
182,192,43735,1,0,0:0:0:0:
329,192,43795,128,0,43886:0:0:0:0:
475,192,43795,1,0,0:0:0:0:
109,192,43795,1,0,0:0:0:0:
402,192,43795,1,0,0:0:0:0:
256,192,43886,1,0,0:0:0:0:
109,192,43977,1,0,0:0:0:0:
402,192,44068,1,0,0:0:0:0:
36,192,44068,1,0,0:0:0:0:
182,192,44159,128,0,44341:0:0:0:0:
256,192,44159,1,0,0:0:0:0:
475,192,44159,1,0,0:0:0:0:
109,192,44159,1,0,0:0:0:0:
402,192,44341,1,0,0:0:0:0:
36,192,44341,1,0,0:0:0:0:
182,192,44432,128,0,44613:0:0:0:0:
475,192,44432,1,0,0:0:0:0:
329,192,44432,1,0,0:0:0:0:
329,192,44613,1,0,0:0:0:0:
36,192,44613,1,0,0:0:0:0:
36,192,44704,128,0,44795:0:0:0:0:
402,192,44704,1,0,0:0:0:0:
182,192,44704,1,0,0:0:0:0:
256,192,44765,1,0,0:0:0:0:
329,192,44826,1,0,0:0:0:0:
182,192,44886,128,0,44977:0:0:0:0:
402,192,44886,1,0,0:0:0:0:
36,192,44886,1,0,0:0:0:0:
109,192,44886,1,0,0:0:0:0:
475,192,44947,1,0,0:0:0:0:
402,192,45007,1,0,0:0:0:0:
329,192,45068,1,0,0:0:0:0:
109,192,45068,128,0,46159:0:0:0:0:
36,192,45159,128,0,46250:0:0:0:0:
182,192,45159,128,0,46250:0:0:0:0:
329,192,45432,128,0,46341:0:0:0:0:
475,192,45795,128,0,46341:0:0:0:0:
402,192,46159,128,0,46341:0:0:0:0:
109,192,46341,1,0,0:0:0:0:
256,192,46341,128,0,46704:0:0:0:0:
36,192,46341,1,0,0:0:0:0:
182,192,46341,1,0,0:0:0:0:
402,192,46432,1,0,0:0:0:0:
475,192,46523,1,0,0:0:0:0:
182,192,46523,1,0,0:0:0:0:
329,192,46613,1,0,0:0:0:0:
402,192,46704,128,0,46795:0:0:0:0:
475,192,46704,1,0,0:0:0:0:
36,192,46704,1,0,0:0:0:0:
109,192,46704,1,0,0:0:0:0:
182,192,46795,1,0,0:0:0:0:
256,192,46886,1,0,0:0:0:0:
329,192,46886,1,0,0:0:0:0:
402,192,47068,128,0,47159:0:0:0:0:
256,192,47068,1,0,0:0:0:0:
475,192,47068,1,0,0:0:0:0:
109,192,47250,1,0,0:0:0:0:
256,192,47250,1,0,0:0:0:0:
182,192,47341,1,0,0:0:0:0:
256,192,47432,128,0,47795:0:0:0:0:
36,192,47432,1,0,0:0:0:0:
475,192,47432,1,0,0:0:0:0:
402,192,47523,1,0,0:0:0:0:
475,192,47613,128,0,47795:0:0:0:0:
329,192,47613,1,0,0:0:0:0:
109,192,47704,1,0,0:0:0:0:
402,192,47795,1,0,0:0:0:0:
36,192,47795,1,0,0:0:0:0:
329,192,47856,1,0,0:0:0:0:
182,192,47916,1,0,0:0:0:0:
109,192,47977,128,0,48341:0:0:0:0:
329,192,47977,1,0,0:0:0:0:
402,192,48068,1,0,0:0:0:0:
36,192,48159,128,0,48341:0:0:0:0:
475,192,48159,1,0,0:0:0:0:
256,192,48159,1,0,0:0:0:0:
402,192,48250,1,0,0:0:0:0:
329,192,48341,128,0,48886:0:0:0:0:
182,192,48341,1,0,0:0:0:0:
256,192,48432,1,0,0:0:0:0:
402,192,48523,128,0,48886:0:0:0:0:
36,192,48523,1,0,0:0:0:0:
109,192,48523,1,0,0:0:0:0:
475,192,48523,1,0,0:0:0:0:
182,192,48613,1,0,0:0:0:0:
109,192,48704,1,0,0:0:0:0:
36,192,48704,1,0,0:0:0:0:
256,192,48795,1,0,0:0:0:0:
475,192,48886,128,0,48977:0:0:0:0:
182,192,48886,1,0,0:0:0:0:
36,192,48886,1,0,0:0:0:0:
109,192,48886,1,0,0:0:0:0:
329,192,48977,1,0,0:0:0:0:
402,192,49068,1,0,0:0:0:0:
182,192,49068,1,0,0:0:0:0:
475,192,49250,128,0,49341:0:0:0:0:
402,192,49250,1,0,0:0:0:0:
182,192,49250,1,0,0:0:0:0:
329,192,49250,1,0,0:0:0:0:
256,192,49341,1,0,0:0:0:0:
329,192,49432,1,0,0:0:0:0:
182,192,49432,1,0,0:0:0:0:
402,192,49523,1,0,0:0:0:0:
109,192,49613,1,0,0:0:0:0:
329,192,49613,1,0,0:0:0:0:
475,192,49613,128,0,50159:0:0:0:0:
36,192,49613,1,0,0:0:0:0:
182,192,49704,1,0,0:0:0:0:
256,192,49795,1,0,0:0:0:0:
402,192,49795,128,0,50159:0:0:0:0:
36,192,49795,1,0,0:0:0:0:
109,192,49886,1,0,0:0:0:0:
36,192,49977,1,0,0:0:0:0:
256,192,49977,1,0,0:0:0:0:
329,192,49977,128,0,50159:0:0:0:0:
182,192,49977,1,0,0:0:0:0:
109,192,50068,1,0,0:0:0:0:
36,192,50159,128,0,50613:0:0:0:0:
182,192,50159,1,0,0:0:0:0:
256,192,50159,1,0,0:0:0:0:
329,192,50250,1,0,0:0:0:0:
109,192,50341,128,0,50613:0:0:0:0:
475,192,50341,1,0,0:0:0:0:
402,192,50341,1,0,0:0:0:0:
182,192,50432,128,0,50704:0:0:0:0:
329,192,50432,1,0,0:0:0:0:
256,192,50523,128,0,50704:0:0:0:0:
475,192,50523,1,0,0:0:0:0:
402,192,50523,1,0,0:0:0:0:
329,192,50613,128,0,50704:0:0:0:0:
36,192,50704,1,0,0:0:0:0:
475,192,50704,1,0,0:0:0:0:
402,192,50704,1,0,0:0:0:0:
109,192,50704,128,0,51068:0:0:0:0:
329,192,50795,1,0,0:0:0:0:
256,192,50886,1,0,0:0:0:0:
329,192,50977,1,0,0:0:0:0:
402,192,51068,128,0,51159:0:0:0:0:
475,192,51068,1,0,0:0:0:0:
182,192,51068,1,0,0:0:0:0:
36,192,51068,1,0,0:0:0:0:
256,192,51159,1,0,0:0:0:0:
109,192,51250,1,0,0:0:0:0:
475,192,51250,1,0,0:0:0:0:
182,192,51250,1,0,0:0:0:0:
402,192,51310,1,0,0:0:0:0:
256,192,51341,1,0,0:0:0:0:
329,192,51371,1,0,0:0:0:0:
402,192,51401,1,0,0:0:0:0:
475,192,51432,128,0,51523:0:0:0:0:
182,192,51432,1,0,0:0:0:0:
36,192,51432,1,0,0:0:0:0:
329,192,51523,1,0,0:0:0:0:
109,192,51613,1,0,0:0:0:0:
256,192,51613,1,0,0:0:0:0:
182,192,51704,1,0,0:0:0:0:
329,192,51704,1,0,0:0:0:0:
256,192,51795,128,0,52068:0:0:0:0:
402,192,51795,128,0,52159:0:0:0:0:
475,192,51795,1,0,0:0:0:0:
109,192,51795,1,0,0:0:0:0:
182,192,51886,1,0,0:0:0:0:
329,192,51977,128,0,52159:0:0:0:0:
36,192,51977,1,0,0:0:0:0:
109,192,52068,1,0,0:0:0:0:
0,0,52098,5,0,0:0:0:0:
182,192,52159,1,0,0:0:0:0:
256,192,52159,1,0,0:0:0:0:
475,192,52159,128,0,52341:0:0:0:0:
402,192,52219,1,0,0:0:0:0:
109,192,52250,1,0,0:0:0:0:
329,192,52280,1,0,0:0:0:0:
256,192,52341,128,0,52523:0:0:0:0:
36,192,52341,1,0,0:0:0:0:
109,192,52432,1,0,0:0:0:0:
36,192,52523,128,0,52886:0:0:0:0:
402,192,52523,1,0,0:0:0:0:
475,192,52523,1,0,0:0:0:0:
182,192,52523,1,0,0:0:0:0:
329,192,52523,1,0,0:0:0:0:
109,192,52613,1,0,0:0:0:0:
182,192,52704,128,0,52886:0:0:0:0:
475,192,52704,1,0,0:0:0:0:
256,192,52704,1,0,0:0:0:0:
402,192,52795,1,0,0:0:0:0:
109,192,52886,1,0,0:0:0:0:
475,192,52886,1,0,0:0:0:0:
329,192,52886,128,0,53250:0:0:0:0:
256,192,52886,1,0,0:0:0:0:
402,192,52977,1,0,0:0:0:0:
36,192,53068,1,0,0:0:0:0:
182,192,53068,1,0,0:0:0:0:
256,192,53159,1,0,0:0:0:0:
475,192,53250,128,0,53341:0:0:0:0:
109,192,53250,1,0,0:0:0:0:
36,192,53250,1,0,0:0:0:0:
256,192,53341,1,0,0:0:0:0:
182,192,53432,1,0,0:0:0:0:
402,192,53432,1,0,0:0:0:0:
329,192,53523,1,0,0:0:0:0:
402,192,53613,128,0,53704:0:0:0:0:
36,192,53704,1,0,0:0:0:0:
182,192,53795,1,0,0:0:0:0:
329,192,53795,1,0,0:0:0:0:
256,192,53886,1,0,0:0:0:0:
475,192,53886,1,0,0:0:0:0:
329,192,53977,128,0,54613:0:0:0:0:
402,192,53977,1,0,0:0:0:0:
109,192,54068,1,0,0:0:0:0:
256,192,54159,128,0,54613:0:0:0:0:
182,192,54159,1,0,0:0:0:0:
36,192,54250,1,0,0:0:0:0:
109,192,54250,1,0,0:0:0:0:
182,192,54341,128,0,54704:0:0:0:0:
475,192,54341,1,0,0:0:0:0:
402,192,54341,1,0,0:0:0:0:
36,192,54432,1,0,0:0:0:0:
109,192,54523,128,0,54977:0:0:0:0:
402,192,54523,1,0,0:0:0:0:
475,192,54523,1,0,0:0:0:0:
36,192,54613,1,0,0:0:0:0:
256,192,54704,1,0,0:0:0:0:
329,192,54704,1,0,0:0:0:0:
182,192,54795,1,0,0:0:0:0:
475,192,54886,128,0,54977:0:0:0:0:
402,192,54886,128,0,55068:0:0:0:0:
329,192,54886,1,0,0:0:0:0:
256,192,54886,1,0,0:0:0:0:
256,192,54977,1,0,0:0:0:0:
329,192,54977,1,0,0:0:0:0:
109,192,55068,1,0,0:0:0:0:
36,192,55068,128,0,57250:0:0:0:0:
182,192,55068,128,0,57250:0:0:0:0:
475,192,55068,1,0,0:0:0:0:
256,192,55159,1,0,0:0:0:0:
329,192,55250,1,0,0:0:0:0:
475,192,55341,1,0,0:0:0:0:
402,192,55432,1,0,0:0:0:0:
109,192,55432,1,0,0:0:0:0:
329,192,55432,1,0,0:0:0:0:
256,192,55523,1,0,0:0:0:0:
329,192,55613,1,0,0:0:0:0:
109,192,55704,1,0,0:0:0:0:
256,192,55795,1,0,0:0:0:0:
402,192,55795,1,0,0:0:0:0:
329,192,55795,1,0,0:0:0:0:
475,192,55886,1,0,0:0:0:0:
329,192,55977,1,0,0:0:0:0:
109,192,56068,1,0,0:0:0:0:
402,192,56159,1,0,0:0:0:0:
475,192,56159,1,0,0:0:0:0:
256,192,56159,1,0,0:0:0:0:
329,192,56219,1,0,0:0:0:0:
109,192,56250,1,0,0:0:0:0:
402,192,56280,1,0,0:0:0:0:
256,192,56341,1,0,0:0:0:0:
475,192,56341,1,0,0:0:0:0:
109,192,56432,1,0,0:0:0:0:
475,192,56523,1,0,0:0:0:0:
329,192,56523,1,0,0:0:0:0:
256,192,56523,1,0,0:0:0:0:
402,192,56583,1,0,0:0:0:0:
109,192,56613,1,0,0:0:0:0:
329,192,56644,1,0,0:0:0:0:
256,192,56704,1,0,0:0:0:0:
475,192,56704,1,0,0:0:0:0:
402,192,56795,1,0,0:0:0:0:
475,192,56886,1,0,0:0:0:0:
329,192,56886,1,0,0:0:0:0:
109,192,56886,1,0,0:0:0:0:
256,192,56977,1,0,0:0:0:0:
402,192,57068,1,0,0:0:0:0:
256,192,57159,1,0,0:0:0:0:
329,192,57250,128,0,57977:0:0:0:0:
475,192,57250,128,0,57977:0:0:0:0:
109,192,57250,1,0,0:0:0:0:
402,192,57250,1,0,0:0:0:0:
256,192,57250,1,0,0:0:0:0:
36,192,57341,1,0,0:0:0:0:
109,192,57432,1,0,0:0:0:0:
256,192,57432,1,0,0:0:0:0:
402,192,57492,1,0,0:0:0:0:
36,192,57523,1,0,0:0:0:0:
182,192,57553,1,0,0:0:0:0:
256,192,57613,1,0,0:0:0:0:
402,192,57613,1,0,0:0:0:0:
109,192,57613,1,0,0:0:0:0:
36,192,57674,1,0,0:0:0:0:
182,192,57704,1,0,0:0:0:0:
109,192,57704,1,0,0:0:0:0:
256,192,57735,1,0,0:0:0:0:
109,192,57795,1,0,0:0:0:0:
402,192,57795,1,0,0:0:0:0:
182,192,57886,1,0,0:0:0:0:
109,192,57977,128,0,58341:0:0:0:0:
36,192,57977,1,0,0:0:0:0:
256,192,57977,1,0,0:0:0:0:
402,192,57977,1,0,0:0:0:0:
182,192,58068,1,0,0:0:0:0:
256,192,58159,128,0,58341:0:0:0:0:
475,192,58159,1,0,0:0:0:0:
402,192,58250,128,0,58341:0:0:0:0:
329,192,58250,1,0,0:0:0:0:
475,192,58341,128,0,59068:0:0:0:0:
182,192,58341,1,0,0:0:0:0:
36,192,58341,1,0,0:0:0:0:
109,192,58432,1,0,0:0:0:0:
329,192,58523,128,0,58977:0:0:0:0:
182,192,58523,1,0,0:0:0:0:
256,192,58583,1,0,0:0:0:0:
402,192,58613,1,0,0:0:0:0:
182,192,58644,1,0,0:0:0:0:
36,192,58704,1,0,0:0:0:0:
109,192,58704,128,0,58886:0:0:0:0:
256,192,58795,1,0,0:0:0:0:
36,192,58886,128,0,59432:0:0:0:0:
402,192,58886,1,0,0:0:0:0:
182,192,58977,1,0,0:0:0:0:
329,192,59068,1,0,0:0:0:0:
402,192,59068,1,0,0:0:0:0:
256,192,59068,1,0,0:0:0:0:
109,192,59159,1,0,0:0:0:0:
402,192,59250,128,0,59432:0:0:0:0:
182,192,59250,1,0,0:0:0:0:
475,192,59341,1,0,0:0:0:0:
256,192,59432,1,0,0:0:0:0:
182,192,59432,1,0,0:0:0:0:
109,192,59432,128,0,61613:0:0:0:0:
329,192,59432,128,0,61613:0:0:0:0:
475,192,59523,1,0,0:0:0:0:
402,192,59613,1,0,0:0:0:0:
182,192,59704,1,0,0:0:0:0:
475,192,59704,1,0,0:0:0:0:
256,192,59795,1,0,0:0:0:0:
402,192,59795,1,0,0:0:0:0:
182,192,59795,1,0,0:0:0:0:
475,192,59795,1,0,0:0:0:0:
36,192,59886,1,0,0:0:0:0:
182,192,59977,1,0,0:0:0:0:
475,192,60068,1,0,0:0:0:0:
256,192,60159,1,0,0:0:0:0:
182,192,60159,1,0,0:0:0:0:
36,192,60159,1,0,0:0:0:0:
402,192,60250,1,0,0:0:0:0:
475,192,60341,1,0,0:0:0:0:
182,192,60432,1,0,0:0:0:0:
256,192,60523,1,0,0:0:0:0:
402,192,60523,1,0,0:0:0:0:
475,192,60523,1,0,0:0:0:0:
182,192,60583,1,0,0:0:0:0:
36,192,60613,1,0,0:0:0:0:
256,192,60644,1,0,0:0:0:0:
182,192,60704,1,0,0:0:0:0:
402,192,60704,1,0,0:0:0:0:
475,192,60795,1,0,0:0:0:0:
402,192,60886,1,0,0:0:0:0:
256,192,60886,1,0,0:0:0:0:
475,192,60947,1,0,0:0:0:0:
182,192,60977,1,0,0:0:0:0:
36,192,61007,1,0,0:0:0:0:
256,192,61068,1,0,0:0:0:0:
402,192,61068,1,0,0:0:0:0:
475,192,61159,1,0,0:0:0:0:
36,192,61250,1,0,0:0:0:0:
182,192,61250,1,0,0:0:0:0:
402,192,61250,1,0,0:0:0:0:
256,192,61250,1,0,0:0:0:0:
256,192,61341,1,0,0:0:0:0:
402,192,61432,1,0,0:0:0:0:
475,192,61523,1,0,0:0:0:0:
402,192,61613,128,0,62704:0:0:0:0:
182,192,61613,128,0,62704:0:0:0:0:
256,192,61613,1,0,0:0:0:0:
36,192,61613,1,0,0:0:0:0:
109,192,61704,1,0,0:0:0:0:
475,192,61795,1,0,0:0:0:0:
256,192,61886,1,0,0:0:0:0:
329,192,61977,1,0,0:0:0:0:
109,192,61977,1,0,0:0:0:0:
36,192,61977,1,0,0:0:0:0:
256,192,62068,1,0,0:0:0:0:
475,192,62159,1,0,0:0:0:0:
109,192,62250,1,0,0:0:0:0:
256,192,62341,1,0,0:0:0:0:
329,192,62341,1,0,0:0:0:0:
475,192,62341,1,0,0:0:0:0:
109,192,62432,1,0,0:0:0:0:
329,192,62523,1,0,0:0:0:0:
36,192,62523,1,0,0:0:0:0:
475,192,62523,1,0,0:0:0:0:
256,192,62613,1,0,0:0:0:0:
109,192,62613,1,0,0:0:0:0:
475,192,62704,128,0,63704:0:0:0:0:
36,192,62704,128,0,63704:0:0:0:0:
329,192,62704,1,0,0:0:0:0:
256,192,62704,1,0,0:0:0:0:
109,192,62704,1,0,0:0:0:0:
402,192,62795,1,0,0:0:0:0:
329,192,62886,1,0,0:0:0:0:
256,192,62886,1,0,0:0:0:0:
402,192,62947,1,0,0:0:0:0:
109,192,62977,1,0,0:0:0:0:
329,192,63007,1,0,0:0:0:0:
182,192,63068,1,0,0:0:0:0:
256,192,63068,128,0,63250:0:0:0:0:
402,192,63159,1,0,0:0:0:0:
329,192,63250,1,0,0:0:0:0:
109,192,63250,1,0,0:0:0:0:
182,192,63250,1,0,0:0:0:0:
256,192,63310,1,0,0:0:0:0:
182,192,63371,1,0,0:0:0:0:
329,192,63432,1,0,0:0:0:0:
402,192,63432,1,0,0:0:0:0:
109,192,63432,1,0,0:0:0:0:
182,192,63523,1,0,0:0:0:0:
329,192,63613,1,0,0:0:0:0:
182,192,63704,1,0,0:0:0:0:
329,192,63795,1,0,0:0:0:0:
256,192,63795,1,0,0:0:0:0:
36,192,63795,1,0,0:0:0:0:
475,192,63795,1,0,0:0:0:0:
109,192,63795,128,0,64159:0:0:0:0:
402,192,63795,128,0,64159:0:0:0:0:
182,192,63886,1,0,0:0:0:0:
329,192,63977,1,0,0:0:0:0:
256,192,64068,1,0,0:0:0:0:
329,192,64159,1,0,0:0:0:0:
36,192,64159,1,0,0:0:0:0:
475,192,64159,1,0,0:0:0:0:
182,192,64159,128,0,64523:0:0:0:0:
256,192,64250,1,0,0:0:0:0:
36,192,64341,1,0,0:0:0:0:
109,192,64341,1,0,0:0:0:0:
329,192,64341,1,0,0:0:0:0:
256,192,64432,1,0,0:0:0:0:
475,192,64523,128,0,64795:0:0:0:0:
402,192,64523,1,0,0:0:0:0:
329,192,64523,1,0,0:0:0:0:
109,192,64523,1,0,0:0:0:0:
256,192,64613,1,0,0:0:0:0:
182,192,64704,1,0,0:0:0:0:
109,192,64795,1,0,0:0:0:0:
475,192,64886,128,0,65250:0:0:0:0:
36,192,64886,1,0,0:0:0:0:
256,192,64886,1,0,0:0:0:0:
329,192,64886,1,0,0:0:0:0:
109,192,64977,1,0,0:0:0:0:
182,192,65068,1,0,0:0:0:0:
329,192,65159,1,0,0:0:0:0:
402,192,65250,128,0,65795:0:0:0:0:
256,192,65250,1,0,0:0:0:0:
109,192,65250,1,0,0:0:0:0:
36,192,65250,1,0,0:0:0:0:
329,192,65432,128,0,65795:0:0:0:0:
109,192,65432,1,0,0:0:0:0:
182,192,65432,1,0,0:0:0:0:
475,192,65432,1,0,0:0:0:0:
256,192,65613,128,0,65795:0:0:0:0:
36,192,65613,1,0,0:0:0:0:
182,192,65613,128,0,65704:0:0:0:0:
109,192,65613,128,0,65704:0:0:0:0:
36,192,65795,128,0,65977:0:0:0:0:
475,192,65795,1,0,0:0:0:0:
182,192,65795,1,0,0:0:0:0:
109,192,65795,1,0,0:0:0:0:
402,192,65886,1,0,0:0:0:0:
109,192,65977,1,0,0:0:0:0:
256,192,65977,1,0,0:0:0:0:
182,192,65977,128,0,66068:0:0:0:0:
329,192,65977,128,0,66068:0:0:0:0:
182,192,66159,128,0,66250:0:0:0:0:
329,192,66159,128,0,66250:0:0:0:0:
402,192,66159,1,0,0:0:0:0:
256,192,66159,1,0,0:0:0:0:
329,192,66341,1,0,0:0:0:0:
182,192,66341,1,0,0:0:0:0:
109,192,66341,128,0,66704:0:0:0:0:
475,192,66341,1,0,0:0:0:0:
36,192,66523,1,0,0:0:0:0:
256,192,66523,1,0,0:0:0:0:
329,192,66523,1,0,0:0:0:0:
182,192,66704,1,0,0:0:0:0:
402,192,66704,128,0,67068:0:0:0:0:
36,192,66704,128,0,66977:0:0:0:0:
256,192,66795,1,0,0:0:0:0:
109,192,66886,1,0,0:0:0:0:
182,192,66977,1,0,0:0:0:0:
256,192,67007,1,0,0:0:0:0:
329,192,67038,1,0,0:0:0:0:
109,192,67068,1,0,0:0:0:0:
36,192,67068,1,0,0:0:0:0:
475,192,67068,128,0,67432:0:0:0:0:
182,192,67159,1,0,0:0:0:0:
329,192,67250,1,0,0:0:0:0:
256,192,67341,1,0,0:0:0:0:
402,192,67432,128,0,68159:0:0:0:0:
36,192,67432,1,0,0:0:0:0:
182,192,67432,1,0,0:0:0:0:
109,192,67523,1,0,0:0:0:0:
256,192,67613,128,0,68159:0:0:0:0:
182,192,67613,1,0,0:0:0:0:
329,192,67704,1,0,0:0:0:0:
109,192,67795,128,0,68159:0:0:0:0:
475,192,67795,1,0,0:0:0:0:
329,192,67886,1,0,0:0:0:0:
182,192,67977,1,0,0:0:0:0:
36,192,68068,1,0,0:0:0:0:
182,192,68159,1,0,0:0:0:0:
329,192,68159,1,0,0:0:0:0:
475,192,68159,1,0,0:0:0:0:
256,192,68341,1,0,0:0:0:0:
36,192,68523,128,0,69250:0:0:0:0:
182,192,68523,1,0,0:0:0:0:
402,192,68523,1,0,0:0:0:0:
329,192,68523,1,0,0:0:0:0:
256,192,68704,1,0,0:0:0:0:
475,192,68886,128,0,69250:0:0:0:0:
182,192,68886,1,0,0:0:0:0:
109,192,68886,1,0,0:0:0:0:
329,192,68886,1,0,0:0:0:0:
402,192,68886,1,0,0:0:0:0:
256,192,69068,1,0,0:0:0:0:
402,192,69250,128,0,69613:0:0:0:0:
109,192,69250,128,0,69613:0:0:0:0:
182,192,69250,1,0,0:0:0:0:
256,192,69250,1,0,0:0:0:0:
329,192,69250,1,0,0:0:0:0:
256,192,69432,1,0,0:0:0:0:
36,192,69613,128,0,69795:0:0:0:0:
329,192,69613,1,0,0:0:0:0:
475,192,69613,1,0,0:0:0:0:
182,192,69795,128,0,69977:0:0:0:0:
402,192,69795,1,0,0:0:0:0:
256,192,69795,1,0,0:0:0:0:
329,192,69977,128,0,70159:0:0:0:0:
256,192,69977,1,0,0:0:0:0:
109,192,69977,1,0,0:0:0:0:
402,192,70068,1,0,0:0:0:0:
475,192,70159,128,0,70341:0:0:0:0:
36,192,70159,1,0,0:0:0:0:
182,192,70159,1,0,0:0:0:0:
402,192,70250,1,0,0:0:0:0:
256,192,70341,128,0,71432:0:0:0:0:
109,192,70341,1,0,0:0:0:0:
329,192,70341,1,0,0:0:0:0:
36,192,70341,1,0,0:0:0:0:
182,192,70432,1,0,0:0:0:0:
329,192,70523,1,0,0:0:0:0:
182,192,70613,1,0,0:0:0:0:
475,192,70704,1,0,0:0:0:0:
36,192,70704,1,0,0:0:0:0:
109,192,70704,1,0,0:0:0:0:
402,192,70795,1,0,0:0:0:0:
329,192,70886,1,0,0:0:0:0:
402,192,70977,1,0,0:0:0:0:
475,192,71068,1,0,0:0:0:0:
109,192,71068,1,0,0:0:0:0:
329,192,71068,1,0,0:0:0:0:
36,192,71159,1,0,0:0:0:0:
329,192,71250,128,0,71432:0:0:0:0:
109,192,71250,1,0,0:0:0:0:
402,192,71341,128,0,71432:0:0:0:0:
182,192,71341,1,0,0:0:0:0:
475,192,71432,128,0,72068:0:0:0:0:
36,192,71432,1,0,0:0:0:0:
109,192,71432,1,0,0:0:0:0:
182,192,71523,1,0,0:0:0:0:
109,192,71613,1,0,0:0:0:0:
402,192,71613,1,0,0:0:0:0:
329,192,71674,1,0,0:0:0:0:
36,192,71704,1,0,0:0:0:0:
256,192,71735,1,0,0:0:0:0:
182,192,71795,128,0,72068:0:0:0:0:
329,192,71795,1,0,0:0:0:0:
402,192,71795,1,0,0:0:0:0:
256,192,71886,1,0,0:0:0:0:
36,192,71977,128,0,72523:0:0:0:0:
109,192,71977,1,0,0:0:0:0:
256,192,72159,1,0,0:0:0:0:
475,192,72159,1,0,0:0:0:0:
329,192,72159,1,0,0:0:0:0:
182,192,72159,1,0,0:0:0:0:
402,192,72250,1,0,0:0:0:0:
109,192,72250,1,0,0:0:0:0:
256,192,72341,1,0,0:0:0:0:
329,192,72341,1,0,0:0:0:0:
475,192,72432,1,0,0:0:0:0:
402,192,72432,1,0,0:0:0:0:
109,192,72523,1,0,0:0:0:0:
182,192,72523,1,0,0:0:0:0:
329,192,72523,1,0,0:0:0:0:
256,192,72523,1,0,0:0:0:0:
402,192,72613,1,0,0:0:0:0:
475,192,72704,1,0,0:0:0:0:
402,192,72795,1,0,0:0:0:0:
36,192,72886,128,0,73250:0:0:0:0:
475,192,72886,1,0,0:0:0:0:
182,192,72886,1,0,0:0:0:0:
256,192,72886,1,0,0:0:0:0:
329,192,72977,1,0,0:0:0:0:
402,192,73068,1,0,0:0:0:0:
329,192,73159,1,0,0:0:0:0:
475,192,73250,128,0,73523:0:0:0:0:
256,192,73250,1,0,0:0:0:0:
109,192,73250,1,0,0:0:0:0:
402,192,73250,1,0,0:0:0:0:
182,192,73341,1,0,0:0:0:0:
256,192,73432,1,0,0:0:0:0:
329,192,73523,1,0,0:0:0:0:
475,192,73613,128,0,73977:0:0:0:0:
402,192,73613,1,0,0:0:0:0:
109,192,73613,1,0,0:0:0:0:
36,192,73613,1,0,0:0:0:0:
182,192,73704,1,0,0:0:0:0:
256,192,73795,1,0,0:0:0:0:
109,192,73886,1,0,0:0:0:0:
329,192,73977,128,0,74341:0:0:0:0:
36,192,73977,1,0,0:0:0:0:
256,192,73977,1,0,0:0:0:0:
402,192,73977,1,0,0:0:0:0:
109,192,74068,1,0,0:0:0:0:
182,192,74159,128,0,74341:0:0:0:0:
475,192,74159,1,0,0:0:0:0:
402,192,74250,1,0,0:0:0:0:
36,192,74341,128,0,74704:0:0:0:0:
256,192,74341,1,0,0:0:0:0:
109,192,74341,1,0,0:0:0:0:
475,192,74341,1,0,0:0:0:0:
329,192,74432,1,0,0:0:0:0:
182,192,74523,128,0,74704:0:0:0:0:
402,192,74523,1,0,0:0:0:0:
475,192,74613,1,0,0:0:0:0:
256,192,74704,1,0,0:0:0:0:
329,192,74704,1,0,0:0:0:0:
402,192,74704,1,0,0:0:0:0:
109,192,74795,1,0,0:0:0:0:
256,192,74886,1,0,0:0:0:0:
182,192,74977,1,0,0:0:0:0:
109,192,75068,128,0,75432:0:0:0:0:
329,192,75068,1,0,0:0:0:0:
475,192,75068,1,0,0:0:0:0:
36,192,75068,1,0,0:0:0:0:
402,192,75159,1,0,0:0:0:0:
182,192,75250,1,0,0:0:0:0:
256,192,75432,128,0,75795:0:0:0:0:
329,192,75432,1,0,0:0:0:0:
36,192,75432,1,0,0:0:0:0:
182,192,75432,1,0,0:0:0:0:
475,192,75523,1,0,0:0:0:0:
402,192,75613,1,0,0:0:0:0:
402,192,75795,128,0,76159:0:0:0:0:
36,192,75795,1,0,0:0:0:0:
329,192,75795,1,0,0:0:0:0:
475,192,75795,1,0,0:0:0:0:
109,192,75886,1,0,0:0:0:0:
182,192,75977,1,0,0:0:0:0:
36,192,76068,1,0,0:0:0:0:
329,192,76159,128,0,76795:0:0:0:0:
109,192,76159,1,0,0:0:0:0:
182,192,76159,1,0,0:0:0:0:
475,192,76159,1,0,0:0:0:0:
402,192,76250,1,0,0:0:0:0:
256,192,76341,128,0,76886:0:0:0:0:
36,192,76341,1,0,0:0:0:0:
182,192,76432,1,0,0:0:0:0:
109,192,76523,128,0,76886:0:0:0:0:
36,192,76523,1,0,0:0:0:0:
402,192,76523,1,0,0:0:0:0:
475,192,76523,1,0,0:0:0:0:
182,192,76613,1,0,0:0:0:0:
36,192,76704,1,0,0:0:0:0:
182,192,76795,1,0,0:0:0:0:
36,192,76886,1,0,0:0:0:0:
475,192,76886,1,0,0:0:0:0:
329,192,76886,1,0,0:0:0:0:
402,192,76886,128,0,76977:0:0:0:0:
182,192,76977,1,0,0:0:0:0:
475,192,77068,1,0,0:0:0:0:
402,192,77159,1,0,0:0:0:0:
36,192,77250,128,0,77613:0:0:0:0:
329,192,77250,1,0,0:0:0:0:
109,192,77250,1,0,0:0:0:0:
475,192,77250,1,0,0:0:0:0:
182,192,77341,1,0,0:0:0:0:
256,192,77432,1,0,0:0:0:0:
329,192,77523,1,0,0:0:0:0:
475,192,77613,128,0,77886:0:0:0:0:
402,192,77613,1,0,0:0:0:0:
182,192,77613,1,0,0:0:0:0:
109,192,77613,1,0,0:0:0:0:
256,192,77613,1,0,0:0:0:0:
329,192,77704,1,0,0:0:0:0:
109,192,77795,1,0,0:0:0:0:
182,192,77886,1,0,0:0:0:0:
475,192,77977,128,0,78341:0:0:0:0:
256,192,77977,1,0,0:0:0:0:
329,192,77977,1,0,0:0:0:0:
36,192,77977,1,0,0:0:0:0:
109,192,78068,1,0,0:0:0:0:
182,192,78159,1,0,0:0:0:0:
329,192,78250,1,0,0:0:0:0:
256,192,78341,1,0,0:0:0:0:
36,192,78341,1,0,0:0:0:0:
109,192,78341,1,0,0:0:0:0:
402,192,78341,128,0,78613:0:0:0:0:
182,192,78432,1,0,0:0:0:0:
329,192,78523,128,0,78977:0:0:0:0:
475,192,78523,1,0,0:0:0:0:
182,192,78613,1,0,0:0:0:0:
256,192,78704,128,0,78977:0:0:0:0:
36,192,78704,1,0,0:0:0:0:
109,192,78704,1,0,0:0:0:0:
475,192,78704,1,0,0:0:0:0:
402,192,78704,128,0,79068:0:0:0:0:
182,192,78795,1,0,0:0:0:0:
36,192,78886,128,0,79068:0:0:0:0:
109,192,78886,1,0,0:0:0:0:
182,192,78977,1,0,0:0:0:0:
109,192,79068,128,0,79795:0:0:0:0:
475,192,79068,1,0,0:0:0:0:
256,192,79068,1,0,0:0:0:0:
329,192,79068,128,0,79795:0:0:0:0:
182,192,79250,1,0,0:0:0:0:
402,192,79432,1,0,0:0:0:0:
475,192,79432,1,0,0:0:0:0:
182,192,79613,1,0,0:0:0:0:
402,192,79795,1,0,0:0:0:0:
329,192,79977,128,0,80159:0:0:0:0:
256,192,80068,128,0,80159:0:0:0:0:
36,192,80159,128,0,80977:0:0:0:0:
475,192,80159,1,0,0:0:0:0:
182,192,80159,128,0,80704:0:0:0:0:
109,192,80159,1,0,0:0:0:0:
329,192,80341,1,0,0:0:0:0:
256,192,80341,1,0,0:0:0:0:
402,192,80432,1,0,0:0:0:0:
109,192,80523,128,0,81250:0:0:0:0:
475,192,80523,1,0,0:0:0:0:
329,192,80523,1,0,0:0:0:0:
402,192,80704,1,0,0:0:0:0:
475,192,80704,1,0,0:0:0:0:
256,192,80795,1,0,0:0:0:0:
329,192,80795,1,0,0:0:0:0:
182,192,80886,128,0,81250:0:0:0:0:
475,192,80886,1,0,0:0:0:0:
402,192,80886,1,0,0:0:0:0:
329,192,80977,1,0,0:0:0:0:
36,192,81068,1,0,0:0:0:0:
256,192,81068,1,0,0:0:0:0:
329,192,81159,1,0,0:0:0:0:
402,192,81159,1,0,0:0:0:0:
36,192,81250,1,0,0:0:0:0:
402,192,81250,1,0,0:0:0:0:
329,192,81250,1,0,0:0:0:0:
256,192,81250,128,0,81432:0:0:0:0:
475,192,81250,128,0,82341:0:0:0:0:
182,192,81341,1,0,0:0:0:0:
36,192,81432,128,0,81613:0:0:0:0:
109,192,81432,1,0,0:0:0:0:
329,192,81523,1,0,0:0:0:0:
256,192,81613,128,0,81795:0:0:0:0:
402,192,81613,1,0,0:0:0:0:
109,192,81613,1,0,0:0:0:0:
329,192,81704,1,0,0:0:0:0:
182,192,81795,128,0,81977:0:0:0:0:
36,192,81795,1,0,0:0:0:0:
329,192,81886,1,0,0:0:0:0:
36,192,81977,128,0,82159:0:0:0:0:
256,192,81977,1,0,0:0:0:0:
402,192,82068,1,0,0:0:0:0:
109,192,82159,128,0,82341:0:0:0:0:
329,192,82159,1,0,0:0:0:0:
256,192,82250,1,0,0:0:0:0:
182,192,82341,128,0,82523:0:0:0:0:
402,192,82341,128,0,83432:0:0:0:0:
36,192,82341,1,0,0:0:0:0:
329,192,82432,1,0,0:0:0:0:
36,192,82523,128,0,82704:0:0:0:0:
256,192,82523,1,0,0:0:0:0:
475,192,82613,1,0,0:0:0:0:
109,192,82704,128,0,82886:0:0:0:0:
256,192,82704,1,0,0:0:0:0:
329,192,82795,1,0,0:0:0:0:
182,192,82886,128,0,83068:0:0:0:0:
475,192,82886,1,0,0:0:0:0:
256,192,82977,1,0,0:0:0:0:
329,192,83068,128,0,83250:0:0:0:0:
36,192,83068,1,0,0:0:0:0:
109,192,83068,1,0,0:0:0:0:
182,192,83159,1,0,0:0:0:0:
256,192,83250,128,0,83432:0:0:0:0:
475,192,83250,1,0,0:0:0:0:
182,192,83341,1,0,0:0:0:0:
329,192,83432,128,0,84523:0:0:0:0:
109,192,83432,128,0,83613:0:0:0:0:
475,192,83432,1,0,0:0:0:0:
36,192,83432,1,0,0:0:0:0:
182,192,83523,1,0,0:0:0:0:
36,192,83613,128,0,83795:0:0:0:0:
256,192,83613,1,0,0:0:0:0:
109,192,83674,1,0,0:0:0:0:
475,192,83704,1,0,0:0:0:0:
182,192,83735,1,0,0:0:0:0:
256,192,83795,128,0,84159:0:0:0:0:
402,192,83795,1,0,0:0:0:0:
109,192,83886,1,0,0:0:0:0:
36,192,83977,128,0,84159:0:0:0:0:
182,192,83977,1,0,0:0:0:0:
475,192,84068,1,0,0:0:0:0:
182,192,84159,128,0,84523:0:0:0:0:
402,192,84159,1,0,0:0:0:0:
109,192,84159,1,0,0:0:0:0:
256,192,84250,1,0,0:0:0:0:
109,192,84341,128,0,84523:0:0:0:0:
402,192,84341,1,0,0:0:0:0:
256,192,84432,1,0,0:0:0:0:
402,192,84523,128,0,84886:0:0:0:0:
36,192,84523,1,0,0:0:0:0:
475,192,84523,1,0,0:0:0:0:
109,192,84613,1,0,0:0:0:0:
182,192,84704,1,0,0:0:0:0:
256,192,84795,1,0,0:0:0:0:
329,192,84886,1,0,0:0:0:0:
475,192,84886,1,0,0:0:0:0:
182,192,84977,1,0,0:0:0:0:
36,192,85068,128,0,85159:0:0:0:0:
256,192,85068,1,0,0:0:0:0:
109,192,85159,1,0,0:0:0:0:
36,192,85250,128,0,85341:0:0:0:0:
182,192,85250,1,0,0:0:0:0:
402,192,85250,1,0,0:0:0:0:
329,192,85250,1,0,0:0:0:0:
475,192,85341,1,0,0:0:0:0:
109,192,85432,128,0,85613:0:0:0:0:
402,192,85432,1,0,0:0:0:0:
256,192,85523,1,0,0:0:0:0:
182,192,85613,128,0,85795:0:0:0:0:
329,192,85613,128,0,86704:0:0:0:0:
475,192,85613,1,0,0:0:0:0:
402,192,85613,1,0,0:0:0:0:
36,192,85613,1,0,0:0:0:0:
256,192,85704,1,0,0:0:0:0:
36,192,85795,128,0,85977:0:0:0:0:
475,192,85795,1,0,0:0:0:0:
402,192,85886,1,0,0:0:0:0:
182,192,85977,128,0,86159:0:0:0:0:
475,192,85977,1,0,0:0:0:0:
256,192,85977,1,0,0:0:0:0:
402,192,86068,1,0,0:0:0:0:
109,192,86159,128,0,86341:0:0:0:0:
475,192,86159,1,0,0:0:0:0:
182,192,86250,1,0,0:0:0:0:
36,192,86341,128,0,86704:0:0:0:0:
256,192,86341,1,0,0:0:0:0:
402,192,86341,1,0,0:0:0:0:
475,192,86341,1,0,0:0:0:0:
182,192,86432,1,0,0:0:0:0:
109,192,86523,128,0,86704:0:0:0:0:
256,192,86523,1,0,0:0:0:0:
475,192,86613,1,0,0:0:0:0:
256,192,86704,128,0,87704:0:0:0:0:
182,192,86704,128,0,87704:0:0:0:0:
402,192,86704,1,0,0:0:0:0:
475,192,86704,1,0,0:0:0:0:
329,192,86795,1,0,0:0:0:0:
402,192,86886,1,0,0:0:0:0:
475,192,86977,1,0,0:0:0:0:
109,192,87068,128,0,87523:0:0:0:0:
402,192,87068,1,0,0:0:0:0:
36,192,87068,1,0,0:0:0:0:
475,192,87159,1,0,0:0:0:0:
36,192,87250,128,0,88432:0:0:0:0:
329,192,87250,1,0,0:0:0:0:
402,192,87341,1,0,0:0:0:0:
475,192,87432,1,0,0:0:0:0:
329,192,87432,1,0,0:0:0:0:
402,192,87523,1,0,0:0:0:0:
109,192,87613,128,0,88068:0:0:0:0:
329,192,87613,1,0,0:0:0:0:
402,192,87704,1,0,0:0:0:0:
182,192,87795,128,0,88523:0:0:0:0:
402,192,87795,128,0,88886:0:0:0:0:
475,192,87795,1,0,0:0:0:0:
256,192,87795,1,0,0:0:0:0:
329,192,87886,1,0,0:0:0:0:
256,192,87977,1,0,0:0:0:0:
329,192,88068,1,0,0:0:0:0:
475,192,88159,1,0,0:0:0:0:
109,192,88159,128,0,88523:0:0:0:0:
329,192,88250,1,0,0:0:0:0:
256,192,88341,1,0,0:0:0:0:
475,192,88432,1,0,0:0:0:0:
36,192,88523,128,0,88704:0:0:0:0:
256,192,88523,1,0,0:0:0:0:
329,192,88523,128,0,88704:0:0:0:0:
182,192,88613,1,0,0:0:0:0:
256,192,88704,128,0,88886:0:0:0:0:
109,192,88704,1,0,0:0:0:0:
182,192,88795,1,0,0:0:0:0:
36,192,88886,128,0,89886:0:0:0:0:
109,192,88886,1,0,0:0:0:0:
329,192,88886,1,0,0:0:0:0:
256,192,88977,1,0,0:0:0:0:
182,192,88977,1,0,0:0:0:0:
329,192,89068,1,0,0:0:0:0:
475,192,89077,1,0,0:0:0:0:
402,192,89159,1,0,0:0:0:0:
109,192,89159,1,0,0:0:0:0:
182,192,89250,128,0,89977:0:0:0:0:
329,192,89250,1,0,0:0:0:0:
256,192,89250,1,0,0:0:0:0:
475,192,89341,1,0,0:0:0:0:
402,192,89341,1,0,0:0:0:0:
109,192,89432,1,0,0:0:0:0:
256,192,89432,1,0,0:0:0:0:
329,192,89432,1,0,0:0:0:0:
402,192,89523,1,0,0:0:0:0:
256,192,89613,128,0,89795:0:0:0:0:
109,192,89613,128,0,89977:0:0:0:0:
329,192,89613,1,0,0:0:0:0:
475,192,89613,1,0,0:0:0:0:
402,192,89704,1,0,0:0:0:0:
329,192,89795,1,0,0:0:0:0:
402,192,89886,1,0,0:0:0:0:
256,192,89886,1,0,0:0:0:0:
36,192,89977,1,0,0:0:0:0:
329,192,89977,1,0,0:0:0:0:
475,192,89977,128,0,90341:0:0:0:0:
256,192,89977,1,0,0:0:0:0:
182,192,90068,1,0,0:0:0:0:
109,192,90159,128,0,90341:0:0:0:0:
256,192,90159,1,0,0:0:0:0:
329,192,90250,1,0,0:0:0:0:
402,192,90341,128,0,90523:0:0:0:0:
256,192,90341,1,0,0:0:0:0:
182,192,90341,1,0,0:0:0:0:
36,192,90432,1,0,0:0:0:0:
182,192,90523,128,0,90704:0:0:0:0:
109,192,90523,1,0,0:0:0:0:
329,192,90613,1,0,0:0:0:0:
36,192,90704,128,0,90886:0:0:0:0:
256,192,90704,1,0,0:0:0:0:
475,192,90704,1,0,0:0:0:0:
402,192,90704,1,0,0:0:0:0:
109,192,90795,1,0,0:0:0:0:
182,192,90886,128,0,91068:0:0:0:0:
256,192,90886,1,0,0:0:0:0:
329,192,90977,1,0,0:0:0:0:
402,192,91068,128,0,91432:0:0:0:0:
475,192,91068,1,0,0:0:0:0:
109,192,91068,1,0,0:0:0:0:
256,192,91159,1,0,0:0:0:0:
109,192,91250,128,0,91432:0:0:0:0:
182,192,91250,1,0,0:0:0:0:
475,192,91341,1,0,0:0:0:0:
329,192,91432,128,0,91613:0:0:0:0:
182,192,91432,1,0,0:0:0:0:
36,192,91432,1,0,0:0:0:0:
109,192,91523,1,0,0:0:0:0:
182,192,91613,128,0,91795:0:0:0:0:
402,192,91613,1,0,0:0:0:0:
475,192,91704,1,0,0:0:0:0:
256,192,91795,128,0,91977:0:0:0:0:
329,192,91795,1,0,0:0:0:0:
109,192,91795,1,0,0:0:0:0:
36,192,91795,1,0,0:0:0:0:
475,192,91886,1,0,0:0:0:0:
402,192,91977,128,0,92159:0:0:0:0:
182,192,91977,1,0,0:0:0:0:
109,192,92068,1,0,0:0:0:0:
475,192,92159,128,0,92341:0:0:0:0:
36,192,92159,1,0,0:0:0:0:
329,192,92159,1,0,0:0:0:0:
182,192,92159,1,0,0:0:0:0:
256,192,92159,1,0,0:0:0:0:
109,192,92250,1,0,0:0:0:0:
256,192,92341,128,0,92523:0:0:0:0:
182,192,92341,1,0,0:0:0:0:
109,192,92401,1,0,0:0:0:0:
402,192,92432,128,0,92523:0:0:0:0:
36,192,92462,1,0,0:0:0:0:
329,192,92523,128,0,92886:0:0:0:0:
475,192,92523,1,0,0:0:0:0:
182,192,92523,1,0,0:0:0:0:
109,192,92613,1,0,0:0:0:0:
182,192,92704,128,0,92886:0:0:0:0:
256,192,92704,1,0,0:0:0:0:
475,192,92795,1,0,0:0:0:0:
36,192,92886,128,0,93250:0:0:0:0:
402,192,92886,1,0,0:0:0:0:
109,192,92886,1,0,0:0:0:0:
256,192,92886,1,0,0:0:0:0:
182,192,92977,1,0,0:0:0:0:
475,192,93068,128,0,93250:0:0:0:0:
329,192,93068,1,0,0:0:0:0:
182,192,93159,1,0,0:0:0:0:
256,192,93250,128,0,93613:0:0:0:0:
109,192,93250,1,0,0:0:0:0:
402,192,93250,1,0,0:0:0:0:
182,192,93341,1,0,0:0:0:0:
36,192,93432,1,0,0:0:0:0:
329,192,93523,1,0,0:0:0:0:
109,192,93613,128,0,93704:0:0:0:0:
402,192,93613,128,0,93704:0:0:0:0:
475,192,93613,1,0,0:0:0:0:
182,192,93613,1,0,0:0:0:0:
256,192,93704,1,0,0:0:0:0:
36,192,93795,128,0,93886:0:0:0:0:
329,192,93795,1,0,0:0:0:0:
475,192,93886,1,0,0:0:0:0:
36,192,93977,128,0,94068:0:0:0:0:
402,192,93977,1,0,0:0:0:0:
182,192,93977,1,0,0:0:0:0:
256,192,93977,1,0,0:0:0:0:
109,192,94068,1,0,0:0:0:0:
475,192,94068,1,0,0:0:0:0:
256,192,94159,128,0,94341:0:0:0:0:
329,192,94159,1,0,0:0:0:0:
402,192,94159,1,0,0:0:0:0:
182,192,94250,1,0,0:0:0:0:
402,192,94341,128,0,94704:0:0:0:0:
475,192,94341,1,0,0:0:0:0:
109,192,94341,1,0,0:0:0:0:
36,192,94341,1,0,0:0:0:0:
256,192,94432,1,0,0:0:0:0:
109,192,94523,128,0,94704:0:0:0:0:
182,192,94523,1,0,0:0:0:0:
329,192,94613,1,0,0:0:0:0:
182,192,94704,128,0,95068:0:0:0:0:
256,192,94704,1,0,0:0:0:0:
36,192,94704,1,0,0:0:0:0:
475,192,94795,1,0,0:0:0:0:
329,192,94886,128,0,95068:0:0:0:0:
402,192,94886,1,0,0:0:0:0:
36,192,94977,1,0,0:0:0:0:
475,192,95068,128,0,95795:0:0:0:0:
109,192,95068,1,0,0:0:0:0:
256,192,95068,1,0,0:0:0:0:
402,192,95068,1,0,0:0:0:0:
182,192,95159,1,0,0:0:0:0:
256,192,95250,128,0,95795:0:0:0:0:
36,192,95250,1,0,0:0:0:0:
182,192,95341,1,0,0:0:0:0:
36,192,95432,128,0,95795:0:0:0:0:
329,192,95432,1,0,0:0:0:0:
402,192,95432,1,0,0:0:0:0:
182,192,95523,1,0,0:0:0:0:
109,192,95613,1,0,0:0:0:0:
329,192,95704,1,0,0:0:0:0:
109,192,95795,128,0,96523:0:0:0:0:
402,192,95795,1,0,0:0:0:0:
182,192,95795,1,0,0:0:0:0:
475,192,95886,1,0,0:0:0:0:
256,192,95977,128,0,96523:0:0:0:0:
329,192,95977,1,0,0:0:0:0:
475,192,96068,1,0,0:0:0:0:
36,192,96159,1,0,0:0:0:0:
402,192,96159,1,0,0:0:0:0:
329,192,96159,1,0,0:0:0:0:
182,192,96250,1,0,0:0:0:0:
402,192,96341,1,0,0:0:0:0:
329,192,96341,1,0,0:0:0:0:
475,192,96432,1,0,0:0:0:0:
329,192,96523,128,0,97250:0:0:0:0:
182,192,96523,128,0,96886:0:0:0:0:
402,192,96523,1,0,0:0:0:0:
36,192,96523,1,0,0:0:0:0:
256,192,96613,1,0,0:0:0:0:
36,192,96704,1,0,0:0:0:0:
256,192,96795,1,0,0:0:0:0:
109,192,96886,128,0,97250:0:0:0:0:
475,192,96886,1,0,0:0:0:0:
402,192,96886,1,0,0:0:0:0:
256,192,96977,1,0,0:0:0:0:
182,192,97068,1,0,0:0:0:0:
256,192,97159,1,0,0:0:0:0:
36,192,97250,128,0,97613:0:0:0:0:
182,192,97250,128,0,97613:0:0:0:0:
402,192,97250,128,0,97977:0:0:0:0:
475,192,97250,1,0,0:0:0:0:
329,192,97341,1,0,0:0:0:0:
109,192,97432,1,0,0:0:0:0:
329,192,97523,1,0,0:0:0:0:
109,192,97613,128,0,97977:0:0:0:0:
256,192,97613,128,0,97977:0:0:0:0:
475,192,97613,1,0,0:0:0:0:
329,192,97704,1,0,0:0:0:0:
182,192,97795,1,0,0:0:0:0:
36,192,97886,1,0,0:0:0:0:
182,192,97977,128,0,98341:0:0:0:0:
329,192,97977,128,0,98341:0:0:0:0:
475,192,97977,128,0,98704:0:0:0:0:
402,192,98068,1,0,0:0:0:0:
256,192,98159,1,0,0:0:0:0:
109,192,98250,1,0,0:0:0:0:
256,192,98341,128,0,98704:0:0:0:0:
402,192,98341,128,0,98704:0:0:0:0:
36,192,98341,1,0,0:0:0:0:
109,192,98432,1,0,0:0:0:0:
182,192,98523,1,0,0:0:0:0:
109,192,98613,1,0,0:0:0:0:
36,192,98704,128,0,100523:0:0:0:0:
329,192,98704,128,0,100523:0:0:0:0:
182,192,98704,1,0,0:0:0:0:
475,192,98795,1,0,0:0:0:0:
402,192,98886,1,0,0:0:0:0:
182,192,98886,1,0,0:0:0:0:
109,192,98977,1,0,0:0:0:0:
182,192,99068,1,0,0:0:0:0:
256,192,99068,1,0,0:0:0:0:
402,192,99068,1,0,0:0:0:0:
475,192,99159,1,0,0:0:0:0:
402,192,99250,1,0,0:0:0:0:
182,192,99250,1,0,0:0:0:0:
109,192,99341,1,0,0:0:0:0:
182,192,99432,1,0,0:0:0:0:
256,192,99432,1,0,0:0:0:0:
475,192,99432,1,0,0:0:0:0:
402,192,99523,1,0,0:0:0:0:
182,192,99613,1,0,0:0:0:0:
475,192,99613,1,0,0:0:0:0:
109,192,99704,1,0,0:0:0:0:
475,192,99795,1,0,0:0:0:0:
256,192,99795,1,0,0:0:0:0:
182,192,99795,1,0,0:0:0:0:
402,192,99886,1,0,0:0:0:0:
109,192,99977,1,0,0:0:0:0:
475,192,99977,1,0,0:0:0:0:
182,192,100068,1,0,0:0:0:0:
256,192,100159,1,0,0:0:0:0:
402,192,100159,1,0,0:0:0:0:
475,192,100159,1,0,0:0:0:0:
182,192,100250,1,0,0:0:0:0:
109,192,100341,1,0,0:0:0:0:
402,192,100341,1,0,0:0:0:0:
256,192,100432,1,0,0:0:0:0:
402,192,100523,1,0,0:0:0:0:
182,192,100523,1,0,0:0:0:0:
475,192,100523,128,0,100704:0:0:0:0:
109,192,100523,128,0,100704:0:0:0:0:
256,192,100613,1,0,0:0:0:0:
329,192,100704,128,0,100886:0:0:0:0:
182,192,100704,128,0,100886:0:0:0:0:
402,192,100704,1,0,0:0:0:0:
109,192,100795,1,0,0:0:0:0:
256,192,100886,128,0,101977:0:0:0:0:
36,192,100886,128,0,101432:0:0:0:0:
475,192,100886,1,0,0:0:0:0:
402,192,100886,1,0,0:0:0:0:
329,192,100977,1,0,0:0:0:0:
402,192,101068,1,0,0:0:0:0:
182,192,101068,1,0,0:0:0:0:
475,192,101159,1,0,0:0:0:0:
109,192,101250,128,0,101613:0:0:0:0:
402,192,101250,1,0,0:0:0:0:
182,192,101250,1,0,0:0:0:0:
329,192,101341,1,0,0:0:0:0:
402,192,101432,1,0,0:0:0:0:
475,192,101523,1,0,0:0:0:0:
182,192,101613,128,0,101977:0:0:0:0:
402,192,101613,1,0,0:0:0:0:
329,192,101613,1,0,0:0:0:0:
36,192,101613,1,0,0:0:0:0:
109,192,101704,1,0,0:0:0:0:
329,192,101795,1,0,0:0:0:0:
36,192,101795,1,0,0:0:0:0:
402,192,101886,1,0,0:0:0:0:
36,192,101977,128,0,103068:0:0:0:0:
475,192,101977,128,0,102341:0:0:0:0:
109,192,101977,1,0,0:0:0:0:
329,192,101977,1,0,0:0:0:0:
182,192,102068,1,0,0:0:0:0:
256,192,102159,1,0,0:0:0:0:
329,192,102159,1,0,0:0:0:0:
402,192,102250,1,0,0:0:0:0:
256,192,102341,128,0,102432:0:0:0:0:
329,192,102341,1,0,0:0:0:0:
109,192,102341,1,0,0:0:0:0:
182,192,102432,1,0,0:0:0:0:
402,192,102523,1,0,0:0:0:0:
475,192,102523,1,0,0:0:0:0:
329,192,102613,1,0,0:0:0:0:
256,192,102704,128,0,102795:0:0:0:0:
475,192,102704,1,0,0:0:0:0:
109,192,102704,1,0,0:0:0:0:
182,192,102704,1,0,0:0:0:0:
329,192,102795,1,0,0:0:0:0:
402,192,102886,1,0,0:0:0:0:
182,192,102886,1,0,0:0:0:0:
475,192,102977,1,0,0:0:0:0:
109,192,103068,1,0,0:0:0:0:
182,192,103068,1,0,0:0:0:0:
329,192,103068,1,0,0:0:0:0:
402,192,103068,128,0,103795:0:0:0:0:
256,192,103159,1,0,0:0:0:0:
36,192,103250,1,0,0:0:0:0:
475,192,103250,1,0,0:0:0:0:
109,192,103341,1,0,0:0:0:0:
182,192,103432,1,0,0:0:0:0:
329,192,103432,1,0,0:0:0:0:
475,192,103432,1,0,0:0:0:0:
256,192,103523,1,0,0:0:0:0:
182,192,103613,1,0,0:0:0:0:
475,192,103613,1,0,0:0:0:0:
109,192,103704,1,0,0:0:0:0:
329,192,103795,128,0,104704:0:0:0:0:
36,192,103795,1,0,0:0:0:0:
256,192,103795,1,0,0:0:0:0:
182,192,103795,1,0,0:0:0:0:
109,192,103886,1,0,0:0:0:0:
182,192,103977,128,0,104704:0:0:0:0:
256,192,103977,1,0,0:0:0:0:
402,192,103977,1,0,0:0:0:0:
475,192,104068,1,0,0:0:0:0:
36,192,104159,128,0,104704:0:0:0:0:
402,192,104159,1,0,0:0:0:0:
109,192,104159,1,0,0:0:0:0:
256,192,104250,1,0,0:0:0:0:
109,192,104341,1,0,0:0:0:0:
475,192,104341,1,0,0:0:0:0:
256,192,104432,1,0,0:0:0:0:
475,192,104523,1,0,0:0:0:0:
402,192,104523,1,0,0:0:0:0:
109,192,104523,1,0,0:0:0:0:
256,192,104613,1,0,0:0:0:0:
109,192,104704,128,0,106341:0:0:0:0:
402,192,104704,1,0,0:0:0:0:
475,192,104704,1,0,0:0:0:0:
329,192,104795,1,0,0:0:0:0:
256,192,104886,1,0,0:0:0:0:
182,192,104886,1,0,0:0:0:0:
36,192,104886,1,0,0:0:0:0:
475,192,104886,1,0,0:0:0:0:
402,192,104977,1,0,0:0:0:0:
475,192,105068,1,0,0:0:0:0:
256,192,105068,1,0,0:0:0:0:
182,192,105159,1,0,0:0:0:0:
256,192,105250,128,0,106341:0:0:0:0:
329,192,105250,1,0,0:0:0:0:
402,192,105250,1,0,0:0:0:0:
36,192,105250,1,0,0:0:0:0:
475,192,105341,1,0,0:0:0:0:
402,192,105432,1,0,0:0:0:0:
182,192,105432,1,0,0:0:0:0:
36,192,105523,1,0,0:0:0:0:
182,192,105613,1,0,0:0:0:0:
329,192,105613,1,0,0:0:0:0:
475,192,105613,1,0,0:0:0:0:
402,192,105704,1,0,0:0:0:0:
475,192,105795,1,0,0:0:0:0:
36,192,105795,1,0,0:0:0:0:
329,192,105886,1,0,0:0:0:0:
402,192,105977,1,0,0:0:0:0:
182,192,105977,1,0,0:0:0:0:
36,192,105977,1,0,0:0:0:0:
475,192,106068,1,0,0:0:0:0:
329,192,106159,1,0,0:0:0:0:
182,192,106159,1,0,0:0:0:0:
402,192,106250,1,0,0:0:0:0:
329,192,106341,128,0,107068:0:0:0:0:
182,192,106341,128,0,106704:0:0:0:0:
36,192,106341,128,0,106523:0:0:0:0:
475,192,106341,1,0,0:0:0:0:
402,192,106432,1,0,0:0:0:0:
109,192,106523,128,0,106704:0:0:0:0:
475,192,106523,1,0,0:0:0:0:
402,192,106613,1,0,0:0:0:0:
256,192,106704,128,0,107068:0:0:0:0:
475,192,106704,128,0,106886:0:0:0:0:
36,192,106704,1,0,0:0:0:0:
109,192,106795,1,0,0:0:0:0:
402,192,106886,128,0,107068:0:0:0:0:
182,192,106886,1,0,0:0:0:0:
36,192,106977,1,0,0:0:0:0:
182,192,107068,128,0,107432:0:0:0:0:
109,192,107068,128,0,107250:0:0:0:0:
475,192,107068,1,0,0:0:0:0:
402,192,107159,1,0,0:0:0:0:
36,192,107250,128,0,107432:0:0:0:0:
329,192,107250,1,0,0:0:0:0:
256,192,107250,1,0,0:0:0:0:
402,192,107341,1,0,0:0:0:0:
109,192,107432,128,0,109613:0:0:0:0:
256,192,107432,128,0,108523:0:0:0:0:
329,192,107432,1,0,0:0:0:0:
475,192,107432,128,0,107613:0:0:0:0:
36,192,107523,1,0,0:0:0:0:
182,192,107613,1,0,0:0:0:0:
36,192,107704,1,0,0:0:0:0:
329,192,107704,128,0,107886:0:0:0:0:
475,192,107795,1,0,0:0:0:0:
402,192,107795,1,0,0:0:0:0:
182,192,107886,1,0,0:0:0:0:
36,192,107977,1,0,0:0:0:0:
475,192,107977,128,0,108068:0:0:0:0:
182,192,108068,1,0,0:0:0:0:
475,192,108159,1,0,0:0:0:0:
36,192,108159,1,0,0:0:0:0:
402,192,108159,1,0,0:0:0:0:
329,192,108159,128,0,108250:0:0:0:0:
182,192,108250,1,0,0:0:0:0:
329,192,108341,1,0,0:0:0:0:
475,192,108432,1,0,0:0:0:0:
329,192,108523,1,0,0:0:0:0:
182,192,108523,1,0,0:0:0:0:
36,192,108523,128,0,108704:0:0:0:0:
256,192,108613,1,0,0:0:0:0:
402,192,108704,1,0,0:0:0:0:
329,192,108795,1,0,0:0:0:0:
475,192,108795,128,0,108977:0:0:0:0:
182,192,108886,1,0,0:0:0:0:
36,192,108886,1,0,0:0:0:0:
329,192,108977,1,0,0:0:0:0:
402,192,109068,1,0,0:0:0:0:
36,192,109068,128,0,109159:0:0:0:0:
182,192,109129,1,0,0:0:0:0:
475,192,109159,1,0,0:0:0:0:
256,192,109189,1,0,0:0:0:0:
329,192,109250,1,0,0:0:0:0:
36,192,109250,1,0,0:0:0:0:
182,192,109250,128,0,109341:0:0:0:0:
402,192,109250,1,0,0:0:0:0:
256,192,109341,1,0,0:0:0:0:
475,192,109432,1,0,0:0:0:0:
329,192,109523,1,0,0:0:0:0:
402,192,109583,1,0,0:0:0:0:
256,192,109613,1,0,0:0:0:0:
36,192,109613,1,0,0:0:0:0:
475,192,109613,1,0,0:0:0:0:
182,192,109613,128,0,109795:0:0:0:0:
329,192,109704,1,0,0:0:0:0:
402,192,109795,1,0,0:0:0:0:
329,192,109886,1,0,0:0:0:0:
182,192,109886,128,0,110068:0:0:0:0:
475,192,109977,1,0,0:0:0:0:
36,192,109977,1,0,0:0:0:0:
256,192,110068,1,0,0:0:0:0:
402,192,110159,1,0,0:0:0:0:
36,192,110159,128,0,110250:0:0:0:0:
256,192,110250,1,0,0:0:0:0:
182,192,110341,128,0,110432:0:0:0:0:
475,192,110341,1,0,0:0:0:0:
402,192,110341,1,0,0:0:0:0:
36,192,110341,1,0,0:0:0:0:
329,192,110432,1,0,0:0:0:0:
256,192,110523,1,0,0:0:0:0:
475,192,110613,1,0,0:0:0:0:
329,192,110704,128,0,110886:0:0:0:0:
402,192,110704,1,0,0:0:0:0:
182,192,110704,1,0,0:0:0:0:
36,192,110795,1,0,0:0:0:0:
109,192,110886,1,0,0:0:0:0:
402,192,110886,1,0,0:0:0:0:
256,192,110977,1,0,0:0:0:0:
475,192,110977,1,0,0:0:0:0:
329,192,110977,128,0,111159:0:0:0:0:
182,192,111068,1,0,0:0:0:0:
36,192,111068,1,0,0:0:0:0:
402,192,111068,1,0,0:0:0:0:
109,192,111159,1,0,0:0:0:0:
475,192,111159,1,0,0:0:0:0:
475,192,111250,128,0,111341:0:0:0:0:
182,192,111250,1,0,0:0:0:0:
329,192,111250,1,0,0:0:0:0:
256,192,111310,1,0,0:0:0:0:
109,192,111341,1,0,0:0:0:0:
402,192,111341,1,0,0:0:0:0:
182,192,111371,1,0,0:0:0:0:
329,192,111432,128,0,111523:0:0:0:0:
36,192,111432,1,0,0:0:0:0:
256,192,111432,1,0,0:0:0:0:
109,192,111432,1,0,0:0:0:0:
475,192,111523,1,0,0:0:0:0:
402,192,111523,1,0,0:0:0:0:
182,192,111523,1,0,0:0:0:0:
256,192,111613,1,0,0:0:0:0:
109,192,111613,1,0,0:0:0:0:
402,192,111704,1,0,0:0:0:0:
329,192,111704,1,0,0:0:0:0:
182,192,111704,1,0,0:0:0:0:
256,192,111765,1,0,0:0:0:0:
36,192,111795,1,0,0:0:0:0:
475,192,111795,1,0,0:0:0:0:
402,192,111795,1,0,0:0:0:0:
182,192,111795,128,0,111977:0:0:0:0:
109,192,111886,1,0,0:0:0:0:
329,192,111886,1,0,0:0:0:0:
256,192,111977,1,0,0:0:0:0:
475,192,111977,1,0,0:0:0:0:
182,192,112068,128,0,112250:0:0:0:0:
402,192,112068,1,0,0:0:0:0:
109,192,112068,1,0,0:0:0:0:
329,192,112159,1,0,0:0:0:0:
475,192,112159,1,0,0:0:0:0:
256,192,112250,1,0,0:0:0:0:
109,192,112250,1,0,0:0:0:0:
36,192,112341,128,0,112432:0:0:0:0:
402,192,112341,1,0,0:0:0:0:
182,192,112341,1,0,0:0:0:0:
329,192,112432,1,0,0:0:0:0:
256,192,112432,1,0,0:0:0:0:
182,192,112523,128,0,112613:0:0:0:0:
109,192,112523,1,0,0:0:0:0:
475,192,112523,1,0,0:0:0:0:
36,192,112523,1,0,0:0:0:0:
256,192,112613,1,0,0:0:0:0:
36,192,112704,1,0,0:0:0:0:
182,192,112704,1,0,0:0:0:0:
109,192,112795,1,0,0:0:0:0:
256,192,112795,1,0,0:0:0:0:
329,192,112886,128,0,113068:0:0:0:0:
182,192,112886,1,0,0:0:0:0:
402,192,112886,1,0,0:0:0:0:
475,192,112886,1,0,0:0:0:0:
36,192,112886,1,0,0:0:0:0:
109,192,112977,1,0,0:0:0:0:
256,192,112977,1,0,0:0:0:0:
182,192,113068,1,0,0:0:0:0:
475,192,113068,1,0,0:0:0:0:
329,192,113159,128,0,113341:0:0:0:0:
402,192,113159,1,0,0:0:0:0:
36,192,113159,1,0,0:0:0:0:
109,192,113159,1,0,0:0:0:0:
182,192,113250,1,0,0:0:0:0:
256,192,113250,1,0,0:0:0:0:
475,192,113250,1,0,0:0:0:0:
109,192,113341,1,0,0:0:0:0:
402,192,113341,1,0,0:0:0:0:
475,192,113432,128,0,113523:0:0:0:0:
256,192,113432,1,0,0:0:0:0:
36,192,113432,1,0,0:0:0:0:
329,192,113492,1,0,0:0:0:0:
109,192,113523,1,0,0:0:0:0:
402,192,113523,1,0,0:0:0:0:
256,192,113553,1,0,0:0:0:0:
329,192,113613,128,0,113704:0:0:0:0:
182,192,113613,1,0,0:0:0:0:
36,192,113613,1,0,0:0:0:0:
475,192,113613,1,0,0:0:0:0:
109,192,113704,1,0,0:0:0:0:
256,192,113704,1,0,0:0:0:0:
182,192,113795,1,0,0:0:0:0:
36,192,113795,1,0,0:0:0:0:
402,192,113886,1,0,0:0:0:0:
256,192,113886,1,0,0:0:0:0:
182,192,113977,128,0,114159:0:0:0:0:
475,192,113977,1,0,0:0:0:0:
109,192,113977,1,0,0:0:0:0:
36,192,113977,1,0,0:0:0:0:
329,192,113977,1,0,0:0:0:0:
256,192,114068,1,0,0:0:0:0:
402,192,114068,1,0,0:0:0:0:
475,192,114159,1,0,0:0:0:0:
329,192,114159,1,0,0:0:0:0:
182,192,114250,128,0,114432:0:0:0:0:
256,192,114250,1,0,0:0:0:0:
36,192,114250,1,0,0:0:0:0:
329,192,114341,1,0,0:0:0:0:
109,192,114341,1,0,0:0:0:0:
475,192,114341,1,0,0:0:0:0:
402,192,114432,1,0,0:0:0:0:
256,192,114432,1,0,0:0:0:0:
36,192,114523,128,0,114613:0:0:0:0:
182,192,114523,1,0,0:0:0:0:
329,192,114523,1,0,0:0:0:0:
402,192,114613,1,0,0:0:0:0:
475,192,114613,1,0,0:0:0:0:
182,192,114704,128,0,114795:0:0:0:0:
329,192,114704,1,0,0:0:0:0:
109,192,114704,1,0,0:0:0:0:
256,192,114704,1,0,0:0:0:0:
36,192,114704,1,0,0:0:0:0:
475,192,114795,1,0,0:0:0:0:
402,192,114795,1,0,0:0:0:0:
329,192,114886,1,0,0:0:0:0:
182,192,114886,1,0,0:0:0:0:
256,192,114977,1,0,0:0:0:0:
36,192,114977,1,0,0:0:0:0:
402,192,114977,1,0,0:0:0:0:
329,192,115068,128,0,115250:0:0:0:0:
109,192,115068,1,0,0:0:0:0:
182,192,115068,1,0,0:0:0:0:
475,192,115068,1,0,0:0:0:0:
256,192,115159,1,0,0:0:0:0:
36,192,115159,1,0,0:0:0:0:
109,192,115250,1,0,0:0:0:0:
182,192,115250,1,0,0:0:0:0:
475,192,115250,1,0,0:0:0:0:
329,192,115341,128,0,115523:0:0:0:0:
256,192,115341,1,0,0:0:0:0:
402,192,115341,1,0,0:0:0:0:
475,192,115432,1,0,0:0:0:0:
109,192,115432,1,0,0:0:0:0:
256,192,115523,1,0,0:0:0:0:
36,192,115523,1,0,0:0:0:0:
475,192,115613,128,0,115704:0:0:0:0:
109,192,115613,1,0,0:0:0:0:
182,192,115613,1,0,0:0:0:0:
329,192,115613,1,0,0:0:0:0:
256,192,115704,1,0,0:0:0:0:
402,192,115795,128,0,115886:0:0:0:0:
109,192,115795,128,0,115886:0:0:0:0:
182,192,115795,1,0,0:0:0:0:
329,192,115795,1,0,0:0:0:0:
36,192,115795,1,0,0:0:0:0:
475,192,115795,1,0,0:0:0:0:
256,192,115886,1,0,0:0:0:0:
182,192,115977,128,0,116068:0:0:0:0:
329,192,115977,128,0,116068:0:0:0:0:
109,192,115977,1,0,0:0:0:0:
402,192,115977,1,0,0:0:0:0:
36,192,115977,128,0,118250:0:0:0:0:
475,192,115977,128,0,118250:0:0:0:0:
109,192,116341,128,0,118250:0:0:0:0:
402,192,116341,128,0,118250:0:0:0:0:
256,192,118159,128,0,118341:0:0:0:0:
182,192,118341,1,0,0:0:0:0:
36,192,118341,1,0,0:0:0:0:
329,192,118341,1,0,0:0:0:0:
475,192,118341,1,0,0:0:0:0:
402,192,118341,1,0,0:0:0:0:
109,192,118341,1,0,0:0:0:0:
256,192,118432,1,0,0:0:0:0:
329,192,118523,1,0,0:0:0:0:
109,192,118613,1,0,0:0:0:0:
402,192,118704,1,0,0:0:0:0:
329,192,118704,1,0,0:0:0:0:
475,192,118704,1,0,0:0:0:0:
256,192,118886,1,0,0:0:0:0:
329,192,118886,1,0,0:0:0:0:
182,192,119068,1,0,0:0:0:0:
256,192,119068,1,0,0:0:0:0:
36,192,119250,1,0,0:0:0:0:
329,192,119250,1,0,0:0:0:0:
109,192,119341,1,0,0:0:0:0:
402,192,119341,1,0,0:0:0:0:
475,192,119432,1,0,0:0:0:0:
182,192,119432,1,0,0:0:0:0:
256,192,119432,1,0,0:0:0:0:
109,192,119613,1,0,0:0:0:0:
402,192,119613,1,0,0:0:0:0:
109,192,119735,1,0,0:0:0:0:
329,192,119735,1,0,0:0:0:0:
402,192,119795,1,0,0:0:0:0:
182,192,119795,1,0,0:0:0:0:
329,192,119856,1,0,0:0:0:0:
109,192,119856,1,0,0:0:0:0:
256,192,119916,1,0,0:0:0:0:
36,192,119916,1,0,0:0:0:0:
109,192,119977,1,0,0:0:0:0:
329,192,119977,1,0,0:0:0:0:
256,192,120068,1,0,0:0:0:0:
109,192,120159,1,0,0:0:0:0:
402,192,120159,1,0,0:0:0:0:
182,192,120250,1,0,0:0:0:0:
329,192,120250,1,0,0:0:0:0:
256,192,120341,1,0,0:0:0:0:
36,192,120341,1,0,0:0:0:0:
402,192,120432,1,0,0:0:0:0:
182,192,120432,1,0,0:0:0:0:
109,192,120523,1,0,0:0:0:0:
256,192,120523,1,0,0:0:0:0:
329,192,120523,1,0,0:0:0:0:
182,192,120704,1,0,0:0:0:0:
329,192,120704,1,0,0:0:0:0:
256,192,120795,1,0,0:0:0:0:
402,192,120795,1,0,0:0:0:0:
475,192,120886,1,0,0:0:0:0:
109,192,120886,1,0,0:0:0:0:
182,192,120977,1,0,0:0:0:0:
256,192,121068,1,0,0:0:0:0:
109,192,121068,1,0,0:0:0:0:
329,192,121159,1,0,0:0:0:0:
36,192,121159,1,0,0:0:0:0:
475,192,121250,1,0,0:0:0:0:
402,192,121250,1,0,0:0:0:0:
182,192,121250,1,0,0:0:0:0:
329,192,121432,1,0,0:0:0:0:
109,192,121432,1,0,0:0:0:0:
402,192,121523,1,0,0:0:0:0:
182,192,121523,1,0,0:0:0:0:
475,192,121613,1,0,0:0:0:0:
36,192,121613,1,0,0:0:0:0:
402,192,121795,1,0,0:0:0:0:
182,192,121795,1,0,0:0:0:0:
109,192,121886,1,0,0:0:0:0:
329,192,121977,1,0,0:0:0:0:
36,192,121977,1,0,0:0:0:0:
109,192,122068,1,0,0:0:0:0:
256,192,122159,1,0,0:0:0:0:
182,192,122159,1,0,0:0:0:0:
475,192,122341,1,0,0:0:0:0:
256,192,122341,1,0,0:0:0:0:
402,192,122401,1,0,0:0:0:0:
182,192,122432,1,0,0:0:0:0:
329,192,122462,1,0,0:0:0:0:
109,192,122523,1,0,0:0:0:0:
36,192,122523,1,0,0:0:0:0:
182,192,122613,1,0,0:0:0:0:
256,192,122704,1,0,0:0:0:0:
329,192,122704,1,0,0:0:0:0:
475,192,122704,1,0,0:0:0:0:
36,192,122704,1,0,0:0:0:0:
109,192,122795,1,0,0:0:0:0:
402,192,122795,1,0,0:0:0:0:
182,192,122886,1,0,0:0:0:0:
329,192,122886,1,0,0:0:0:0:
475,192,122977,1,0,0:0:0:0:
256,192,122977,1,0,0:0:0:0:
402,192,123068,1,0,0:0:0:0:
329,192,123068,1,0,0:0:0:0:
36,192,123068,1,0,0:0:0:0:
109,192,123159,1,0,0:0:0:0:
182,192,123250,1,0,0:0:0:0:
402,192,123250,1,0,0:0:0:0:
256,192,123341,1,0,0:0:0:0:
329,192,123432,1,0,0:0:0:0:
402,192,123432,1,0,0:0:0:0:
475,192,123432,1,0,0:0:0:0:
256,192,123523,1,0,0:0:0:0:
109,192,123613,1,0,0:0:0:0:
329,192,123704,1,0,0:0:0:0:
256,192,123795,1,0,0:0:0:0:
36,192,123795,1,0,0:0:0:0:
182,192,123795,1,0,0:0:0:0:
402,192,123977,1,0,0:0:0:0:
182,192,123977,1,0,0:0:0:0:
329,192,124068,1,0,0:0:0:0:
109,192,124068,1,0,0:0:0:0:
256,192,124159,1,0,0:0:0:0:
182,192,124159,1,0,0:0:0:0:
36,192,124159,1,0,0:0:0:0:
329,192,124219,1,0,0:0:0:0:
402,192,124280,1,0,0:0:0:0:
475,192,124341,1,0,0:0:0:0:
182,192,124341,1,0,0:0:0:0:
329,192,124432,1,0,0:0:0:0:
109,192,124432,1,0,0:0:0:0:
475,192,124523,1,0,0:0:0:0:
402,192,124523,1,0,0:0:0:0:
36,192,124523,1,0,0:0:0:0:
109,192,124704,1,0,0:0:0:0:
256,192,124704,1,0,0:0:0:0:
329,192,124795,1,0,0:0:0:0:
182,192,124795,1,0,0:0:0:0:
475,192,124886,1,0,0:0:0:0:
256,192,124886,1,0,0:0:0:0:
402,192,124886,1,0,0:0:0:0:
402,192,125068,1,0,0:0:0:0:
256,192,125068,1,0,0:0:0:0:
182,192,125159,1,0,0:0:0:0:
329,192,125250,1,0,0:0:0:0:
109,192,125250,1,0,0:0:0:0:
182,192,125341,1,0,0:0:0:0:
256,192,125432,1,0,0:0:0:0:
402,192,125432,1,0,0:0:0:0:
475,192,125432,1,0,0:0:0:0:
329,192,125523,1,0,0:0:0:0:
182,192,125613,1,0,0:0:0:0:
109,192,125613,1,0,0:0:0:0:
256,192,125795,1,0,0:0:0:0:
109,192,125795,1,0,0:0:0:0:
329,192,125886,1,0,0:0:0:0:
182,192,125886,1,0,0:0:0:0:
402,192,125977,1,0,0:0:0:0:
256,192,125977,1,0,0:0:0:0:
475,192,125977,1,0,0:0:0:0:
109,192,126068,1,0,0:0:0:0:
329,192,126068,1,0,0:0:0:0:
36,192,126159,1,0,0:0:0:0:
256,192,126159,128,0,126341:0:0:0:0:
402,192,126341,1,0,0:0:0:0:
329,192,126341,1,0,0:0:0:0:
256,192,126386,1,0,0:0:0:0:
182,192,126432,1,0,0:0:0:0:
109,192,126523,1,0,0:0:0:0:
36,192,126523,128,0,126977:0:0:0:0:
329,192,126523,1,0,0:0:0:0:
475,192,126613,1,0,0:0:0:0:
402,192,126704,1,0,0:0:0:0:
256,192,126704,1,0,0:0:0:0:
182,192,126704,1,0,0:0:0:0:
109,192,126795,1,0,0:0:0:0:
475,192,126886,128,0,127068:0:0:0:0:
256,192,126886,1,0,0:0:0:0:
329,192,126886,1,0,0:0:0:0:
182,192,126977,1,0,0:0:0:0:
109,192,126977,1,0,0:0:0:0:
36,192,127068,5,0,0:0:0:0:
256,192,127068,1,0,0:0:0:0:
329,192,127068,1,0,0:0:0:0:
402,192,127068,128,0,129250:0:0:0:0:
109,192,127159,1,0,0:0:0:0:
182,192,127250,1,0,0:0:0:0:
256,192,127341,1,0,0:0:0:0:
36,192,127432,1,0,0:0:0:0:
109,192,127432,1,0,0:0:0:0:
182,192,127523,1,0,0:0:0:0:
256,192,127613,1,0,0:0:0:0:
329,192,127704,1,0,0:0:0:0:
36,192,127795,1,0,0:0:0:0:
475,192,127795,1,0,0:0:0:0:
256,192,127886,1,0,0:0:0:0:
182,192,127977,1,0,0:0:0:0:
109,192,128068,1,0,0:0:0:0:
182,192,128159,1,0,0:0:0:0:
256,192,128159,1,0,0:0:0:0:
36,192,128159,1,0,0:0:0:0:
109,192,128219,1,0,0:0:0:0:
329,192,128250,1,0,0:0:0:0:
182,192,128280,1,0,0:0:0:0:
256,192,128341,1,0,0:0:0:0:
36,192,128432,1,0,0:0:0:0:
109,192,128523,1,0,0:0:0:0:
256,192,128523,1,0,0:0:0:0:
475,192,128523,1,0,0:0:0:0:
182,192,128583,1,0,0:0:0:0:
329,192,128613,1,0,0:0:0:0:
36,192,128644,1,0,0:0:0:0:
256,192,128704,1,0,0:0:0:0:
109,192,128704,1,0,0:0:0:0:
182,192,128795,1,0,0:0:0:0:
109,192,128886,1,0,0:0:0:0:
36,192,128886,1,0,0:0:0:0:
329,192,128886,1,0,0:0:0:0:
182,192,128977,1,0,0:0:0:0:
329,192,129068,1,0,0:0:0:0:
109,192,129159,1,0,0:0:0:0:
256,192,129250,128,0,130341:0:0:0:0:
36,192,129250,128,0,130341:0:0:0:0:
182,192,129250,1,0,0:0:0:0:
475,192,129250,1,0,0:0:0:0:
329,192,129250,1,0,0:0:0:0:
109,192,129341,1,0,0:0:0:0:
402,192,129432,1,0,0:0:0:0:
329,192,129523,1,0,0:0:0:0:
475,192,129613,1,0,0:0:0:0:
182,192,129613,1,0,0:0:0:0:
329,192,129674,1,0,0:0:0:0:
109,192,129704,1,0,0:0:0:0:
402,192,129735,1,0,0:0:0:0:
182,192,129795,1,0,0:0:0:0:
475,192,129795,1,0,0:0:0:0:
402,192,129886,1,0,0:0:0:0:
329,192,129977,1,0,0:0:0:0:
402,192,130068,1,0,0:0:0:0:
182,192,130159,128,0,130250:0:0:0:0:
475,192,130159,1,0,0:0:0:0:
402,192,130250,128,0,130341:0:0:0:0:
109,192,130341,128,0,131432:0:0:0:0:
329,192,130341,128,0,131432:0:0:0:0:
475,192,130341,128,0,130523:0:0:0:0:
182,192,130341,1,0,0:0:0:0:
256,192,130432,1,0,0:0:0:0:
402,192,130523,1,0,0:0:0:0:
36,192,130523,1,0,0:0:0:0:
182,192,130583,1,0,0:0:0:0:
475,192,130613,1,0,0:0:0:0:
256,192,130644,1,0,0:0:0:0:
36,192,130704,128,0,130886:0:0:0:0:
402,192,130704,1,0,0:0:0:0:
182,192,130795,1,0,0:0:0:0:
475,192,130886,128,0,131250:0:0:0:0:
256,192,130886,1,0,0:0:0:0:
402,192,130977,1,0,0:0:0:0:
36,192,131068,1,0,0:0:0:0:
256,192,131159,1,0,0:0:0:0:
182,192,131250,128,0,131432:0:0:0:0:
402,192,131250,1,0,0:0:0:0:
475,192,131341,1,0,0:0:0:0:
402,192,131432,1,0,0:0:0:0:
36,192,131432,128,0,133613:0:0:0:0:
256,192,131432,128,0,133613:0:0:0:0:
109,192,131523,1,0,0:0:0:0:
182,192,131613,1,0,0:0:0:0:
475,192,131704,1,0,0:0:0:0:
402,192,131795,1,0,0:0:0:0:
109,192,131795,1,0,0:0:0:0:
182,192,131856,1,0,0:0:0:0:
329,192,131886,1,0,0:0:0:0:
475,192,131916,1,0,0:0:0:0:
402,192,131977,1,0,0:0:0:0:
182,192,131977,1,0,0:0:0:0:
109,192,132068,1,0,0:0:0:0:
182,192,132159,1,0,0:0:0:0:
475,192,132159,1,0,0:0:0:0:
402,192,132250,1,0,0:0:0:0:
329,192,132341,1,0,0:0:0:0:
475,192,132432,1,0,0:0:0:0:
402,192,132523,1,0,0:0:0:0:
182,192,132523,1,0,0:0:0:0:
329,192,132583,1,0,0:0:0:0:
475,192,132613,1,0,0:0:0:0:
402,192,132644,1,0,0:0:0:0:
109,192,132704,1,0,0:0:0:0:
182,192,132704,1,0,0:0:0:0:
329,192,132795,1,0,0:0:0:0:
475,192,132886,1,0,0:0:0:0:
109,192,132886,1,0,0:0:0:0:
182,192,132947,1,0,0:0:0:0:
402,192,132977,1,0,0:0:0:0:
475,192,133007,1,0,0:0:0:0:
329,192,133068,1,0,0:0:0:0:
109,192,133068,1,0,0:0:0:0:
402,192,133159,1,0,0:0:0:0:
182,192,133250,1,0,0:0:0:0:
475,192,133250,1,0,0:0:0:0:
402,192,133341,1,0,0:0:0:0:
329,192,133432,1,0,0:0:0:0:
402,192,133523,1,0,0:0:0:0:
475,192,133613,128,0,134704:0:0:0:0:
329,192,133613,128,0,134704:0:0:0:0:
109,192,133613,1,0,0:0:0:0:
182,192,133613,1,0,0:0:0:0:
36,192,133704,1,0,0:0:0:0:
256,192,133795,1,0,0:0:0:0:
109,192,133886,1,0,0:0:0:0:
402,192,133977,1,0,0:0:0:0:
182,192,133977,1,0,0:0:0:0:
256,192,134068,1,0,0:0:0:0:
109,192,134159,1,0,0:0:0:0:
182,192,134250,1,0,0:0:0:0:
36,192,134341,1,0,0:0:0:0:
256,192,134432,1,0,0:0:0:0:
182,192,134523,1,0,0:0:0:0:
36,192,134613,1,0,0:0:0:0:
109,192,134704,128,0,135795:0:0:0:0:
256,192,134704,128,0,135250:0:0:0:0:
182,192,134704,1,0,0:0:0:0:
402,192,134704,1,0,0:0:0:0:
475,192,134795,1,0,0:0:0:0:
329,192,134886,128,0,135068:0:0:0:0:
402,192,134886,1,0,0:0:0:0:
36,192,134977,1,0,0:0:0:0:
402,192,135068,128,0,135250:0:0:0:0:
182,192,135068,1,0,0:0:0:0:
36,192,135159,1,0,0:0:0:0:
475,192,135250,128,0,135795:0:0:0:0:
329,192,135250,1,0,0:0:0:0:
182,192,135295,1,0,0:0:0:0:
36,192,135341,1,0,0:0:0:0:
182,192,135386,1,0,0:0:0:0:
402,192,135432,1,0,0:0:0:0:
329,192,135432,1,0,0:0:0:0:
256,192,135523,1,0,0:0:0:0:
182,192,135613,1,0,0:0:0:0:
402,192,135704,1,0,0:0:0:0:
329,192,135795,1,0,0:0:0:0:
256,192,135795,1,0,0:0:0:0:
36,192,135795,128,0,136886:0:0:0:0:
182,192,135886,1,0,0:0:0:0:
402,192,135977,1,0,0:0:0:0:
256,192,136068,1,0,0:0:0:0:
475,192,136159,1,0,0:0:0:0:
109,192,136159,1,0,0:0:0:0:
402,192,136159,128,0,136523:0:0:0:0:
329,192,136250,1,0,0:0:0:0:
256,192,136341,1,0,0:0:0:0:
182,192,136432,1,0,0:0:0:0:
475,192,136523,1,0,0:0:0:0:
329,192,136523,1,0,0:0:0:0:
256,192,136523,1,0,0:0:0:0:
109,192,136523,128,0,136795:0:0:0:0:
182,192,136613,1,0,0:0:0:0:
256,192,136704,1,0,0:0:0:0:
475,192,136795,1,0,0:0:0:0:
182,192,136886,128,0,137977:0:0:0:0:
402,192,136886,1,0,0:0:0:0:
256,192,136886,1,0,0:0:0:0:
109,192,136886,128,0,137250:0:0:0:0:
329,192,136977,1,0,0:0:0:0:
475,192,137068,1,0,0:0:0:0:
256,192,137159,1,0,0:0:0:0:
402,192,137250,1,0,0:0:0:0:
36,192,137250,1,0,0:0:0:0:
329,192,137250,128,0,137432:0:0:0:0:
109,192,137341,1,0,0:0:0:0:
475,192,137432,1,0,0:0:0:0:
256,192,137432,128,0,137613:0:0:0:0:
329,192,137523,1,0,0:0:0:0:
109,192,137613,1,0,0:0:0:0:
402,192,137613,1,0,0:0:0:0:
36,192,137613,1,0,0:0:0:0:
475,192,137613,128,0,137795:0:0:0:0:
256,192,137704,1,0,0:0:0:0:
402,192,137795,1,0,0:0:0:0:
36,192,137795,128,0,137977:0:0:0:0:
329,192,137886,1,0,0:0:0:0:
475,192,137977,128,0,139068:0:0:0:0:
256,192,137977,1,0,0:0:0:0:
109,192,137977,1,0,0:0:0:0:
402,192,137977,1,0,0:0:0:0:
329,192,138068,1,0,0:0:0:0:
182,192,138159,1,0,0:0:0:0:
402,192,138250,1,0,0:0:0:0:
36,192,138341,128,0,138704:0:0:0:0:
329,192,138341,1,0,0:0:0:0:
109,192,138432,1,0,0:0:0:0:
329,192,138523,1,0,0:0:0:0:
256,192,138613,1,0,0:0:0:0:
182,192,138704,128,0,139068:0:0:0:0:
402,192,138704,1,0,0:0:0:0:
329,192,138704,1,0,0:0:0:0:
109,192,138704,1,0,0:0:0:0:
256,192,138795,1,0,0:0:0:0:
36,192,138886,1,0,0:0:0:0:
402,192,138977,1,0,0:0:0:0:
329,192,139068,128,0,140159:0:0:0:0:
109,192,139068,128,0,139432:0:0:0:0:
256,192,139068,1,0,0:0:0:0:
36,192,139068,1,0,0:0:0:0:
182,192,139159,1,0,0:0:0:0:
475,192,139250,1,0,0:0:0:0:
402,192,139341,1,0,0:0:0:0:
36,192,139341,1,0,0:0:0:0:
475,192,139432,128,0,139613:0:0:0:0:
256,192,139432,1,0,0:0:0:0:
182,192,139432,1,0,0:0:0:0:
36,192,139523,1,0,0:0:0:0:
402,192,139613,128,0,139795:0:0:0:0:
256,192,139613,1,0,0:0:0:0:
36,192,139704,1,0,0:0:0:0:
182,192,139795,128,0,140159:0:0:0:0:
256,192,139795,1,0,0:0:0:0:
109,192,139795,1,0,0:0:0:0:
475,192,139886,1,0,0:0:0:0:
402,192,139977,1,0,0:0:0:0:
109,192,139977,1,0,0:0:0:0:
256,192,140068,1,0,0:0:0:0:
36,192,140159,128,0,141250:0:0:0:0:
402,192,140159,1,0,0:0:0:0:
475,192,140159,1,0,0:0:0:0:
109,192,140159,1,0,0:0:0:0:
256,192,140250,1,0,0:0:0:0:
402,192,140341,1,0,0:0:0:0:
329,192,140432,1,0,0:0:0:0:
256,192,140523,128,0,140886:0:0:0:0:
475,192,140523,1,0,0:0:0:0:
182,192,140523,1,0,0:0:0:0:
109,192,140613,1,0,0:0:0:0:
402,192,140704,1,0,0:0:0:0:
329,192,140795,1,0,0:0:0:0:
475,192,140886,128,0,141159:0:0:0:0:
182,192,140886,1,0,0:0:0:0:
109,192,140886,1,0,0:0:0:0:
402,192,140886,1,0,0:0:0:0:
256,192,140977,1,0,0:0:0:0:
329,192,141068,1,0,0:0:0:0:
402,192,141159,1,0,0:0:0:0:
329,192,141219,1,0,0:0:0:0:
182,192,141250,128,0,142250:0:0:0:0:
475,192,141250,128,0,141795:0:0:0:0:
256,192,141250,1,0,0:0:0:0:
109,192,141250,1,0,0:0:0:0:
329,192,141341,1,0,0:0:0:0:
402,192,141432,128,0,141795:0:0:0:0:
36,192,141432,1,0,0:0:0:0:
256,192,141523,1,0,0:0:0:0:
329,192,141613,128,0,141795:0:0:0:0:
109,192,141613,1,0,0:0:0:0:
256,192,141704,1,0,0:0:0:0:
36,192,141795,128,0,142250:0:0:0:0:
109,192,141795,1,0,0:0:0:0:
329,192,141886,1,0,0:0:0:0:
109,192,141977,128,0,142341:0:0:0:0:
256,192,141977,1,0,0:0:0:0:
402,192,142068,1,0,0:0:0:0:
256,192,142159,128,0,142341:0:0:0:0:
329,192,142159,1,0,0:0:0:0:
402,192,142250,1,0,0:0:0:0:
329,192,142341,128,0,143432:0:0:0:0:
475,192,142341,128,0,143432:0:0:0:0:
36,192,142341,1,0,0:0:0:0:
182,192,142341,1,0,0:0:0:0:
109,192,142432,1,0,0:0:0:0:
256,192,142523,1,0,0:0:0:0:
182,192,142613,1,0,0:0:0:0:
402,192,142704,1,0,0:0:0:0:
109,192,142704,1,0,0:0:0:0:
256,192,142795,1,0,0:0:0:0:
182,192,142886,1,0,0:0:0:0:
36,192,142977,1,0,0:0:0:0:
109,192,143068,1,0,0:0:0:0:
256,192,143068,1,0,0:0:0:0:
182,192,143068,1,0,0:0:0:0:
402,192,143159,1,0,0:0:0:0:
109,192,143250,1,0,0:0:0:0:
256,192,143250,1,0,0:0:0:0:
182,192,143310,1,0,0:0:0:0:
36,192,143341,1,0,0:0:0:0:
256,192,143371,1,0,0:0:0:0:
402,192,143432,1,0,0:0:0:0:
182,192,143432,1,0,0:0:0:0:
109,192,143432,128,0,143613:0:0:0:0:
256,192,143523,1,0,0:0:0:0:
475,192,143523,1,0,0:0:0:0:
329,192,143613,1,0,0:0:0:0:
402,192,143613,1,0,0:0:0:0:
36,192,143613,128,0,143795:0:0:0:0:
256,192,143704,1,0,0:0:0:0:
402,192,143795,128,0,143977:0:0:0:0:
182,192,143795,1,0,0:0:0:0:
109,192,143795,1,0,0:0:0:0:
256,192,143886,1,0,0:0:0:0:
475,192,143977,128,0,144523:0:0:0:0:
329,192,143977,1,0,0:0:0:0:
109,192,143977,1,0,0:0:0:0:
36,192,144159,1,0,0:0:0:0:
402,192,144159,1,0,0:0:0:0:
256,192,144159,1,0,0:0:0:0:
36,192,144341,1,0,0:0:0:0:
182,192,144341,1,0,0:0:0:0:
402,192,144341,1,0,0:0:0:0:
109,192,144432,1,0,0:0:0:0:
329,192,144432,1,0,0:0:0:0:
182,192,144523,1,0,0:0:0:0:
256,192,144523,1,0,0:0:0:0:
402,192,144523,1,0,0:0:0:0:
36,192,144523,128,0,145613:0:0:0:0:
109,192,144613,1,0,0:0:0:0:
329,192,144704,1,0,0:0:0:0:
256,192,144795,1,0,0:0:0:0:
475,192,144886,1,0,0:0:0:0:
402,192,144886,1,0,0:0:0:0:
329,192,144886,128,0,145250:0:0:0:0:
182,192,144977,1,0,0:0:0:0:
256,192,145068,1,0,0:0:0:0:
402,192,145159,1,0,0:0:0:0:
475,192,145250,1,0,0:0:0:0:
109,192,145250,1,0,0:0:0:0:
182,192,145250,1,0,0:0:0:0:
256,192,145250,128,0,145523:0:0:0:0:
402,192,145341,1,0,0:0:0:0:
329,192,145432,1,0,0:0:0:0:
109,192,145523,1,0,0:0:0:0:
402,192,145583,1,0,0:0:0:0:
182,192,145613,128,0,146704:0:0:0:0:
329,192,145613,1,0,0:0:0:0:
475,192,145613,1,0,0:0:0:0:
256,192,145613,128,0,145977:0:0:0:0:
109,192,145704,1,0,0:0:0:0:
36,192,145795,1,0,0:0:0:0:
329,192,145886,1,0,0:0:0:0:
402,192,145977,1,0,0:0:0:0:
109,192,145977,1,0,0:0:0:0:
475,192,145977,128,0,146159:0:0:0:0:
329,192,146068,1,0,0:0:0:0:
36,192,146159,1,0,0:0:0:0:
402,192,146159,128,0,146341:0:0:0:0:
109,192,146250,1,0,0:0:0:0:
329,192,146341,1,0,0:0:0:0:
256,192,146341,1,0,0:0:0:0:
36,192,146341,128,0,146523:0:0:0:0:
475,192,146432,1,0,0:0:0:0:
329,192,146523,1,0,0:0:0:0:
109,192,146523,128,0,146704:0:0:0:0:
256,192,146613,1,0,0:0:0:0:
329,192,146704,128,0,147795:0:0:0:0:
36,192,146704,1,0,0:0:0:0:
402,192,146704,1,0,0:0:0:0:
475,192,146704,1,0,0:0:0:0:
109,192,146795,1,0,0:0:0:0:
182,192,146886,1,0,0:0:0:0:
256,192,146977,1,0,0:0:0:0:
475,192,147068,1,0,0:0:0:0:
36,192,147068,1,0,0:0:0:0:
402,192,147068,128,0,147432:0:0:0:0:
182,192,147159,1,0,0:0:0:0:
109,192,147250,1,0,0:0:0:0:
36,192,147341,1,0,0:0:0:0:
182,192,147432,1,0,0:0:0:0:
256,192,147432,1,0,0:0:0:0:
109,192,147432,128,0,147795:0:0:0:0:
36,192,147523,1,0,0:0:0:0:
402,192,147613,1,0,0:0:0:0:
182,192,147704,1,0,0:0:0:0:
475,192,147795,128,0,148886:0:0:0:0:
256,192,147795,128,0,148159:0:0:0:0:
402,192,147795,1,0,0:0:0:0:
36,192,147795,1,0,0:0:0:0:
182,192,147886,1,0,0:0:0:0:
109,192,147977,1,0,0:0:0:0:
36,192,148068,1,0,0:0:0:0:
402,192,148159,128,0,148341:0:0:0:0:
182,192,148159,128,0,148341:0:0:0:0:
109,192,148159,1,0,0:0:0:0:
329,192,148159,1,0,0:0:0:0:
36,192,148250,1,0,0:0:0:0:
329,192,148341,128,0,148523:0:0:0:0:
109,192,148341,128,0,148523:0:0:0:0:
256,192,148341,1,0,0:0:0:0:
402,192,148432,1,0,0:0:0:0:
36,192,148523,128,0,148886:0:0:0:0:
182,192,148523,128,0,148886:0:0:0:0:
256,192,148523,1,0,0:0:0:0:
109,192,148613,1,0,0:0:0:0:
402,192,148704,1,0,0:0:0:0:
329,192,148795,1,0,0:0:0:0:
256,192,148886,128,0,149977:0:0:0:0:
109,192,148886,1,0,0:0:0:0:
402,192,148886,1,0,0:0:0:0:
329,192,148977,1,0,0:0:0:0:
475,192,149068,1,0,0:0:0:0:
402,192,149159,1,0,0:0:0:0:
109,192,149219,1,0,0:0:0:0:
36,192,149250,1,0,0:0:0:0:
329,192,149250,1,0,0:0:0:0:
182,192,149250,128,0,149613:0:0:0:0:
109,192,149341,1,0,0:0:0:0:
402,192,149341,1,0,0:0:0:0:
475,192,149432,1,0,0:0:0:0:
109,192,149523,1,0,0:0:0:0:
475,192,149613,128,0,149886:0:0:0:0:
402,192,149613,1,0,0:0:0:0:
36,192,149613,1,0,0:0:0:0:
329,192,149613,1,0,0:0:0:0:
182,192,149704,1,0,0:0:0:0:
109,192,149795,1,0,0:0:0:0:
402,192,149886,1,0,0:0:0:0:
36,192,149977,128,0,150977:0:0:0:0:
475,192,149977,128,0,150341:0:0:0:0:
329,192,149977,1,0,0:0:0:0:
182,192,149977,1,0,0:0:0:0:
109,192,149977,1,0,0:0:0:0:
256,192,150068,1,0,0:0:0:0:
109,192,150159,1,0,0:0:0:0:
329,192,150250,1,0,0:0:0:0:
402,192,150341,128,0,150704:0:0:0:0:
182,192,150341,1,0,0:0:0:0:
256,192,150432,1,0,0:0:0:0:
329,192,150523,128,0,150704:0:0:0:0:
109,192,150523,1,0,0:0:0:0:
256,192,150613,1,0,0:0:0:0:
109,192,150704,128,0,151068:0:0:0:0:
475,192,150704,1,0,0:0:0:0:
182,192,150704,1,0,0:0:0:0:
256,192,150795,1,0,0:0:0:0:
182,192,150886,128,0,151068:0:0:0:0:
402,192,150886,1,0,0:0:0:0:
329,192,150977,1,0,0:0:0:0:
256,192,151068,128,0,152159:0:0:0:0:
475,192,151068,1,0,0:0:0:0:
402,192,151068,1,0,0:0:0:0:
36,192,151068,128,0,152159:0:0:0:0:
329,192,151250,1,0,0:0:0:0:
402,192,151341,1,0,0:0:0:0:
109,192,151432,128,0,151795:0:0:0:0:
475,192,151432,1,0,0:0:0:0:
329,192,151613,1,0,0:0:0:0:
475,192,151795,1,0,0:0:0:0:
475,192,151977,1,0,0:0:0:0:
182,192,151977,1,0,0:0:0:0:
402,192,152068,1,0,0:0:0:0:
475,192,152159,128,0,153250:0:0:0:0:
329,192,152159,1,0,0:0:0:0:
109,192,152159,1,0,0:0:0:0:
329,192,152341,1,0,0:0:0:0:
182,192,152341,1,0,0:0:0:0:
256,192,152432,1,0,0:0:0:0:
109,192,152432,1,0,0:0:0:0:
329,192,152523,128,0,153250:0:0:0:0:
182,192,152523,1,0,0:0:0:0:
36,192,152523,1,0,0:0:0:0:
402,192,152523,1,0,0:0:0:0:
109,192,152613,1,0,0:0:0:0:
182,192,152704,1,0,0:0:0:0:
256,192,152795,1,0,0:0:0:0:
182,192,152886,128,0,153250:0:0:0:0:
402,192,152886,1,0,0:0:0:0:
109,192,152886,1,0,0:0:0:0:
256,192,152977,1,0,0:0:0:0:
36,192,153068,128,0,153250:0:0:0:0:
109,192,153068,1,0,0:0:0:0:
256,192,153159,1,0,0:0:0:0:
109,192,153250,1,0,0:0:0:0:
402,192,153250,128,0,153613:0:0:0:0:
182,192,153341,1,0,0:0:0:0:
109,192,153432,128,0,153613:0:0:0:0:
256,192,153432,1,0,0:0:0:0:
329,192,153523,1,0,0:0:0:0:
182,192,153613,128,0,153977:0:0:0:0:
475,192,153613,1,0,0:0:0:0:
36,192,153613,1,0,0:0:0:0:
256,192,153613,1,0,0:0:0:0:
402,192,153704,1,0,0:0:0:0:
256,192,153795,128,0,154159:0:0:0:0:
329,192,153795,1,0,0:0:0:0:
402,192,153886,1,0,0:0:0:0:
329,192,153977,128,0,154341:0:0:0:0:
475,192,153977,1,0,0:0:0:0:
109,192,153977,1,0,0:0:0:0:
36,192,153977,1,0,0:0:0:0:
182,192,154068,1,0,0:0:0:0:
402,192,154159,128,0,154523:0:0:0:0:
109,192,154159,1,0,0:0:0:0:
256,192,154250,1,0,0:0:0:0:
109,192,154341,128,0,154523:0:0:0:0:
182,192,154341,1,0,0:0:0:0:
36,192,154341,1,0,0:0:0:0:
256,192,154432,1,0,0:0:0:0:
475,192,154523,128,0,154886:0:0:0:0:
329,192,154523,1,0,0:0:0:0:
182,192,154613,1,0,0:0:0:0:
256,192,154704,128,0,155068:0:0:0:0:
402,192,154704,1,0,0:0:0:0:
329,192,154704,1,0,0:0:0:0:
109,192,154795,1,0,0:0:0:0:
36,192,154886,128,0,155250:0:0:0:0:
182,192,154886,1,0,0:0:0:0:
329,192,154977,1,0,0:0:0:0:
109,192,155068,128,0,155432:0:0:0:0:
182,192,155068,1,0,0:0:0:0:
402,192,155068,1,0,0:0:0:0:
475,192,155068,1,0,0:0:0:0:
329,192,155159,1,0,0:0:0:0:
402,192,155250,128,0,155432:0:0:0:0:
182,192,155250,1,0,0:0:0:0:
256,192,155341,1,0,0:0:0:0:
475,192,155432,128,0,155613:0:0:0:0:
329,192,155432,1,0,0:0:0:0:
36,192,155432,1,0,0:0:0:0:
256,192,155523,1,0,0:0:0:0:
402,192,155613,1,0,0:0:0:0:
182,192,155613,1,0,0:0:0:0:
329,192,155674,1,0,0:0:0:0:
109,192,155704,1,0,0:0:0:0:
256,192,155735,1,0,0:0:0:0:
182,192,155795,128,0,156159:0:0:0:0:
36,192,155795,1,0,0:0:0:0:
475,192,155795,1,0,0:0:0:0:
402,192,155795,1,0,0:0:0:0:
256,192,155886,1,0,0:0:0:0:
329,192,155977,128,0,156159:0:0:0:0:
109,192,155977,1,0,0:0:0:0:
402,192,156068,1,0,0:0:0:0:
475,192,156159,128,0,156523:0:0:0:0:
109,192,156159,1,0,0:0:0:0:
36,192,156159,1,0,0:0:0:0:
256,192,156159,1,0,0:0:0:0:
182,192,156250,1,0,0:0:0:0:
36,192,156341,128,0,156523:0:0:0:0:
329,192,156341,1,0,0:0:0:0:
182,192,156432,1,0,0:0:0:0:
256,192,156523,128,0,156886:0:0:0:0:
402,192,156523,1,0,0:0:0:0:
109,192,156523,1,0,0:0:0:0:
329,192,156613,1,0,0:0:0:0:
182,192,156704,1,0,0:0:0:0:
36,192,156795,1,0,0:0:0:0:
475,192,156886,1,0,0:0:0:0:
329,192,156886,1,0,0:0:0:0:
109,192,156886,1,0,0:0:0:0:
402,192,156977,1,0,0:0:0:0:
329,192,157068,1,0,0:0:0:0:
182,192,157068,128,0,157159:0:0:0:0:
36,192,157159,1,0,0:0:0:0:
109,192,157250,1,0,0:0:0:0:
256,192,157250,1,0,0:0:0:0:
182,192,157250,128,0,157341:0:0:0:0:
475,192,157250,1,0,0:0:0:0:
329,192,157341,1,0,0:0:0:0:
402,192,157432,1,0,0:0:0:0:
256,192,157432,128,0,157613:0:0:0:0:
475,192,157523,1,0,0:0:0:0:
109,192,157613,1,0,0:0:0:0:
36,192,157613,1,0,0:0:0:0:
402,192,157613,1,0,0:0:0:0:
329,192,157613,128,0,157795:0:0:0:0:
475,192,157704,1,0,0:0:0:0:
182,192,157795,128,0,157977:0:0:0:0:
36,192,157795,1,0,0:0:0:0:
109,192,157886,1,0,0:0:0:0:
329,192,157977,128,0,158159:0:0:0:0:
402,192,157977,1,0,0:0:0:0:
475,192,157977,1,0,0:0:0:0:
256,192,158068,1,0,0:0:0:0:
182,192,158159,128,0,158341:0:0:0:0:
36,192,158159,1,0,0:0:0:0:
402,192,158250,1,0,0:0:0:0:
36,192,158341,128,0,158523:0:0:0:0:
329,192,158341,1,0,0:0:0:0:
256,192,158341,1,0,0:0:0:0:
475,192,158341,1,0,0:0:0:0:
402,192,158432,1,0,0:0:0:0:
182,192,158523,128,0,158704:0:0:0:0:
256,192,158523,1,0,0:0:0:0:
475,192,158613,1,0,0:0:0:0:
329,192,158704,128,0,159068:0:0:0:0:
402,192,158704,1,0,0:0:0:0:
109,192,158704,1,0,0:0:0:0:
256,192,158795,1,0,0:0:0:0:
36,192,158886,1,0,0:0:0:0:
182,192,158977,1,0,0:0:0:0:
475,192,158977,1,0,0:0:0:0:
402,192,159068,128,0,159250:0:0:0:0:
109,192,159068,1,0,0:0:0:0:
256,192,159068,1,0,0:0:0:0:
329,192,159159,1,0,0:0:0:0:
475,192,159250,128,0,159795:0:0:0:0:
182,192,159250,1,0,0:0:0:0:
402,192,159341,1,0,0:0:0:0:
36,192,159432,1,0,0:0:0:0:
109,192,159432,1,0,0:0:0:0:
256,192,159432,1,0,0:0:0:0:
182,192,159523,1,0,0:0:0:0:
329,192,159613,128,0,159795:0:0:0:0:
402,192,159613,1,0,0:0:0:0:
256,192,159704,1,0,0:0:0:0:
182,192,159795,128,0,160523:0:0:0:0:
109,192,159795,1,0,0:0:0:0:
36,192,159795,1,0,0:0:0:0:
256,192,159886,1,0,0:0:0:0:
402,192,159977,1,0,0:0:0:0:
329,192,160068,1,0,0:0:0:0:
475,192,160159,1,0,0:0:0:0:
109,192,160159,1,0,0:0:0:0:
329,192,160250,1,0,0:0:0:0:
402,192,160341,1,0,0:0:0:0:
256,192,160432,1,0,0:0:0:0:
36,192,160523,128,0,160886:0:0:0:0:
109,192,160523,1,0,0:0:0:0:
475,192,160523,1,0,0:0:0:0:
402,192,160523,1,0,0:0:0:0:
329,192,160613,1,0,0:0:0:0:
182,192,160704,128,0,160886:0:0:0:0:
475,192,160704,1,0,0:0:0:0:
256,192,160795,1,0,0:0:0:0:
475,192,160886,128,0,161886:0:0:0:0:
402,192,160886,128,0,161250:0:0:0:0:
329,192,160886,1,0,0:0:0:0:
109,192,160886,1,0,0:0:0:0:
256,192,160977,1,0,0:0:0:0:
182,192,160977,1,0,0:0:0:0:
109,192,161068,1,0,0:0:0:0:
36,192,161068,1,0,0:0:0:0:
182,192,161159,1,0,0:0:0:0:
329,192,161159,1,0,0:0:0:0:
256,192,161250,128,0,161613:0:0:0:0:
109,192,161250,1,0,0:0:0:0:
36,192,161250,1,0,0:0:0:0:
182,192,161341,1,0,0:0:0:0:
329,192,161341,1,0,0:0:0:0:
402,192,161432,1,0,0:0:0:0:
109,192,161432,1,0,0:0:0:0:
182,192,161523,1,0,0:0:0:0:
329,192,161613,128,0,161977:0:0:0:0:
402,192,161613,128,0,161886:0:0:0:0:
109,192,161613,1,0,0:0:0:0:
36,192,161613,1,0,0:0:0:0:
182,192,161704,1,0,0:0:0:0:
36,192,161795,1,0,0:0:0:0:
256,192,161795,1,0,0:0:0:0:
109,192,161886,1,0,0:0:0:0:
182,192,161886,1,0,0:0:0:0:
475,192,161977,1,0,0:0:0:0:
256,192,161977,1,0,0:0:0:0:
36,192,161977,1,0,0:0:0:0:
402,192,161977,128,0,162341:0:0:0:0:
182,192,162068,1,0,0:0:0:0:
109,192,162159,128,0,162341:0:0:0:0:
329,192,162159,1,0,0:0:0:0:
256,192,162250,1,0,0:0:0:0:
182,192,162341,128,0,162704:0:0:0:0:
36,192,162341,1,0,0:0:0:0:
475,192,162341,1,0,0:0:0:0:
256,192,162432,1,0,0:0:0:0:
329,192,162523,128,0,162704:0:0:0:0:
475,192,162523,1,0,0:0:0:0:
402,192,162613,1,0,0:0:0:0:
475,192,162704,128,0,163068:0:0:0:0:
36,192,162704,1,0,0:0:0:0:
109,192,162704,1,0,0:0:0:0:
256,192,162704,1,0,0:0:0:0:
182,192,162795,1,0,0:0:0:0:
256,192,162886,128,0,163068:0:0:0:0:
36,192,162886,1,0,0:0:0:0:
182,192,162977,1,0,0:0:0:0:
36,192,163068,128,0,163432:0:0:0:0:
329,192,163068,1,0,0:0:0:0:
109,192,163068,1,0,0:0:0:0:
475,192,163159,1,0,0:0:0:0:
256,192,163250,128,0,163432:0:0:0:0:
402,192,163250,1,0,0:0:0:0:
109,192,163341,1,0,0:0:0:0:
402,192,163432,128,0,163795:0:0:0:0:
182,192,163432,1,0,0:0:0:0:
475,192,163432,1,0,0:0:0:0:
329,192,163523,1,0,0:0:0:0:
182,192,163613,128,0,163795:0:0:0:0:
256,192,163613,1,0,0:0:0:0:
329,192,163704,1,0,0:0:0:0:
36,192,163795,128,0,164159:0:0:0:0:
475,192,163795,1,0,0:0:0:0:
256,192,163795,1,0,0:0:0:0:
109,192,163795,1,0,0:0:0:0:
402,192,163886,1,0,0:0:0:0:
329,192,163977,128,0,164159:0:0:0:0:
109,192,163977,1,0,0:0:0:0:
182,192,164068,1,0,0:0:0:0:
475,192,164159,128,0,164523:0:0:0:0:
256,192,164159,1,0,0:0:0:0:
402,192,164159,1,0,0:0:0:0:
109,192,164250,1,0,0:0:0:0:
182,192,164341,128,0,164523:0:0:0:0:
256,192,164341,1,0,0:0:0:0:
329,192,164401,1,0,0:0:0:0:
402,192,164462,1,0,0:0:0:0:
109,192,164523,128,0,164886:0:0:0:0:
36,192,164523,1,0,0:0:0:0:
256,192,164523,1,0,0:0:0:0:
329,192,164613,1,0,0:0:0:0:
402,192,164704,128,0,164886:0:0:0:0:
182,192,164704,1,0,0:0:0:0:
475,192,164795,1,0,0:0:0:0:
256,192,164886,128,0,165068:0:0:0:0:
329,192,164886,1,0,0:0:0:0:
182,192,164886,1,0,0:0:0:0:
36,192,164886,1,0,0:0:0:0:
402,192,164977,1,0,0:0:0:0:
109,192,165068,128,0,165250:0:0:0:0:
475,192,165068,1,0,0:0:0:0:
329,192,165159,1,0,0:0:0:0:
182,192,165250,128,0,165977:0:0:0:0:
402,192,165250,128,0,165795:0:0:0:0:
256,192,165250,1,0,0:0:0:0:
475,192,165250,1,0,0:0:0:0:
36,192,165341,1,0,0:0:0:0:
109,192,165432,1,0,0:0:0:0:
329,192,165523,1,0,0:0:0:0:
256,192,165613,1,0,0:0:0:0:
475,192,165613,1,0,0:0:0:0:
36,192,165704,1,0,0:0:0:0:
329,192,165795,128,0,165886:0:0:0:0:
109,192,165795,1,0,0:0:0:0:
256,192,165886,1,0,0:0:0:0:
329,192,165977,128,0,166068:0:0:0:0:
109,192,165977,128,0,166341:0:0:0:0:
475,192,165977,1,0,0:0:0:0:
402,192,165977,1,0,0:0:0:0:
36,192,165977,1,0,0:0:0:0:
182,192,166068,1,0,0:0:0:0:
402,192,166159,128,0,166341:0:0:0:0:
256,192,166159,1,0,0:0:0:0:
329,192,166250,1,0,0:0:0:0:
36,192,166341,1,0,0:0:0:0:
256,192,166341,1,0,0:0:0:0:
182,192,166341,1,0,0:0:0:0:
475,192,166341,128,0,166523:0:0:0:0:
329,192,166432,1,0,0:0:0:0:
36,192,166523,128,0,166704:0:0:0:0:
109,192,166523,1,0,0:0:0:0:
402,192,166613,1,0,0:0:0:0:
475,192,166704,128,0,166886:0:0:0:0:
256,192,166704,1,0,0:0:0:0:
182,192,166704,1,0,0:0:0:0:
109,192,166795,1,0,0:0:0:0:
402,192,166886,128,0,167068:0:0:0:0:
256,192,166886,1,0,0:0:0:0:
36,192,166977,1,0,0:0:0:0:
109,192,167068,128,0,167250:0:0:0:0:
182,192,167068,1,0,0:0:0:0:
329,192,167068,1,0,0:0:0:0:
475,192,167068,1,0,0:0:0:0:
402,192,167159,1,0,0:0:0:0:
256,192,167250,128,0,167432:0:0:0:0:
329,192,167250,1,0,0:0:0:0:
36,192,167341,1,0,0:0:0:0:
402,192,167432,128,0,167795:0:0:0:0:
109,192,167432,128,0,167795:0:0:0:0:
182,192,167432,1,0,0:0:0:0:
329,192,167432,1,0,0:0:0:0:
256,192,167523,1,0,0:0:0:0:
36,192,167613,1,0,0:0:0:0:
329,192,167704,1,0,0:0:0:0:
182,192,167795,128,0,167977:0:0:0:0:
475,192,167795,128,0,167977:0:0:0:0:
256,192,167795,1,0,0:0:0:0:
36,192,167795,1,0,0:0:0:0:
109,192,167886,1,0,0:0:0:0:
36,192,167977,128,0,168341:0:0:0:0:
256,192,167977,128,0,168341:0:0:0:0:
402,192,167977,1,0,0:0:0:0:
182,192,168068,1,0,0:0:0:0:
329,192,168159,1,0,0:0:0:0:
475,192,168159,1,0,0:0:0:0:
402,192,168159,1,0,0:0:0:0:
109,192,168250,1,0,0:0:0:0:
402,192,168341,128,0,168523:0:0:0:0:
182,192,168341,128,0,168523:0:0:0:0:
329,192,168341,1,0,0:0:0:0:
256,192,168432,1,0,0:0:0:0:
329,192,168523,128,0,169250:0:0:0:0:
109,192,168523,128,0,168886:0:0:0:0:
475,192,168523,1,0,0:0:0:0:
36,192,168523,1,0,0:0:0:0:
182,192,168613,1,0,0:0:0:0:
256,192,168704,1,0,0:0:0:0:
182,192,168795,1,0,0:0:0:0:
36,192,168886,128,0,169250:0:0:0:0:
256,192,168886,1,0,0:0:0:0:
402,192,168886,1,0,0:0:0:0:
475,192,168977,1,0,0:0:0:0:
109,192,169068,1,0,0:0:0:0:
182,192,169159,1,0,0:0:0:0:
109,192,169250,128,0,169613:0:0:0:0:
256,192,169250,128,0,169613:0:0:0:0:
402,192,169250,1,0,0:0:0:0:
475,192,169250,1,0,0:0:0:0:
182,192,169341,1,0,0:0:0:0:
36,192,169432,1,0,0:0:0:0:
475,192,169523,1,0,0:0:0:0:
182,192,169613,128,0,169977:0:0:0:0:
329,192,169613,128,0,169977:0:0:0:0:
402,192,169613,1,0,0:0:0:0:
36,192,169613,1,0,0:0:0:0:
109,192,169704,1,0,0:0:0:0:
402,192,169795,1,0,0:0:0:0:
256,192,169795,1,0,0:0:0:0:
475,192,169886,1,0,0:0:0:0:
256,192,169977,128,0,170341:0:0:0:0:
402,192,169977,128,0,170341:0:0:0:0:
36,192,169977,1,0,0:0:0:0:
109,192,169977,1,0,0:0:0:0:
182,192,170068,1,0,0:0:0:0:
329,192,170068,1,0,0:0:0:0:
475,192,170159,1,0,0:0:0:0:
109,192,170159,1,0,0:0:0:0:
36,192,170250,1,0,0:0:0:0:
329,192,170341,128,0,170704:0:0:0:0:
109,192,170341,128,0,170704:0:0:0:0:
182,192,170341,1,0,0:0:0:0:
475,192,170341,1,0,0:0:0:0:
402,192,170432,1,0,0:0:0:0:
36,192,170432,1,0,0:0:0:0:
182,192,170523,1,0,0:0:0:0:
256,192,170523,1,0,0:0:0:0:
402,192,170613,1,0,0:0:0:0:
475,192,170613,1,0,0:0:0:0:
36,192,170704,1,0,0:0:0:0:
182,192,170704,1,0,0:0:0:0:
256,192,170704,1,0,0:0:0:0:
