osu file format v14

[General]
AudioFilename: SoF.mp3
AudioLeadIn: 0
PreviewTime: -1
Countdown: 0
SampleSet: None
StackLeniency: 0.2
Mode: 0
LetterboxInBreaks: 1
WidescreenStoryboard: 0

[Editor]
Bookmarks: 5320,9775,12138,18411,27138,35866,45684,50411,54411,63138,71866,80593,98047,106775
DistanceSpacing: 0.7
BeatDivisor: 6
GridSize: 4
TimelineZoom: 3.199999

[Metadata]
Title:Scars of FAUNA
TitleUnicode:Scars of FAUNA
Artist:Nekomata Master
ArtistUnicode:猫叉Master
Creator:Urushi38
Version:Another
Source:jubeat saucer fulfill
Tags:
BeatmapID:659751
BeatmapSetID:293275

[Difficulty]
HPDrainRate:5
CircleSize:4.5
OverallDifficulty:8
ApproachRate:9
SliderMultiplier:1.7
SliderTickRate:1

[Events]
//Background and Video events
0,0,"46302874_p0.jpg",0,0
//Break Periods
//Storyboard Layer 0 (Background)
//Storyboard Layer 1 (Fail)
//Storyboard Layer 2 (Pass)
//Storyboard Layer 3 (Foreground)
//Storyboard Sound Samples

[TimingPoints]
957,363.636363636364,3,1,1,45,1,0
17320,-83.3333333333333,3,1,1,45,0,0
17593,-66.6666666666667,3,1,1,45,0,0
18411,-166.666666666667,3,3,1,24,0,0
22775,-66.6666666666667,3,3,1,54,0,0
22957,-166.666666666667,3,3,1,24,0,0
27093,-100,3,2,38,79,0,0
27184,-100,3,3,1,24,0,0
31138,-66.6666666666667,3,3,1,24,0,0
31502,-66.6666666666667,3,3,1,54,0,0
31775,-83.3333333333333,3,3,1,54,0,0
32047,-100,3,3,1,54,0,0
32229,-125,3,3,1,54,0,0
32593,-50,3,3,1,54,0,0
32866,-66.6666666666667,3,3,1,54,0,0
33138,-83.3333333333333,3,3,1,54,0,0
33320,-100,3,3,1,54,0,0
33684,-40,3,3,1,54,0,0
33957,-50,3,3,1,54,0,0
34229,-66.6666666666667,3,3,1,54,0,0
34411,-83.3333333333333,3,3,1,54,0,0
34775,-100,3,3,1,54,0,0
45684,-125,3,3,1,54,0,0
46047,-83.3333333333333,3,3,1,54,0,0
46411,-66.6666666666667,3,3,1,54,0,0
46593,-100,3,3,1,54,0,0
47866,-125,3,3,1,54,0,0
48229,-83.3333333333333,3,3,1,54,0,0
48593,-66.6666666666667,3,3,1,54,0,0
48775,-100,3,3,1,54,0,0
50047,-125,3,3,1,54,0,0
50411,-83.3333333333333,3,3,1,54,0,0
50775,-66.6666666666667,3,3,1,54,0,0
50957,-100,3,3,1,54,0,0
52228,-125,3,3,1,54,0,0
52592,-83.3333333333333,3,3,1,54,0,0
52957,-66.6666666666667,3,3,1,54,0,0
53138,-100,3,3,1,54,0,0
79502,-125,3,3,1,54,0,0
79866,-83.3333333333333,3,3,1,54,0,0
80229,-66.6666666666667,3,3,1,54,0,0
80593,-83.3333333333333,3,3,1,54,0,1
106775,-100,3,3,1,74,0,0

[HitObjects]
84,152,957,5,4,0:3:0:0:
160,144,1229,1,8,0:3:0:0:
236,136,1502,1,2,0:3:0:0:
216,276,1684,1,2,0:3:0:0:
216,276,2047,5,4,0:3:0:0:
292,268,2319,1,8,0:3:0:0:
368,260,2592,1,2,0:3:0:0:
364,252,2653,1,2,0:3:0:0:
360,244,2714,1,2,0:3:0:0:
356,236,2775,1,2,0:3:0:0:
356,236,3138,5,4,0:3:0:0:
280,228,3411,1,8,0:3:0:0:
204,216,3684,1,2,0:3:0:0:
256,64,3866,1,4,0:3:0:0:
256,64,4229,5,4,0:3:0:0:
332,48,4502,1,8,0:3:0:0:
408,32,4775,1,2,0:3:0:0:
406,40,4835,1,2,0:3:0:0:
404,48,4896,1,2,0:3:0:0:
402,56,4957,1,2,0:3:0:0:
402,56,5320,5,0,0:0:0:0:
288,48,5593,1,0,0:0:0:0:
172,36,5866,1,0,0:0:0:0:
176,60,5957,1,0,0:0:0:0:
180,84,6047,1,0,0:0:0:0:
364,248,6320,1,0,0:0:0:0:
372,224,6411,5,0,0:0:0:0:
260,248,6684,1,0,0:0:0:0:
148,272,6957,1,0,0:0:0:0:
160,276,7017,1,0,0:0:0:0:
172,280,7078,1,0,0:0:0:0:
184,284,7138,1,0,0:0:0:0:
160,144,7320,1,0,0:0:0:0:
136,152,7411,1,0,0:0:0:0:
112,160,7502,5,0,0:0:0:0:
148,52,7775,1,0,0:0:0:0:
256,92,8047,1,0,0:0:0:0:
184,136,8229,1,0,0:0:0:0:
304,176,8502,1,0,0:0:0:0:
304,176,8547,1,0,0:0:0:0:
304,176,8593,5,0,0:0:0:0:
280,288,8866,1,0,0:0:0:0:
296,308,8957,2,0,P|315:315|336:315,1,42.5
392,264,9138,2,0,P|388:243|377:224,1,42.5
304,176,9320,5,0,0:0:0:0:
260,180,9411,1,0,0:0:0:0:
216,184,9502,1,0,0:0:0:0:
172,188,9593,1,0,0:0:0:0:
128,192,9684,6,0,L|32:176,1,85,4|0,0:3|3:0,0:0:0:0:
32,40,9957,2,0,L|115:53,1,85,0|0,0:0|3:0,0:0:0:0:
216,72,10229,1,0,0:0:0:0:
320,24,10411,1,0,0:0:0:0:
316,44,10502,1,0,0:0:0:0:
312,64,10593,1,0,0:0:0:0:
308,84,10684,1,0,0:0:0:0:
376,108,10775,6,0,L|480:100,1,85,0|0,0:0|3:0,0:0:0:0:
428,216,11047,2,0,L|512:209,1,85,0|0,0:0|3:0,0:0:0:0:
488,296,11320,2,0,L|528:292,2,28.3333333333333
456,300,11502,2,0,L|372:308,1,85,0|0,0:0|1:0,0:0:0:0:
288,328,11775,1,0,0:0:0:0:
272,344,11866,6,0,L|276:240,1,85,0|0,0:0|3:0,0:0:0:0:
180,196,12138,2,0,L|176:92,1,85,0|0,0:0|3:0,0:0:0:0:
220,16,12411,1,0,0:0:0:0:
48,16,12593,1,0,0:0:0:0:
68,24,12684,1,0,0:0:0:0:
88,32,12775,1,0,0:0:0:0:
108,40,12866,1,0,0:0:0:0:
112,76,12957,6,0,L|28:88,1,85,0|0,0:0|3:0,0:0:0:0:
0,192,13229,2,0,L|84:204,1,85,0|0,0:0|3:0,0:0:0:0:
160,292,13502,1,0,0:0:0:0:
68,340,13684,1,0,0:0:0:0:
64,320,13775,1,0,0:0:0:0:
60,300,13866,1,0,0:0:0:0:
56,280,13957,1,0,0:0:0:0:
33,306,14047,6,0,L|160:292,1,127.5,4|0,0:3|0:0,0:0:0:0:
236,304,14411,1,0,0:0:0:0:
184,192,14593,1,0,0:0:0:0:
292,96,14775,1,0,0:0:0:0:
288,116,14866,1,0,0:0:0:0:
284,136,14957,1,0,0:0:0:0:
280,156,15047,1,0,0:0:0:0:
344,208,15138,6,0,L|464:200,1,85,0|0,0:0|3:0,0:0:0:0:
476,344,15411,2,0,L|391:349,1,85,0|0,0:0|3:0,0:0:0:0:
292,312,15684,2,0,L|296:264,2,28.3333333333333
264,344,15866,2,0,L|256:240,1,85
180,192,16138,1,0,0:0:0:0:
192,212,16229,6,0,L|185:296,1,85,0|0,0:0|3:0,0:0:0:0:
88,268,16502,2,0,L|81:352,1,85,0|0,0:0|3:0,0:0:0:0:
0,216,16775,1,0,0:0:0:0:
52,108,16957,1,0,0:0:0:0:
72,104,17047,1,0,0:0:0:0:
92,100,17138,1,0,0:0:0:0:
112,96,17229,1,0,0:0:0:0:
160,40,17320,5,2,0:3:0:0:
152,56,17411,2,0,L|156:120,1,50.9999984436036
244,60,17593,5,2,0:3:0:0:
236,76,17684,2,0,L|240:140,1,63.7500024318696
316,96,17866,6,0,L|332:276,2,127.500004863739,2|4|2,0:3|0:3|0:3,0:0:0:0:
316,96,18320,1,2,0:3:0:0:
316,96,18411,5,4,3:3:0:0:
396,72,18775,1,0,3:0:0:0:
477,91,19138,1,0,3:0:0:0:
259,156,19502,5,0,3:0:0:0:
316,96,19866,1,0,3:0:0:0:
396,72,20229,5,0,3:0:0:0:
340,176,20411,1,0,3:0:0:0:
224,220,20593,5,0,3:0:0:0:
300,288,20957,2,0,L|372:280,1,50.9999984436036
444,292,21320,2,0,L|516:284,1,50.9999984436036
441,342,21684,6,0,L|444:292,1,50.9999984436036
297,338,22047,2,0,L|300:288,1,50.9999984436036
156,336,22411,2,0,L|158:285,1,50.9999984436036
160,180,22684,1,0,0:0:0:0:
148,158,22775,6,0,L|158:285,1,127.500004863739,4|0,0:3|0:0,0:0:0:0:
72,248,23138,1,0,0:0:0:0:
64,224,23229,1,0,0:0:0:0:
36,128,23502,2,0,L|64:60,1,50.9999984436036
92,4,23866,5,0,0:0:0:0:
176,64,24229,2,0,L|245:54,1,50.9999984436036
316,44,24593,2,0,L|385:34,1,50.9999984436036
464,24,24957,6,0,L|456:96,1,50.9999984436036
376,128,25320,2,0,L|384:200,1,50.9999984436036
500,212,25684,2,0,L|494:262,1,50.9999984436036
404,344,26047,5,0,0:0:0:0:
332,332,26411,1,0,0:0:0:0:
296,192,26593,2,0,L|296:238,1,25.4999992218018
276,276,26775,1,0,0:0:0:0:
250,304,26866,1,0,0:0:0:0:
215,321,26957,1,0,0:0:0:0:
177,327,27047,1,0,0:0:0:0:
139,319,27138,5,4,0:2:0:0:
112,116,27320,1,0,0:0:0:0:
44,184,27502,1,8,0:0:0:0:
132,204,27684,6,0,L|184:196,1,42.5,8|0,0:0|0:0,0:0:0:0:
256,184,27866,1,0,0:0:0:0:
220,44,28047,2,0,L|216:104,1,42.5,8|0,0:0|0:0,0:0:0:0:
256,184,28229,5,8,0:0:0:0:
312,268,28411,2,0,P|312:288|300:360,1,85,0|8,0:0|0:0,0:0:0:0:
352,184,28775,6,0,L|344:136,1,42.5,8|0,0:0|0:0,0:0:0:0:
440,208,28957,2,0,P|456:240|468:312,1,85,8|8,0:0|0:0,0:0:0:0:
312,108,29320,5,2,0:0:0:0:
416,136,29502,2,0,L|464:120,1,42.5,8|0,0:0|0:0,0:0:0:0:
404,56,29684,1,8,0:0:0:0:
208,76,29866,5,8,0:0:0:0:
352,184,30047,1,0,0:0:0:0:
196,264,30229,2,0,L|184:212,1,42.5,8|0,0:0|0:0,0:0:0:0:
168,140,30411,5,8,0:0:0:0:
276,272,30593,1,0,0:0:0:0:
180,344,30775,1,8,0:0:0:0:
64,192,30957,1,8,0:0:0:0:
32,220,31047,1,8,0:0:0:0:
20,260,31138,6,0,B|120:248|120:248|112:284,1,127.500004863739,10|0,0:0|0:0,0:0:0:0:
64,324,31411,1,0,0:0:0:0:
20,260,31502,6,0,L|32:124,1,127.500004863739,4|0,0:3|0:0,0:0:0:0:
126,23,31775,6,0,L|133:125,1,101.999996887207,2|0,0:0|0:0,0:0:0:0:
212,196,32047,6,0,L|216:132,1,42.5,2|0,0:0|0:0,0:0:0:0:
133,125,32229,6,0,L|32:133,1,102,2|0,0:0|0:0,0:0:0:0:
144,240,32593,6,0,P|192:272|292:212,1,170,4|0,0:0|0:0,0:0:0:0:
383,120,32866,6,0,P|444:131|475:184,1,127.500004863739,2|0,0:0|0:0,0:0:0:0:
392,248,33138,6,0,L|396:184,1,50.9999984436036,2|0,0:0|0:0,0:0:0:0:
465,58,33320,6,0,L|476:185,1,127.5,2|0,0:0|0:0,0:0:0:0:
448,308,33684,6,0,P|396:332|308:228,1,212.5,4|0,0:0|0:0,0:0:0:0:
345,47,33957,6,0,B|484:34|484:34|464:58,1,170,2|0,0:0|0:0,0:0:0:0:
285,96,34229,6,0,L|194:97,1,63.7500024318696,2|0,0:0|0:0,0:0:0:0:
307,233,34411,6,0,P|321:205|265:85,1,152.999995330811,2|0,0:0|0:0,0:0:0:0:
76,72,34775,6,0,L|172:60,1,85,2|8,0:0|0:0,0:0:0:0:
188,40,35047,1,2,0:0:0:0:
128,136,35138,2,0,P|120:160|120:192,1,42.5,2|0,0:0|0:0,0:0:0:0:
148,244,35320,2,0,P|164:260|192:268,1,42.5,8|8,0:0|0:0,0:0:0:0:
264,300,35502,1,2,0:0:0:0:
197,285,35593,1,8,0:0:0:0:
129,293,35684,1,8,0:0:0:0:
68,324,35775,1,8,0:0:0:0:
27,378,35866,6,0,P|48:328|40:232,2,127.5,4|0|0,0:0|0:0|0:0,0:0:0:0:
16,168,36593,1,2,0:0:0:0:
112,216,36775,1,2,0:0:0:0:
216,144,36957,6,0,L|312:136,1,85,4|0,0:0|0:0,0:0:0:0:
332,120,37229,1,0,0:0:0:0:
364,104,37320,1,8,0:0:0:0:
480,196,37502,1,0,0:0:0:0:
464,192,37563,1,0,0:0:0:0:
452,188,37623,1,0,0:0:0:0:
436,184,37684,2,0,L|448:292,1,85,2|0,0:0|0:0,0:0:0:0:
344,344,38047,6,0,P|308:336|244:336,1,85,4|0,0:0|0:0,0:0:0:0:
180,348,38320,1,0,0:0:0:0:
180,348,38411,2,0,P|184:316|176:248,1,85,8|0,0:0|0:0,0:0:0:0:
48,104,38775,2,0,L|40:156,1,42.5,2|0,0:0|0:0,0:0:0:0:
104,192,38957,2,0,L|156:180,1,42.5,2|8,0:0|0:0,0:0:0:0:
140,92,39138,5,4,0:0:0:0:
32,216,39320,1,0,0:0:0:0:
32,216,39411,1,0,0:0:0:0:
32,216,39502,1,8,0:0:0:0:
256,156,39684,1,0,0:0:0:0:
288,160,39775,1,0,0:0:0:0:
320,164,39866,2,0,L|344:208,1,42.5,10|0,0:0|0:0,0:0:0:0:
408,176,40047,2,0,L|428:138,1,42.5,8|8,0:0|0:0,0:0:0:0:
484,224,40229,6,0,L|476:324,1,85,4|0,0:0|0:0,0:0:0:0:
396,268,40502,1,0,0:0:0:0:
396,268,40593,2,0,L|388:368,1,85,8|0,0:0|0:0,0:0:0:0:
264,280,40957,1,2,0:0:0:0:
232,268,41047,1,0,0:0:0:0:
200,264,41138,1,2,0:0:0:0:
168,268,41229,1,2,0:0:0:0:
128,324,41320,6,0,L|120:236,1,85,4|0,0:0|0:0,0:0:0:0:
136,208,41593,1,0,0:0:0:0:
160,184,41684,2,0,L|220:184,1,42.5,8|0,0:0|0:0,0:0:0:0:
112,120,41866,1,0,0:0:0:0:
184,52,42047,1,4,0:0:0:0:
216,60,42138,1,0,0:0:0:0:
248,68,42229,1,8,0:0:0:0:
280,76,42320,1,0,0:0:0:0:
328,28,42411,6,0,L|320:128,1,85,2|0,0:0|0:0,0:0:0:0:
340,140,42684,1,0,0:0:0:0:
364,164,42775,2,0,L|432:164,2,42.5,8|0|0,0:0|0:0|0:0,0:0:0:0:
220,228,43138,2,0,P|208:244|204:276,1,42.5,2|0,0:0|0:0,0:0:0:0:
272,276,43320,2,0,P|274:295|294:321,1,42.5
344,276,43502,6,0,L|436:272,1,85,4|0,0:0|0:0,0:0:0:0:
508,292,43775,2,0,L|524:336,2,42.5,0|8|0,0:0|0:0|0:0,0:0:0:0:
444,196,44047,2,0,L|359:199,1,85,0|2,0:0|0:0,0:0:0:0:
344,196,44290,1,0,0:0:0:0:
328,192,44350,1,0,0:0:0:0:
312,188,44411,1,0,0:0:0:0:
296,184,44472,1,0,0:0:0:0:
280,180,44532,1,0,0:0:0:0:
256,192,44593,12,0,45593,0:0:0:0:
188,156,45684,6,2,B|224:152|224:152|252:136|252:136|292:132,1,102,2|2,2:2|2:0,2:0:0:0:
328,72,46047,6,0,B|300:116|300:116|304:168|304:168|272:224,1,152.999995330811,2|0,0:1|0:0,0:0:0:0:
212,236,46411,6,0,B|276:228|276:228|340:248,1,127.500004863739,2|0,0:1|0:0,0:0:0:0:
324,256,46653,1,0,0:0:0:0:
312,264,46714,1,0,0:0:0:0:
300,272,46775,5,0,0:0:0:0:
368,340,46957,1,2,0:1:0:0:
464,296,47138,1,2,0:1:0:0:
480,288,47199,1,0,0:0:0:0:
496,280,47260,1,0,0:0:0:0:
512,272,47320,1,0,0:0:0:0:
444,200,47502,2,0,P|428:168|436:100,1,85,2|0,0:1|0:0,0:0:0:0:
320,32,47866,6,2,B|336:64|336:64|316:156,1,102,0|0,0:0|0:0,0:0:0:0:
294,218,48229,6,0,B|304:176|304:176|260:76,1,152.999995330811,2|0,0:1|0:0,0:0:0:0:
201,137,48593,6,0,B|280:152|280:152|321:128,1,127.500004863739,2|0,0:1|0:0,0:0:0:0:
340,132,48835,1,0,0:0:0:0:
356,136,48896,1,0,0:0:0:0:
372,140,48957,5,2,0:1:0:0:
264,220,49138,1,0,0:0:0:0:
248,86,49320,1,2,0:1:0:0:
350,223,49502,1,0,0:0:0:0:
202,159,49684,1,2,0:1:0:0:
184,156,49744,1,0,0:0:0:0:
168,152,49805,1,0,0:0:0:0:
152,148,49866,2,0,L|96:160,1,42.5,2|0,0:1|0:0,0:0:0:0:
116,228,50047,6,2,P|156:228|164:284,1,102,0|0,0:0|0:0,0:0:0:0:
72,324,50411,6,0,B|80:272|80:272|60:216|60:216|100:224,1,152.999995330811,2|0,0:1|0:0,0:0:0:0:
152,292,50775,6,0,B|112:296|112:296|76:272|76:272|32:276,1,127.500004863739,2|0,0:1|0:0,0:0:0:0:
24,292,51017,1,0,0:0:0:0:
16,308,51078,1,0,0:0:0:0:
8,324,51138,5,0,0:1:0:0:
220,344,51320,1,2,0:1:0:0:
152,292,51502,1,2,0:1:0:0:
148,308,51563,1,0,0:0:0:0:
144,324,51623,1,0,0:0:0:0:
140,340,51684,1,0,0:0:0:0:
300,348,51866,2,0,L|396:336,1,85,2|0,0:1|0:0,0:0:0:0:
256,248,52229,6,2,L|369:233,1,102,0|0,0:1|0:0,0:0:0:0:
432,264,52593,6,0,B|392:232|392:232|404:124,1,152.999995330811,2|0,0:1|0:0,0:0:0:0:
324,44,52957,6,0,L|332:176,1,127.500004863739,2|0,0:1|0:0,0:0:0:0:
316,168,53199,1,0,0:0:0:0:
300,164,53260,1,0,0:0:0:0:
284,160,53320,5,2,0:1:0:0:
484,140,53502,1,0,0:0:0:0:
296,312,53684,1,2,0:1:0:0:
292,296,53744,1,0,0:0:0:0:
288,280,53805,1,0,0:0:0:0:
284,264,53866,1,2,0:1:0:0:
104,192,54047,2,0,L|92:256,1,42.5,2|0,0:0|0:0,0:0:0:0:
164,280,54229,2,0,L|171:238,1,42.5,8|8,0:0|0:0,0:0:0:0:
56,136,54411,6,0,L|64:284,1,127.5,4|2,0:0|0:0,0:0:0:0:
36,344,54775,2,0,L|96:336,1,42.5,8|0,0:0|0:0,0:0:0:0:
164,280,54957,2,0,L|156:376,1,85,2|2,0:0|0:0,0:0:0:0:
348,280,55320,1,8,0:0:0:0:
288,336,55502,5,8,0:0:0:0:
272,332,55563,1,0,0:0:0:0:
256,328,55623,1,8,0:0:0:0:
240,324,55684,1,0,0:0:0:0:
348,280,55866,1,8,0:0:0:0:
364,284,55927,1,0,0:0:0:0:
380,288,55987,1,8,0:0:0:0:
396,292,56048,1,0,0:0:0:0:
480,232,56229,2,0,L|472:184,1,42.5,2|0,0:0|0:0,0:0:0:0:
460,120,56411,1,2,0:0:0:0:
368,56,56593,6,0,P|336:72|248:48,1,127.5,4|8,0:0|0:0,0:0:0:0:
128,56,56957,2,0,L|184:48,1,42.5,2|0,0:0|0:0,0:0:0:0:
116,140,57138,2,0,L|201:127,1,85,8|2,0:0|0:0,0:0:0:0:
311,256,57502,1,8,0:0:0:0:
316,232,57593,1,8,0:0:0:0:
320,208,57684,6,0,L|236:248,1,85,4|8,0:0|0:0,0:0:0:0:
176,248,57926,1,8,0:0:0:0:
176,248,57987,1,8,0:0:0:0:
176,248,58047,2,0,P|172:280|180:352,1,85,2|8,0:0|0:0,0:0:0:0:
64,328,58411,2,0,L|12:316,1,42.5,2|0,0:0|0:0,0:0:0:0:
0,236,58593,2,0,L|41:245,1,42.5,2|8,0:0|0:0,0:0:0:0:
128,192,58775,6,0,L|120:56,1,127.5,4|2,0:0|0:0,0:0:0:0:
48,36,59138,2,0,L|40:100,1,42.5,8|0,0:0|0:0,0:0:0:0:
32,152,59320,1,8,0:0:0:0:
216,64,59502,1,2,0:0:0:0:
228,176,59684,1,2,0:0:0:0:
116,68,59866,5,8,0:0:0:0:
128,60,59926,2,0,L|168:64,2,28.3333333333333
276,112,60229,1,8,0:0:0:0:
288,120,60289,2,0,L|328:116,2,28.3333333333333
436,48,60593,2,0,L|500:56,2,42.5,8|2|0,0:0|0:0|0:0,0:0:0:0:
384,144,60957,6,0,P|408:140|488:184,1,85,4|8,0:0|0:0,0:0:0:0:
464,236,61229,1,0,0:0:0:0:
448,252,61320,2,0,P|444:276|464:352,1,85,2|2,0:0|0:0,0:0:0:0:
240,248,61684,1,2,0:0:0:0:
364,216,61866,1,8,0:0:0:0:
336,236,61957,1,8,0:0:0:0:
308,256,62047,6,0,L|312:136,1,85,4|8,0:0|0:0,0:0:0:0:
228,136,62290,1,0,0:0:0:0:
228,136,62350,1,0,0:0:0:0:
228,136,62411,2,0,L|224:16,1,85,0|8,0:0|0:0,0:0:0:0:
84,80,62775,1,2,0:0:0:0:
72,112,62866,1,8,0:0:0:0:
60,144,62957,1,2,0:0:0:0:
48,176,63047,1,8,0:0:0:0:
132,186,63138,5,4,0:0:0:0:
132,186,63502,2,0,L|48:176,1,85,2|0,0:0|0:0,0:0:0:0:
204,320,63866,2,0,L|58:302,1,127.5,8|0,0:0|0:0,0:0:0:0:
20,340,64229,2,0,P|36:280|28:220,1,85,2|0,0:0|0:0,0:0:0:0:
216,128,64593,1,2,0:0:0:0:
284,352,64775,1,2,0:0:0:0:
312,236,64957,1,8,0:0:0:0:
200,268,65138,1,8,0:0:0:0:
440,248,65320,5,4,0:0:0:0:
440,248,65684,2,0,L|447:163,1,85,2|0,0:0|0:0,0:0:0:0:
304,40,66047,2,0,L|290:183,1,127.5,8|0,0:0|0:0,0:0:0:0:
364,256,66411,2,0,L|252:268,1,85,2|0,0:0|0:0,0:0:0:0:
80,280,66775,1,2,0:0:0:0:
216,192,66957,1,8,0:0:0:0:
176,376,67138,2,0,B|156:308|156:308|180:248,1,127.5,8|0,0:0|0:0,0:0:0:0:
256,128,67502,5,4,0:0:0:0:
256,128,67866,2,0,L|168:140,1,85,2|0,0:0|0:0,0:0:0:0:
48,72,68229,2,0,L|174:54,1,127.5,8|0,0:0|0:0,0:0:0:0:
171,139,68593,2,0,L|256:128,1,85,2|0,0:0|0:0,0:0:0:0:
488,100,68957,1,2,0:0:0:0:
312,68,69138,1,2,0:0:0:0:
448,252,69320,2,0,L|472:160,1,85,8|0,0:0|0:0,0:0:0:0:
272,236,69684,5,2,0:0:0:0:
376,272,69866,1,2,0:0:0:0:
355,163,70047,1,8,0:0:0:0:
355,163,70138,1,8,0:0:0:0:
355,163,70229,1,8,0:0:0:0:
189,309,70411,1,8,0:0:0:0:
272,236,70593,1,2,0:0:0:0:
240,240,70684,1,8,0:0:0:0:
208,244,70775,6,0,L|96:256,1,85,2|8,0:0|0:0,0:0:0:0:
56,224,71017,1,0,0:0:0:0:
56,224,71078,1,8,0:0:0:0:
56,224,71138,2,0,L|48:320,1,85
156,76,71502,1,2,0:0:0:0:
164,100,71593,1,8,0:0:0:0:
172,124,71684,1,8,0:0:0:0:
180,148,71775,1,8,0:0:0:0:
188,172,71866,6,0,L|336:176,1,127.5,4|8,0:0|0:0,0:0:0:0:
448,204,72229,2,0,L|405:202,1,42.5,2|0,0:0|0:0,0:0:0:0:
309,260,72411,2,0,L|315:175,1,85,8|2,0:0|0:0,0:0:0:0:
424,44,72775,1,8,0:0:0:0:
436,68,72866,2,0,L|448:92,1,21.25,8|0,0:0|1:0,0:0:0:0:
452,100,72957,6,0,L|316:92,1,127.5,4|2,0:0|0:0,0:0:0:0:
120,112,73320,1,8,0:0:0:0:
256,52,73502,1,8,0:0:0:0:
64,180,73684,1,2,0:0:0:0:
56,195,73744,1,0,0:0:0:0:
49,210,73805,1,8,0:0:0:0:
43,226,73866,1,0,0:0:0:0:
220,152,74047,5,4,0:0:0:0:
252,300,74229,1,8,0:0:0:0:
324,228,74411,1,2,0:0:0:0:
324,228,74502,1,8,0:0:0:0:
324,228,74593,1,8,0:0:0:0:
176,256,74775,2,0,L|168:312,1,42.5,2|0,0:0|0:0,0:0:0:0:
245,342,74957,2,0,L|252:300,1,42.5,8|8,0:0|0:0,0:0:0:0:
324,228,75138,6,0,B|444:216|444:216|400:256,1,170,4|2,0:0|0:0,0:0:0:0:
174,255,75684,1,8,0:0:0:0:
176,240,75744,1,8,0:0:0:0:
180,224,75805,1,2,0:0:0:0:
184,208,75866,1,2,0:0:0:0:
76,120,76047,1,2,0:0:0:0:
256,32,76229,6,0,L|264:176,1,127.5,4|0,0:0|0:0,0:0:0:0:
324,228,76593,1,2,0:0:0:0:
348,216,76684,1,8,0:0:0:0:
372,204,76775,2,0,L|360:132,1,42.5,8|0,0:0|0:0,0:0:0:0:
392,68,76957,1,8,0:0:0:0:
416,72,77047,1,0,0:0:0:0:
440,76,77138,1,8,0:0:0:0:
464,80,77229,1,0,0:0:0:0:
488,84,77320,6,0,L|476:224,1,127.5,4|0,0:0|0:0,0:0:0:0:
464,320,77684,2,0,L|472:372,2,42.5,8|8|8,0:0|0:0|0:0,0:0:0:0:
492,228,78047,1,0,0:0:0:0:
376,328,78229,1,0,0:0:0:0:
396,136,78411,1,4,0:0:0:0:
192,336,79320,5,0,0:0:0:0:
192,336,79411,1,0,0:0:0:0:
192,336,79502,6,0,P|144:328|76:340,1,102
86,240,79866,6,0,P|155:270|192:336,1,152.999995330811
264,208,80229,6,0,P|170:197|86:240,1,191.250007295609
316,280,80593,6,0,P|344:248|340:172,1,101.999996887207,4|0,0:0|0:0,0:0:0:0:
200,44,80957,1,8,0:0:0:0:
196,72,81047,1,0,0:0:0:0:
192,104,81138,2,0,L|256:96,1,50.9999984436036
432,68,81320,1,8,0:0:0:0:
432,68,81411,1,0,0:0:0:0:
432,68,81502,2,0,L|436:124,1,50.9999984436036
418,280,81684,6,0,L|316:280,1,101.999996887207,4|0,0:0|0:0,0:0:0:0:
108,216,82047,1,8,0:0:0:0:
108,216,82138,1,0,0:0:0:0:
108,216,82229,2,0,L|100:304,1,50.9999984436036
176,328,82411,2,0,L|180:277,1,50.9999984436036,8|0,0:0|0:0,0:0:0:0:
28,204,82593,2,0,L|32:153,1,50.9999984436036,8|0,0:0|0:0,0:0:0:0:
112,84,82775,6,0,P|160:72|228:88,1,101.999996887207,4|2,0:0|0:0,0:0:0:0:
247,145,83017,1,0,0:0:0:0:
264,156,83078,1,0,0:0:0:0:
281,166,83138,2,0,P|330:174|380:162,1,101.999996887207,8|8,0:0|0:0,0:0:0:0:
498,262,83502,1,2,0:0:0:0:
342,246,83684,1,8,0:0:0:0:
411,103,83866,6,0,L|513:96,1,101.999996887207,4|0,0:0|0:0,0:0:0:0:
456,68,84138,1,2,0:0:0:0:
427,57,84229,1,8,0:0:0:0:
398,46,84320,1,8,0:0:0:0:
369,35,84411,1,2,0:0:0:0:
256,116,84593,2,0,P|248:144|248:224,1,101.999996887207,8|0,0:0|0:0,0:0:0:0:
196,340,84957,6,0,L|84:332,1,101.999996887207,4|0,0:0|0:0,0:0:0:0:
40,192,85320,1,8,0:0:0:0:
64,188,85411,1,0,0:0:0:0:
88,184,85502,2,0,L|168:168,1,50.9999984436036
256,232,85684,2,0,L|205:242,1,50.9999984436036,8|0,0:0|0:0,0:0:0:0:
124,300,85866,1,8,0:0:0:0:
384,320,86047,6,0,L|492:312,1,101.999996887207,4|0,0:0|0:0,0:0:0:0:
508,320,86320,1,0,0:0:0:0:
448,248,86411,2,0,P|440:228|440:196,1,50.9999984436036,10|0,0:0|0:0,0:0:0:0:
460,128,86593,2,0,P|468:108|468:76,1,50.9999984436036
396,28,86775,1,8,0:0:0:0:
360,32,86866,1,0,0:0:0:0:
324,36,86957,2,0,L|232:44,1,50.9999984436036
212,80,87138,5,4,0:0:0:0:
256,232,87320,1,0,0:0:0:0:
80,148,87502,1,8,0:0:0:0:
76,184,87593,1,0,0:0:0:0:
72,220,87684,2,0,L|64:292,1,50.9999984436036
164,232,87866,2,0,L|158:181,1,50.9999984436036,8|0,0:0|0:0,0:0:0:0:
8,136,88047,2,0,L|13:85,1,50.9999984436036
144,24,88229,5,4,2:3:0:0:
180,28,88320,1,0,2:3:0:0:
216,32,88411,1,0,2:3:0:0:
252,36,88502,1,0,2:3:0:0:
292,72,88593,5,8,2:3:0:0:
272,112,88684,1,0,2:3:0:0:
288,156,88775,1,0,2:3:0:0:
304,200,88866,1,0,2:3:0:0:
420,144,88957,5,8,2:3:0:0:
376,348,89138,1,0,2:3:0:0:
376,348,89229,1,0,2:3:0:0:
376,348,89320,6,0,L|392:216,1,101.999996887207,4|0,0:0|0:0,0:0:0:0:
208,336,89684,2,0,L|152:344,1,50.9999984436036,8|0,0:0|0:0,0:0:0:0:
48,276,89866,2,0,L|98:268,1,50.9999984436036
204,208,90047,2,0,L|212:144,1,50.9999984436036,8|0,0:0|0:0,0:0:0:0:
92,80,90229,2,0,L|85:130,1,50.9999984436036,8|0,0:0|0:0,0:0:0:0:
204,208,90411,5,4,0:0:0:0:
420,144,90593,1,0,0:0:0:0:
308,312,90775,1,8,0:0:0:0:
300,276,90866,1,0,0:0:0:0:
292,240,90957,2,0,L|304:180,1,50.9999984436036
336,60,91138,2,0,L|428:48,1,50.9999984436036,8|0,0:0|0:0,0:0:0:0:
212,108,91320,2,0,L|161:114,1,50.9999984436036,8|0,0:0|0:0,0:0:0:0:
24,32,91502,5,4,0:0:0:0:
84,152,91684,1,8,0:0:0:0:
80,168,91744,1,8,0:0:0:0:
76,184,91805,1,8,0:0:0:0:
72,200,91866,2,0,L|136:204,1,50.9999984436036,8|0,0:0|0:0,0:0:0:0:
96,292,92047,2,0,L|45:295,1,50.9999984436036
180,336,92229,1,8,0:0:0:0:
180,336,92320,1,0,0:0:0:0:
180,336,92411,1,8,0:0:0:0:
432,248,92593,6,0,B|448:296|448:296|428:360,1,101.999996887207,4|0,0:0|0:0,0:0:0:0:
256,296,92957,1,8,0:0:0:0:
252,272,93047,1,0,0:0:0:0:
248,248,93138,2,0,L|256:176,1,50.9999984436036
352,104,93320,1,8,0:0:0:0:
356,128,93410,1,0,0:0:0:0:
360,152,93501,2,0,L|352:224,1,50.9999984436036
160,240,93684,6,0,L|52:232,1,101.999996887207,4|0,0:0|0:0,0:0:0:0:
212,136,94047,1,8,0:0:0:0:
236,128,94138,1,0,0:0:0:0:
260,120,94229,2,0,L|268:48,1,50.9999984436036
148,44,94411,1,8,0:0:0:0:
124,40,94502,1,0,0:0:0:0:
100,36,94593,2,0,L|112:100,1,50.9999984436036
132,160,94775,5,4,0:0:0:0:
20,304,94957,1,0,0:0:0:0:
20,304,95047,1,0,0:0:0:0:
20,304,95138,1,8,0:0:0:0:
216,272,95320,2,0,L|280:260,1,50.9999984436036
380,320,95502,1,8,0:0:0:0:
380,320,95593,1,0,0:0:0:0:
380,320,95684,2,0,L|372:388,1,50.9999984436036
272,328,95866,6,0,L|284:208,1,101.999996887207,4|0,0:0|0:0,0:0:0:0:
408,112,96229,1,8,0:0:0:0:
408,112,96320,1,0,0:0:0:0:
408,112,96411,2,0,L|488:104,1,50.9999984436036
288,48,96593,1,8,0:0:0:0:
288,48,96684,1,0,0:0:0:0:
288,48,96775,2,0,L|208:56,1,50.9999984436036
120,100,96957,5,4,0:0:0:0:
296,148,97138,1,8,0:1:0:0:
296,148,97229,1,8,0:1:0:0:
172,260,97411,1,8,0:1:0:0:
172,260,97502,1,8,0:1:0:0:
216,60,97684,1,8,0:1:0:0:
240,56,97775,1,8,0:1:0:0:
264,52,97866,1,8,0:1:0:0:
288,48,97957,1,8,0:1:0:0:
224,140,98047,5,4,0:0:0:0:
400,188,98229,1,2,0:0:0:0:
388,72,98411,1,8,0:0:0:0:
248,208,98593,5,8,0:0:0:0:
380,152,98775,1,2,0:0:0:0:
384,112,98866,1,8,0:0:0:0:
388,72,98957,1,8,0:0:0:0:
280,276,99138,5,4,0:0:0:0:
416,212,99320,2,0,L|448:268,1,50.9999984436036,8|8,0:0|0:0,0:0:0:0:
392,308,99502,1,2,0:0:0:0:
488,188,99684,1,2,0:0:0:0:
320,352,99866,1,8,0:0:0:0:
280,360,99957,1,8,0:0:0:0:
240,348,100047,1,2,0:0:0:0:
204,328,100138,1,2,0:0:0:0:
132,352,100229,5,4,0:0:0:0:
156,192,100411,1,2,0:0:0:0:
64,296,100593,1,8,0:0:0:0:
92,284,100684,1,8,0:0:0:0:
120,276,100775,1,2,0:0:0:0:
4,212,100957,1,2,0:0:0:0:
32,200,101048,1,8,0:0:0:0:
60,192,101139,1,8,0:0:0:0:
64,296,101320,5,4,0:0:0:0:
156,192,101502,1,2,0:0:0:0:
240,284,101684,2,0,L|251:235,1,50.9999984436036,8|2,0:0|0:0,0:0:0:0:
308,172,101866,1,0,0:0:0:0:
240,284,102047,1,2,0:0:0:0:
384,176,102229,2,0,L|440:220,1,50.9999984436036,8|8,0:0|0:0,0:0:0:0:
488,248,102411,6,0,B|384:236|384:236|320:260,2,152.999995330811,4|2|2,0:0|0:0|0:0,0:0:0:0:
388,312,103138,1,8,0:0:0:0:
360,324,103229,1,8,0:0:0:0:
332,336,103320,2,0,L|272:328,1,50.9999984436036,2|2,0:0|0:0,0:0:0:0:
164,244,103502,6,0,L|315:264,2,152.999995330811,4|2|2,0:0|0:0|0:0,0:0:0:0:
52,264,104229,1,8,0:0:0:0:
28,272,104320,1,8,0:0:0:0:
76,200,104411,1,2,0:0:0:0:
100,192,104502,1,2,0:0:0:0:
12,160,104593,5,4,0:0:0:0:
108,44,104866,1,2,0:0:0:0:
224,192,105138,1,2,0:0:0:0:
160,140,105320,6,0,P|220:112|304:204,1,203.999993774414,8|4,0:0|0:0,0:0:0:0:
284,284,105775,1,0,0:0:0:0:
256,296,105866,1,0,0:0:0:0:
228,308,105957,1,0,0:0:0:0:
200,320,106047,1,0,0:0:0:0:
376,316,106229,1,0,0:0:0:0:
132,252,106411,1,0,0:0:0:0:
164,260,106502,1,0,0:0:0:0:
204,268,106593,1,0,0:0:0:0:
244,276,106684,1,0,0:0:0:0:
200,320,106775,6,0,L|104:360,1,85
132,252,107047,2,0,L|36:292,1,85
64,180,107320,1,0,0:0:0:0:
296,40,107502,1,0,0:0:0:0:
296,40,107593,1,0,0:0:0:0:
296,40,107684,1,0,0:0:0:0:
204,48,107866,6,0,L|176:152,1,85
296,40,108138,2,0,L|268:144,1,85
384,28,108411,1,0,0:0:0:0:
476,152,108593,1,0,0:0:0:0:
476,152,108775,1,0,0:0:0:0:
296,280,108957,6,0,L|304:380,1,85
384,256,109229,2,0,L|392:356,1,85
468,228,109502,1,0,0:0:0:0:
304,136,109684,1,0,0:0:0:0:
304,136,109775,1,0,0:0:0:0:
304,136,109866,1,0,0:0:0:0:
304,136,109957,1,0,0:0:0:0:
216,192,110047,6,0,L|100:176,1,85
136,272,110320,2,0,L|20:256,1,85
48,356,110593,1,0,0:0:0:0:
256,268,110775,1,0,0:0:0:0:
188,56,110957,1,0,0:0:0:0:
188,56,111047,1,0,0:0:0:0:
188,56,111138,6,0,L|312:44,1,85
132,160,111411,2,0,L|256:148,1,85
72,248,111684,1,0,0:0:0:0:
360,280,111866,1,0,0:0:0:0:
360,280,112047,1,0,0:0:0:0:
304,140,112229,6,0,L|320:48,1,85
408,124,112502,2,0,L|424:32,1,85
508,108,112775,1,0,0:0:0:0:
508,108,112835,1,0,0:0:0:0:
508,108,112896,1,0,0:0:0:0:
508,108,112957,1,0,0:0:0:0:
476,232,113138,1,0,0:0:0:0:
360,280,113320,6,0,L|352:184,1,85
248,268,113593,2,0,L|240:172,1,85
140,256,113866,1,0,0:0:0:0:
120,272,113957,1,0,0:0:0:0:
100,288,114047,1,0,0:0:0:0:
44,152,114229,1,0,0:0:0:0:
44,152,114320,1,0,0:0:0:0:
92,88,114411,6,0,L|208:72,1,85
164,178,114684,2,0,L|280:162,1,85
248,268,114957,1,0,0:0:0:0:
306,117,115138,1,0,0:0:0:0:
320,118,115199,1,0,0:0:0:0:
334,119,115260,1,0,0:0:0:0:
347,121,115320,1,0,0:0:0:0:
361,123,115381,1,0,0:0:0:0:
374,125,115441,1,0,0:0:0:0:
388,127,115502,5,0,0:0:0:0:
408,212,115775,1,0,0:0:0:0:
428,300,116047,1,0,0:0:0:0:
328,192,116229,1,0,0:0:0:0:
440,64,116411,1,0,0:0:0:0:
440,64,116472,1,0,0:0:0:0:
440,64,116532,1,0,0:0:0:0:
388,128,116593,5,0,0:0:0:0:
408,212,116866,1,0,0:0:0:0:
428,300,117138,1,0,0:0:0:0:
436,304,117199,1,0,0:0:0:0:
444,308,117260,1,0,0:0:0:0:
452,312,117320,1,0,0:0:0:0:
