osu file format v13

[General]
AudioFilename: Scars of FAUNA.mp3
AudioLeadIn: 0
PreviewTime: 80605
Countdown: 0
SampleSet: Normal
StackLeniency: 0.7
Mode: 1
LetterboxInBreaks: 0
WidescreenStoryboard: 0

[Editor]
DistanceSpacing: 1.7
BeatDivisor: 4
GridSize: 32
TimelineZoom: 2.1

[Metadata]
Title:Scars of FAUNA
TitleUnicode:Scars of FAUNA
Artist:Nekomata Master
ArtistUnicode:猫叉Master
Creator:Kunieda
Version:Muzukashii
Source:jubeat saucer fulfill
Tags:konami groovecoaster maimai maimaiORANGE 太鼓の達人 キミドリ taikonotatsujin kimidori naoyukisato CoroQuetz
BeatmapID:568487
BeatmapSetID:246863

[Difficulty]
HPDrainRate:5
CircleSize:4
OverallDifficulty:5
ApproachRate:5
SliderMultiplier:1.4
SliderTickRate:1

[Events]
//Background and Video events
0,0,"lkHa1aD.jpg",0,0
//Break Periods
//Storyboard Layer 0 (Background)
//Storyboard Layer 1 (Fail)
//Storyboard Layer 2 (Pass)
//Storyboard Layer 3 (Foreground)
//Storyboard Sound Samples

[TimingPoints]
969,363.636363636364,6,1,0,80,1,0
80605,-100,6,1,0,80,0,1
106787,-100,6,1,0,80,0,0

[HitObjects]
256,192,969,5,0,0:0:0:0:
256,192,1241,1,0,0:0:0:0:
256,192,1514,1,8,0:0:0:0:
256,192,1696,1,0,0:0:0:0:
256,192,2059,1,0,0:0:0:0:
256,192,2332,1,0,0:0:0:0:
256,192,2605,1,8,0:0:0:0:
256,192,2787,1,0,0:0:0:0:
256,192,3150,1,8,0:0:0:0:
256,192,3423,1,8,0:0:0:0:
256,192,3696,1,0,0:0:0:0:
256,192,3878,1,8,0:0:0:0:
256,192,4241,1,0,0:0:0:0:
256,192,4514,1,0,0:0:0:0:
256,192,4787,1,8,0:0:0:0:
256,192,4969,1,0,0:0:0:0:
256,192,5333,1,4,0:0:0:0:
256,192,5606,1,0,0:0:0:0:
256,192,5878,1,8,0:0:0:0:
256,192,6060,1,0,0:0:0:0:
256,192,6424,1,0,0:0:0:0:
256,192,6697,1,0,0:0:0:0:
256,192,6970,1,8,0:0:0:0:
256,192,7151,1,8,0:0:0:0:
256,192,7333,1,0,0:0:0:0:
256,192,7515,1,0,0:0:0:0:
256,192,7788,1,0,0:0:0:0:
256,192,8060,1,8,0:0:0:0:
256,192,8242,1,0,0:0:0:0:
256,192,8605,1,0,0:0:0:0:
256,192,8877,1,0,0:0:0:0:
256,192,9150,1,8,0:0:0:0:
256,192,9332,1,0,0:0:0:0:
256,192,9696,1,4,0:0:0:0:
256,192,9968,1,0,0:0:0:0:
256,192,10241,1,0,0:0:0:0:
256,192,10423,1,8,0:0:0:0:
256,192,10787,1,8,0:0:0:0:
256,192,11060,1,8,0:0:0:0:
256,192,11333,1,8,0:0:0:0:
256,192,11515,1,0,0:0:0:0:
256,192,11878,1,8,0:0:0:0:
256,192,12151,1,8,0:0:0:0:
256,192,12424,1,8,0:0:0:0:
256,192,12605,1,0,0:0:0:0:
256,192,12968,1,0,0:0:0:0:
256,192,13241,1,0,0:0:0:0:
256,192,13514,1,0,0:0:0:0:
256,192,13695,1,8,0:0:0:0:
256,192,13877,1,0,0:0:0:0:
256,192,14059,1,12,0:0:0:0:
256,192,14333,1,8,0:0:0:0:
256,192,14605,1,0,0:0:0:0:
256,192,14787,1,8,0:0:0:0:
256,192,15149,1,0,0:0:0:0:
256,192,15422,1,0,0:0:0:0:
256,192,15695,1,0,0:0:0:0:
256,192,15877,1,8,0:0:0:0:
256,192,16241,1,12,0:0:0:0:
256,192,16514,1,8,0:0:0:0:
256,192,16787,1,8,0:0:0:0:
256,192,16969,1,0,0:0:0:0:
256,192,17332,1,0,0:0:0:0:
256,192,17514,1,8,0:0:0:0:
256,192,17605,1,8,0:0:0:0:
256,192,17696,1,8,0:0:0:0:
256,192,17878,1,8,0:0:0:0:
256,192,18059,1,0,0:0:0:0:
256,192,18423,1,12,0:0:0:0:
256,192,19514,1,8,0:0:0:0:
256,192,19878,1,0,0:0:0:0:
256,192,20241,1,8,0:0:0:0:
256,192,20423,1,0,0:0:0:0:
256,192,20605,1,0,0:0:0:0:
256,192,21696,1,0,0:0:0:0:
256,192,22059,1,8,0:0:0:0:
256,192,22423,1,8,0:0:0:0:
256,192,22787,1,4,0:0:0:0:
256,192,23514,1,8,0:0:0:0:
256,192,23696,1,8,0:0:0:0:
256,192,23878,1,0,0:0:0:0:
256,192,24423,1,8,0:0:0:0:
256,192,24969,1,0,0:0:0:0:
256,192,25696,1,0,0:0:0:0:
256,192,26059,1,0,0:0:0:0:
256,192,26423,1,8,0:0:0:0:
256,192,26787,1,8,0:0:0:0:
256,192,27150,1,4,0:0:0:0:
256,192,27878,1,0,0:0:0:0:
256,192,28241,1,8,0:0:0:0:
256,192,28969,1,8,0:0:0:0:
256,192,29150,1,8,0:0:0:0:
256,192,29332,1,4,0:0:0:0:
256,192,30423,1,8,0:0:0:0:
256,192,30787,1,0,0:0:0:0:
256,192,30968,1,0,0:0:0:0:
256,192,31059,1,0,0:0:0:0:
256,192,31150,1,8,0:0:0:0:
256,192,31514,1,0,0:0:0:0:
256,192,31787,1,0,0:0:0:0:
256,192,32059,1,0,0:0:0:0:
256,192,32241,1,8,0:0:0:0:
256,192,32605,1,0,0:0:0:0:
256,192,32878,1,0,0:0:0:0:
256,192,33150,1,0,0:0:0:0:
256,192,33332,1,8,0:0:0:0:
256,192,33696,1,0,0:0:0:0:
256,192,33969,1,0,0:0:0:0:
256,192,34241,1,0,0:0:0:0:
256,192,34423,1,8,0:0:0:0:
256,192,34787,1,8,0:0:0:0:
256,192,35150,1,8,0:0:0:0:
256,192,35514,1,8,0:0:0:0:
256,192,35878,1,4,0:0:0:0:
256,192,36150,1,0,0:0:0:0:
256,192,36423,1,8,0:0:0:0:
256,192,36605,1,0,0:0:0:0:
256,192,36968,1,0,0:0:0:0:
256,192,37241,1,0,0:0:0:0:
256,192,37514,1,8,0:0:0:0:
256,192,37696,1,0,0:0:0:0:
256,192,38059,1,8,0:0:0:0:
256,192,38332,1,8,0:0:0:0:
256,192,38605,1,0,0:0:0:0:
256,192,38787,1,8,0:0:0:0:
256,192,39150,1,0,0:0:0:0:
256,192,39423,1,0,0:0:0:0:
256,192,39696,1,8,0:0:0:0:
256,192,39878,1,0,0:0:0:0:
256,192,40241,1,4,0:0:0:0:
256,192,40514,1,8,0:0:0:0:
256,192,40787,1,0,0:0:0:0:
256,192,40968,1,8,0:0:0:0:
256,192,41332,1,0,0:0:0:0:
256,192,41605,1,0,0:0:0:0:
256,192,41878,1,8,0:0:0:0:
256,192,42059,1,8,0:0:0:0:
256,192,42241,1,0,0:0:0:0:
256,192,42423,1,8,0:0:0:0:
256,192,42696,1,8,0:0:0:0:
256,192,42968,1,0,0:0:0:0:
256,192,43150,1,8,0:0:0:0:
256,192,43513,1,0,0:0:0:0:
256,192,43786,1,8,0:0:0:0:
256,192,44059,1,8,0:0:0:0:
256,192,44241,1,0,0:0:0:0:
256,192,45696,1,4,0:0:0:0:
256,192,46059,1,8,0:0:0:0:
256,192,46423,1,8,0:0:0:0:
256,192,46787,1,8,0:0:0:0:
256,192,46969,1,8,0:0:0:0:
256,192,47150,1,0,0:0:0:0:
256,192,47332,1,8,0:0:0:0:
256,192,47514,1,0,0:0:0:0:
256,192,47696,1,0,0:0:0:0:
256,192,47878,1,0,0:0:0:0:
256,192,48241,1,8,0:0:0:0:
256,192,48605,1,8,0:0:0:0:
256,192,48969,1,0,0:0:0:0:
256,192,49150,1,8,0:0:0:0:
256,192,49332,1,8,0:0:0:0:
256,192,49513,1,8,0:0:0:0:
256,192,49695,1,0,0:0:0:0:
256,192,49878,1,8,0:0:0:0:
256,192,50059,1,4,0:0:0:0:
256,192,50423,1,8,0:0:0:0:
256,192,50787,1,8,0:0:0:0:
256,192,51150,1,0,0:0:0:0:
256,192,51332,1,8,0:0:0:0:
256,192,51514,1,0,0:0:0:0:
256,192,51696,1,8,0:0:0:0:
256,192,51878,1,0,0:0:0:0:
256,192,52059,1,8,0:0:0:0:
256,192,52241,1,0,0:0:0:0:
256,192,52605,1,8,0:0:0:0:
256,192,52969,1,8,0:0:0:0:
256,192,53150,1,8,0:0:0:0:
256,192,53241,1,8,0:0:0:0:
256,192,53332,1,8,0:0:0:0:
256,192,53514,1,8,0:0:0:0:
256,192,53696,1,0,0:0:0:0:
256,192,53878,1,0,0:0:0:0:
256,192,54059,1,8,0:0:0:0:
256,192,54241,1,0,0:0:0:0:
256,192,54423,1,8,0:0:0:0:
256,192,54787,1,0,0:0:0:0:
256,192,55150,1,0,0:0:0:0:
256,192,55514,1,8,0:0:0:0:
256,192,55878,1,8,0:0:0:0:
256,192,56241,1,0,0:0:0:0:
256,192,56605,1,0,0:0:0:0:
256,192,56969,1,0,0:0:0:0:
256,192,57332,1,8,0:0:0:0:
256,192,57696,1,8,0:0:0:0:
256,192,57878,1,0,0:0:0:0:
256,192,58059,1,8,0:0:0:0:
256,192,58241,1,0,0:0:0:0:
256,192,58423,1,8,0:0:0:0:
256,192,58605,1,0,0:0:0:0:
256,192,58787,1,12,0:0:0:0:
256,192,59150,1,0,0:0:0:0:
256,192,59514,1,8,0:0:0:0:
256,192,59878,1,8,0:0:0:0:
256,192,60059,1,0,0:0:0:0:
256,192,60241,1,8,0:0:0:0:
256,192,60605,1,8,0:0:0:0:
256,192,60969,1,0,0:0:0:0:
256,192,61332,1,0,0:0:0:0:
256,192,61696,1,8,0:0:0:0:
256,192,61878,1,8,0:0:0:0:
256,192,62059,1,0,0:0:0:0:
256,192,62241,1,0,0:0:0:0:
256,192,62423,1,8,0:0:0:0:
256,192,62605,1,8,0:0:0:0:
256,192,62787,1,0,0:0:0:0:
256,192,62878,1,0,0:0:0:0:
256,192,62969,1,0,0:0:0:0:
256,192,63150,1,4,0:0:0:0:
256,192,63514,1,0,0:0:0:0:
256,192,63878,1,8,0:0:0:0:
256,192,64241,1,0,0:0:0:0:
256,192,64605,1,8,0:0:0:0:
256,192,64787,1,8,0:0:0:0:
256,192,64969,1,0,0:0:0:0:
256,192,65150,1,8,0:0:0:0:
256,192,65332,1,0,0:0:0:0:
256,192,65696,1,0,0:0:0:0:
256,192,66059,1,8,0:0:0:0:
256,192,66423,1,0,0:0:0:0:
256,192,66787,1,8,0:0:0:0:
256,192,66969,1,8,0:0:0:0:
256,192,67150,1,8,0:0:0:0:
256,192,67514,1,4,0:0:0:0:
256,192,67878,1,0,0:0:0:0:
256,192,68241,1,8,0:0:0:0:
256,192,68605,1,0,0:0:0:0:
256,192,68969,1,8,0:0:0:0:
256,192,69150,1,8,0:0:0:0:
256,192,69332,1,0,0:0:0:0:
256,192,69514,1,8,0:0:0:0:
256,192,69696,1,0,0:0:0:0:
256,192,70059,1,0,0:0:0:0:
256,192,70423,1,0,0:0:0:0:
256,192,70605,1,8,0:0:0:0:
256,192,70696,1,8,0:0:0:0:
256,192,70787,1,8,0:0:0:0:
256,192,70969,1,0,0:0:0:0:
256,192,71150,1,8,0:0:0:0:
256,192,71514,1,8,0:0:0:0:
256,192,71696,1,0,0:0:0:0:
256,192,71878,1,4,0:0:0:0:
256,192,72241,1,0,0:0:0:0:
256,192,72605,1,8,0:0:0:0:
256,192,72969,1,8,0:0:0:0:
256,192,73332,1,0,0:0:0:0:
256,192,73514,1,0,0:0:0:0:
256,192,73696,1,8,0:0:0:0:
256,192,73878,1,0,0:0:0:0:
256,192,74059,1,0,0:0:0:0:
256,192,74423,1,0,0:0:0:0:
256,192,74787,1,8,0:0:0:0:
256,192,75150,1,8,0:0:0:0:
256,192,75514,1,0,0:0:0:0:
256,192,75696,1,0,0:0:0:0:
256,192,75878,1,8,0:0:0:0:
256,192,76241,1,4,0:0:0:0:
256,192,76605,1,0,0:0:0:0:
256,192,76969,1,8,0:0:0:0:
256,192,77332,1,8,0:0:0:0:
256,192,77696,1,8,0:0:0:0:
256,192,77878,1,0,0:0:0:0:
256,192,78059,1,0,0:0:0:0:
256,192,78241,1,0,0:0:0:0:
256,192,78423,1,4,0:0:0:0:
256,192,79514,1,0,0:0:0:0:
256,192,79878,1,8,0:0:0:0:
256,192,80241,1,0,0:0:0:0:
256,192,80605,1,12,0:0:0:0:
256,192,80787,1,0,0:0:0:0:
256,192,80969,1,8,0:0:0:0:
256,192,81150,1,8,0:0:0:0:
256,192,81332,1,0,0:0:0:0:
256,192,81696,1,8,0:0:0:0:
256,192,81878,1,0,0:0:0:0:
256,192,82059,1,8,0:0:0:0:
256,192,82241,1,0,0:0:0:0:
256,192,82423,1,8,0:0:0:0:
256,192,82787,1,0,0:0:0:0:
256,192,82969,1,8,0:0:0:0:
256,192,83059,1,8,0:0:0:0:
256,192,83150,1,8,0:0:0:0:
256,192,83332,1,0,0:0:0:0:
256,192,83514,1,0,0:0:0:0:
256,192,83605,1,0,0:0:0:0:
256,192,83696,1,0,0:0:0:0:
256,192,83878,1,8,0:0:0:0:
256,192,84423,1,0,0:0:0:0:
256,192,84605,1,0,0:0:0:0:
256,192,84787,1,8,0:0:0:0:
256,192,84969,1,8,0:0:0:0:
256,192,85332,1,8,0:0:0:0:
256,192,85514,1,8,0:0:0:0:
256,192,85696,1,0,0:0:0:0:
256,192,85787,1,0,0:0:0:0:
256,192,85878,1,0,0:0:0:0:
256,192,86059,1,8,0:0:0:0:
256,192,86423,1,8,0:0:0:0:
256,192,86605,1,8,0:0:0:0:
256,192,86969,1,0,0:0:0:0:
256,192,87150,1,8,0:0:0:0:
256,192,87514,1,0,0:0:0:0:
256,192,87878,1,0,0:0:0:0:
256,192,88059,1,0,0:0:0:0:
256,192,88241,1,8,0:0:0:0:
256,192,88423,1,0,0:0:0:0:
256,192,88605,1,8,0:0:0:0:
256,192,88787,1,0,0:0:0:0:
256,192,88969,1,8,0:0:0:0:
256,192,89150,1,8,0:0:0:0:
256,192,89332,1,8,0:0:0:0:
256,192,89696,1,8,0:0:0:0:
256,192,89878,1,8,0:0:0:0:
256,192,90059,1,0,0:0:0:0:
256,192,90241,1,8,0:0:0:0:
256,192,90423,1,0,0:0:0:0:
256,192,90787,1,0,0:0:0:0:
256,192,90969,1,8,0:0:0:0:
256,192,91150,1,8,0:0:0:0:
256,192,91332,1,8,0:0:0:0:
256,192,91514,1,8,0:0:0:0:
256,192,91696,1,8,0:0:0:0:
256,192,91787,1,8,0:0:0:0:
256,192,91878,1,8,0:0:0:0:
256,192,92059,1,0,0:0:0:0:
256,192,92241,1,0,0:0:0:0:
256,192,92332,1,0,0:0:0:0:
256,192,92423,1,0,0:0:0:0:
256,192,92605,1,0,0:0:0:0:
256,192,93150,1,0,0:0:0:0:
256,192,93332,1,8,0:0:0:0:
256,192,93514,1,0,0:0:0:0:
256,192,93696,1,0,0:0:0:0:
256,192,93878,1,8,0:0:0:0:
256,192,94059,1,8,0:0:0:0:
256,192,94241,1,0,0:0:0:0:
256,192,94423,1,8,0:0:0:0:
256,192,94605,1,8,0:0:0:0:
256,192,94787,1,8,0:0:0:0:
256,192,95150,1,8,0:0:0:0:
256,192,95332,1,0,0:0:0:0:
256,192,95695,1,8,0:0:0:0:
256,192,95877,1,0,0:0:0:0:
256,192,96604,1,0,0:0:0:0:
256,192,96968,1,8,0:0:0:0:
256,192,97332,1,8,0:0:0:0:
256,192,97696,1,8,0:0:0:0:
256,192,98059,1,12,0:0:0:0:
256,192,98423,1,0,0:0:0:0:
256,192,98605,1,0,0:0:0:0:
256,192,98787,1,8,0:0:0:0:
256,192,98969,1,0,0:0:0:0:
256,192,99150,1,0,0:0:0:0:
256,192,99514,1,8,0:0:0:0:
256,192,99696,1,0,0:0:0:0:
256,192,99878,1,8,0:0:0:0:
256,192,100059,1,0,0:0:0:0:
256,192,100241,1,8,0:0:0:0:
256,192,100605,1,0,0:0:0:0:
256,192,100969,1,0,0:0:0:0:
256,192,101332,1,8,0:0:0:0:
256,192,101696,1,0,0:0:0:0:
256,192,102059,1,8,0:0:0:0:
256,192,102423,1,0,0:0:0:0:
256,192,102695,1,0,0:0:0:0:
256,192,102968,1,8,0:0:0:0:
256,192,103150,1,0,0:0:0:0:
256,192,103513,1,0,0:0:0:0:
256,192,103786,1,0,0:0:0:0:
256,192,104059,1,8,0:0:0:0:
256,192,104241,1,0,0:0:0:0:
256,192,104604,1,8,0:0:0:0:
256,192,104877,1,8,0:0:0:0:
256,192,105150,1,0,0:0:0:0:
256,192,105332,1,8,0:0:0:0:
256,192,105695,1,0,0:0:0:0:
256,192,105968,1,0,0:0:0:0:
256,192,106241,1,8,0:0:0:0:
256,192,106423,1,0,0:0:0:0:
256,192,106786,1,4,0:0:0:0:
256,192,107058,1,0,0:0:0:0:
256,192,107333,1,8,0:0:0:0:
256,192,107514,1,0,0:0:0:0:
256,192,107878,1,0,0:0:0:0:
256,192,108149,1,0,0:0:0:0:
256,192,108422,1,8,0:0:0:0:
256,192,108604,1,0,0:0:0:0:
256,192,108968,1,8,0:0:0:0:
256,192,109241,1,8,0:0:0:0:
256,192,109513,1,0,0:0:0:0:
256,192,109695,1,8,0:0:0:0:
256,192,110059,1,0,0:0:0:0:
256,192,110332,1,8,0:0:0:0:
256,192,110605,1,8,0:0:0:0:
256,192,110787,1,0,0:0:0:0:
256,192,111149,1,4,0:0:0:0:
256,192,111422,1,0,0:0:0:0:
256,192,111695,1,0,0:0:0:0:
256,192,111877,1,8,0:0:0:0:
256,192,112242,1,8,0:0:0:0:
256,192,112515,1,8,0:0:0:0:
256,192,112787,1,8,0:0:0:0:
256,192,112878,1,8,0:0:0:0:
256,192,112969,1,8,0:0:0:0:
256,192,113331,1,0,0:0:0:0:
256,192,113604,1,0,0:0:0:0:
256,192,113877,1,0,0:0:0:0:
256,192,114058,1,8,0:0:0:0:
256,192,114423,1,0,0:0:0:0:
256,192,114696,1,0,0:0:0:0:
256,192,114968,1,8,0:0:0:0:
256,192,115149,1,0,0:0:0:0:
256,192,115513,1,4,0:0:0:0:
256,192,115786,1,4,0:0:0:0:
256,192,116058,1,4,0:0:0:0:
256,192,116240,1,12,0:0:0:0:
256,192,116604,1,12,0:0:0:0:
256,192,116878,1,12,0:0:0:0:
256,192,117149,1,4,0:0:0:0:
256,192,117331,1,6,0:0:0:0:
