osu file format v13

[General]
AudioFilename: Scars of FAUNA.mp3
AudioLeadIn: 0
PreviewTime: 80605
Countdown: 0
SampleSet: Normal
StackLeniency: 0.7
Mode: 1
LetterboxInBreaks: 0
WidescreenStoryboard: 0

[Editor]
DistanceSpacing: 2
BeatDivisor: 4
GridSize: 32
TimelineZoom: 2.1

[Metadata]
Title:Scars of FAUNA
TitleUnicode:Scars of FAUNA
Artist:Nekomata Master
ArtistUnicode:猫叉Master
Creator:Kunieda
Version:Kantan
Source:jubeat saucer fulfill
Tags:konami groovecoaster maimai maimaiORANGE 太鼓の達人 キミドリ taikonotatsujin kimidori naoyukisato CoroQuetz
BeatmapID:568486
BeatmapSetID:246863

[Difficulty]
HPDrainRate:3
CircleSize:3
OverallDifficulty:3
ApproachRate:3
SliderMultiplier:1.4
SliderTickRate:1

[Events]
//Background and Video events
0,0,"lkHa1aD.jpg",0,0
//Break Periods
//Storyboard Layer 0 (Background)
//Storyboard Layer 1 (Fail)
//Storyboard Layer 2 (Pass)
//Storyboard Layer 3 (Foreground)
//Storyboard Sound Samples

[TimingPoints]
969,363.636363636364,6,1,0,80,1,0
80605,-100,6,1,0,80,0,1
106787,-100,6,1,0,80,0,0

[HitObjects]
256,192,969,5,0,0:0:0:0:
256,192,3150,1,0,0:0:0:0:
256,192,5332,1,12,0:0:0:0:
256,192,7514,1,8,0:0:0:0:
256,192,9696,1,4,0:0:0:0:
256,192,11878,1,0,0:0:0:0:
256,192,14059,1,4,0:0:0:0:
256,192,16241,1,0,0:0:0:0:
256,192,18423,1,12,0:0:0:0:
256,192,20605,1,0,0:0:0:0:
256,192,21696,1,0,0:0:0:0:
256,192,22787,1,12,0:0:0:0:
256,192,23878,1,8,0:0:0:0:
256,192,24969,1,0,0:0:0:0:
256,192,26059,1,8,0:0:0:0:
256,192,27150,1,12,0:0:0:0:
256,192,29332,1,0,0:0:0:0:
256,192,31514,1,0,0:0:0:0:
256,192,32605,1,8,0:0:0:0:
256,192,33696,1,0,0:0:0:0:
256,192,34787,2,0,L|192:192,12,35,0|0|0|0|0|0|0|0|0|0|0|0|0,0:0|0:0|0:0|0:0|0:0|0:0|0:0|0:0|0:0|0:0|0:0|0:0|0:0,0:0:0:0:
256,192,38059,1,8,0:0:0:0:
256,192,40241,1,8,0:0:0:0:
256,192,41332,1,0,0:0:0:0:
256,192,42423,1,8,0:0:0:0:
256,192,45696,1,4,0:0:0:0:
256,192,47878,1,0,0:0:0:0:
256,192,50059,1,12,0:0:0:0:
256,192,52241,1,8,0:0:0:0:
256,192,54423,1,0,0:0:0:0:
256,192,55514,2,0,L|96:192,3,140,0|0|0|0,0:0|0:0|0:0|0:0,0:0:0:0:
256,192,57696,1,0,0:0:0:0:
256,192,58787,1,12,0:0:0:0:
256,192,59878,2,0,L|96:192,3,140,0|0|0|0,0:0|0:0|0:0|0:0,0:0:0:0:
256,192,63150,1,12,0:0:0:0:
256,192,65332,1,0,0:0:0:0:
256,192,67514,1,8,0:0:0:0:
256,192,69696,1,0,0:0:0:0:
256,192,71878,1,8,0:0:0:0:
256,192,74059,1,8,0:0:0:0:
256,192,76241,1,8,0:0:0:0:
256,192,78423,1,0,0:0:0:0:
256,192,79514,12,0,80423,0:0:0:0:
256,192,80605,5,12,0:0:0:0:
256,192,82786,1,8,0:0:0:0:
256,192,83878,1,8,0:0:0:0:
256,192,84968,1,8,0:0:0:0:
256,192,87150,2,0,L|96:160,2,140,0|0|0,0:0|0:0|0:0,0:0:0:0:
256,192,88241,1,8,0:0:0:0:
256,192,88968,1,8,0:0:0:0:
256,192,89332,1,4,0:0:0:0:
256,192,91514,1,8,0:0:0:0:
256,192,93695,1,8,0:0:0:0:
256,192,94786,1,8,0:0:0:0:
256,192,95877,1,0,0:0:0:0:
256,192,96968,2,0,L|128:128,2,140,0|0|0,0:0|0:0|0:0,0:0:0:0:
256,192,98059,1,12,0:0:0:0:
256,192,100241,1,8,0:0:0:0:
256,192,101332,1,8,0:0:0:0:
256,192,102423,1,12,0:0:0:0:
256,192,103514,1,0,0:0:0:0:
256,192,104605,1,8,0:0:0:0:
256,192,105695,1,0,0:0:0:0:
256,192,106786,1,6,0:0:0:0:
256,192,108969,1,8,0:0:0:0:
256,192,111149,1,8,0:0:0:0:
256,192,112240,1,8,0:0:0:0:
256,192,113331,1,8,0:0:0:0:
256,192,114422,1,8,0:0:0:0:
256,192,115513,1,4,0:0:0:0:
256,192,116240,1,8,0:0:0:0:
256,192,116604,1,4,0:0:0:0:
256,192,117331,1,12,0:0:0:0:
