osu file format v13

[General]
AudioFilename: Scars of FAUNA.mp3
AudioLeadIn: 0
PreviewTime: 80605
Countdown: 0
SampleSet: Normal
StackLeniency: 0.7
Mode: 1
LetterboxInBreaks: 0
WidescreenStoryboard: 0

[Editor]
DistanceSpacing: 2
BeatDivisor: 2
GridSize: 32
TimelineZoom: 2.1

[Metadata]
Title:Scars of FAUNA
TitleUnicode:Scars of FAUNA
Artist:Nekomata Master
ArtistUnicode:猫叉Master
Creator:Kunieda
Version:Futsuu
Source:jubeat saucer fulfill
Tags:konami groovecoaster maimai maimaiORANGE 太鼓の達人 キミドリ taikonotatsujin kimidori naoyukisato CoroQuetz
BeatmapID:568485
BeatmapSetID:246863

[Difficulty]
HPDrainRate:4
CircleSize:4
OverallDifficulty:4
ApproachRate:4
SliderMultiplier:1.4
SliderTickRate:1

[Events]
//Background and Video events
0,0,"lkHa1aD.jpg",0,0
//Break Periods
//Storyboard Layer 0 (Background)
//Storyboard Layer 1 (Fail)
//Storyboard Layer 2 (Pass)
//Storyboard Layer 3 (Foreground)
//Storyboard Sound Samples

[TimingPoints]
969,363.636363636364,6,1,0,80,1,0
80605,-100,6,1,0,80,0,1
106787,-100,6,1,0,80,0,0

[HitObjects]
256,192,969,5,0,0:0:0:0:
256,192,2059,1,0,0:0:0:0:
256,192,3150,1,0,0:0:0:0:
256,192,4241,1,0,0:0:0:0:
256,192,5332,1,12,0:0:0:0:
256,192,6423,1,0,0:0:0:0:
256,192,7514,1,0,0:0:0:0:
256,192,8605,1,0,0:0:0:0:
256,192,9696,1,12,0:0:0:0:
256,192,10787,1,8,0:0:0:0:
256,192,11878,1,8,0:0:0:0:
256,192,12969,1,8,0:0:0:0:
256,192,14059,1,0,0:0:0:0:
256,192,15150,1,8,0:0:0:0:
256,192,16241,1,8,0:0:0:0:
256,192,17332,1,8,0:0:0:0:
256,192,18423,1,4,0:0:0:0:
256,192,20605,1,0,0:0:0:0:
256,192,21696,1,0,0:0:0:0:
256,192,22787,1,4,0:0:0:0:
256,192,23514,1,8,0:0:0:0:
256,192,23878,1,0,0:0:0:0:
256,192,24969,1,8,0:0:0:0:
256,192,25696,1,0,0:0:0:0:
256,192,26059,1,8,0:0:0:0:
256,192,26423,1,8,0:0:0:0:
256,192,26787,1,8,0:0:0:0:
256,192,27150,1,4,0:0:0:0:
256,192,28969,1,8,0:0:0:0:
256,192,29332,1,0,0:0:0:0:
256,192,30423,1,8,0:0:0:0:
256,192,31150,1,8,0:0:0:0:
256,192,31514,1,0,0:0:0:0:
256,192,32605,1,0,0:0:0:0:
256,192,33696,1,0,0:0:0:0:
256,192,34787,1,8,0:0:0:0:
256,192,35150,1,8,0:0:0:0:
256,192,35514,1,8,0:0:0:0:
256,192,35878,1,4,0:0:0:0:
256,192,38059,1,4,0:0:0:0:
256,192,40241,1,4,0:0:0:0:
256,192,42423,1,4,0:0:0:0:
256,192,44605,12,8,45514,0:0:0:0:
256,192,45696,5,4,0:0:0:0:
256,192,46059,1,8,0:0:0:0:
256,192,46423,1,8,0:0:0:0:
256,192,47878,1,0,0:0:0:0:
256,192,48241,1,8,0:0:0:0:
256,192,48605,1,8,0:0:0:0:
256,192,50059,1,0,0:0:0:0:
256,192,50423,1,8,0:0:0:0:
256,192,50787,1,8,0:0:0:0:
256,192,52241,1,0,0:0:0:0:
256,192,52605,1,8,0:0:0:0:
256,192,52969,1,8,0:0:0:0:
256,192,54423,1,4,0:0:0:0:
256,192,55514,2,0,L|96:128,2,140,0|0|0,0:0|0:0|0:0,0:0:0:0:
256,192,56605,1,8,0:0:0:0:
256,192,57696,1,0,0:0:0:0:
256,192,58787,1,4,0:0:0:0:
256,192,59878,2,0,L|128:128,2,140,0|0|0,0:0|0:0|0:0,0:0:0:0:
256,192,60969,1,8,0:0:0:0:
256,192,62059,1,0,0:0:0:0:
256,192,63150,1,8,0:0:0:0:
256,192,64241,1,8,0:0:0:0:
256,192,64968,1,8,0:0:0:0:
256,192,65332,1,0,0:0:0:0:
256,192,66423,1,8,0:0:0:0:
256,192,67150,1,8,0:0:0:0:
256,192,67513,1,0,0:0:0:0:
256,192,68605,1,8,0:0:0:0:
256,192,69332,1,8,0:0:0:0:
256,192,69696,1,4,0:0:0:0:
256,192,71878,1,4,0:0:0:0:
256,192,74059,1,4,0:0:0:0:
256,192,76241,1,4,0:0:0:0:
256,192,78423,1,0,0:0:0:0:
256,192,79514,1,0,0:0:0:0:
256,192,79878,1,0,0:0:0:0:
256,192,80241,1,0,0:0:0:0:
256,192,80605,1,12,0:0:0:0:
256,192,81695,1,8,0:0:0:0:
256,192,82787,2,0,L|96:128,3,140,0|0|0|0,0:0|0:0|0:0|0:0,0:0:0:0:
256,192,84968,1,8,0:0:0:0:
256,192,86059,1,8,0:0:0:0:
256,192,87150,1,0,0:0:0:0:
256,192,88241,1,8,0:0:0:0:
256,192,88605,1,0,0:0:0:0:
256,192,88969,1,8,0:0:0:0:
256,192,89332,1,4,0:0:0:0:
256,192,90423,1,8,0:0:0:0:
256,192,91514,2,0,L|96:128,3,140,0|0|0|0,0:0|0:0|0:0|0:0,0:0:0:0:
256,192,93695,1,0,0:0:0:0:
256,192,94786,1,0,0:0:0:0:
256,192,95878,1,8,0:0:0:0:
256,192,96605,1,0,0:0:0:0:
256,192,96968,1,8,0:0:0:0:
256,192,97331,1,8,0:0:0:0:
256,192,97695,1,8,0:0:0:0:
256,192,98059,1,4,0:0:0:0:
256,192,100241,1,8,0:0:0:0:
256,192,101332,1,8,0:0:0:0:
256,192,102423,1,0,0:0:0:0:
256,192,103514,1,8,0:0:0:0:
256,192,104605,1,0,0:0:0:0:
256,192,105695,2,8,P|128:160|96:160,2,140,8|8|8,0:0|0:0|0:0,0:0:0:0:
256,192,106786,1,4,0:0:0:0:
256,192,107878,1,8,0:0:0:0:
256,192,108969,1,0,0:0:0:0:
256,192,110058,1,0,0:0:0:0:
256,192,111149,1,8,0:0:0:0:
256,192,112240,1,8,0:0:0:0:
256,192,113331,1,0,0:0:0:0:
256,192,114422,1,0,0:0:0:0:
256,192,114786,1,8,0:0:0:0:
256,192,115149,1,8,0:0:0:0:
256,192,115513,1,4,0:0:0:0:
256,192,116240,1,0,0:0:0:0:
256,192,116604,1,12,0:0:0:0:
256,192,116969,1,0,0:0:0:0:
256,192,117331,1,12,0:0:0:0:
