osu file format v7

[General]
AudioFilename: Nekosa Master - scar in the earth.mp3
AudioLeadIn: 0
PreviewTime: 16894
Countdown: 0
SampleSet: Soft
StackLeniency: 0.7
Mode: 0
LetterboxInBreaks: 1

[Editor]
DistanceSpacing: 0.800000011920929
BeatDivisor: 4
GridSize: 8

[Metadata]
Title:Scar in the Earth
Artist:Nekomata Master
Creator:skranger
Version:Normal
Source:Beatmania IIDX 15 DJ Troopers
Tags:ignorethis

[Difficulty]
HPDrainRate:1
CircleSize:3
OverallDifficulty:5
SliderMultiplier:1.4
SliderTickRate:1

[Events]
//Background and Video events
0,0,"5489822_m.jpg"
Video,0,"1540[WisMencoder Encoded].avi"
//Break Periods
2,28582,29310
2,44752,56969
2,84327,87182
2,99220,99948
//Storyboard Layer 0 (Background)
//Storyboard Layer 1 (Fail)
//Storyboard Layer 2 (Pass)
//Storyboard Layer 3 (Foreground)
//Storyboard Sound Samples
//Background Colour Transformations
3,100,163,162,255

[TimingPoints]
2000,425.528813559323,4,2,0,31,1,0
3489,-200,4,2,0,29,0,0
6468,-100,4,2,0,32,0,0
8595,-200,4,2,0,30,0,0
11574,-100,4,2,0,31,0,0
14233,-200,4,2,0,31,0,0
16999,-100,4,2,0,81,0,0
18808,-200,4,2,0,81,0,0
20510,-100,4,2,0,79,0,0
22319,-200,4,2,0,79,0,0
23808,-100,4,2,0,78,0,0
59340,-200,4,2,0,53,0,0
88169,-100,4,2,0,79,0,0
102850,-100,4,2,0,80,0,0
116360,-100,4,2,0,31,0,1
117318,-100,4,2,0,78,0,0

[Colours]
Combo1 : 208,128,47
Combo2 : 97,179,57
Combo3 : 85,121,187
Combo4 : 173,65,65

[HitObjects]
256,288,3702,2,0,B|328:280|360:216|360:216,1,140
256,192,4979,1,2
256,96,5404,2,0,B|184:104|152:168|152:168,1,140
256,192,6680,1,2
112,80,7532,5,0
48,176,7958,1,0
136,248,8383,1,0
224,312,8808,2,0,C|280:280|280:280,1,70
296,168,9659,2,0,C|224:216|224:216,1,70
144,144,10510,6,0,C|80:104,2,70
248,184,11787,1,2
336,120,12212,1,0
424,184,12638,1,0
344,264,13063,1,0
232,288,13489,1,2
184,184,14340,6,0,C|248:168|248:168,1,70,0|0
280,280,15191,2,0,C|344:240|344:240,1,70
400,336,16042,2,0,B|456:296|464:192|464:192,1,140
424,112,17319,5,2
336,40,17744,1,2
248,104,18170,1,2
200,72,18382,1,0
144,56,18595,1,2
88,72,18808,1,0
48,104,19021,2,0,C|8:168|8:168,1,70,2|0
8,272,19872,2,0,C|56:336|56:336,1,70,2|0
144,272,20723,5,2
256,264,21148,1,0
296,224,21361,1,0
328,184,21574,1,2
416,112,21999,1,0
304,112,22425,2,0,C|240:112|240:112,1,70,2|0
160,32,23276,2,0,C|240:32|240:32|240:32,1,70,2|0
456,32,24127,5,2
456,144,24553,1,2
344,152,24978,2,0,C|344:320|344:320,2,140
232,152,26255,1,2
120,152,26680,2,0,B|72:224|96:296|96:296,1,140
192,336,27531,2,0,B|320:328|384:256|424:168|424:168,1,280
256,192,30510,5,2
344,264,30935,1,2
256,336,31361,1,2
176,264,31787,1,0
224,232,31999,1,0
272,208,32212,1,0
384,208,32638,5,2
472,136,33063,2,0,B|432:48|320:48|320:48,1,140
256,56,33914,1,2
144,56,34340,2,0,B|56:56|24:184|24:184,1,140
136,200,35191,2,0,B|216:240|200:376|200:376,2,140
208,112,36467,5,2
320,120,36893,2,0,B|432:184|424:264|424:264,1,140
352,312,37744,1,2
264,240,38169,1,0
184,312,38595,1,0
176,88,39446,5,2
256,168,39872,1,0
336,88,40297,1,0
416,168,40723,2,0,B|312:32|192:280|136:280|40:144|40:144,1,420
256,192,42531,12,0,44552
480,56,58169,5,0
400,128,58595,1,0
344,224,59020,1,0
304,328,59446,2,0,C|224:312|224:312,1,70
216,200,60297,2,0,C|136:240|136:240,1,70
128,120,61148,2,0,B|48:104|-16:200|-16:200,1,140
80,320,63701,6,0,C|16:368|16:368,2,70
184,288,64978,2,0,C|288:208|288:208,1,140
384,144,66254,1,0
424,248,66680,1,0
320,200,67105,5,0
224,144,67531,1,0
128,200,67956,2,0,C|48:232|48:232,1,70
112,328,68808,1,0
224,304,69233,2,0,C|304:272|304:272,2,70
456,320,71361,5,2
456,208,71786,1,0
344,200,72212,1,0
344,312,72637,1,0
120,312,73488,5,2
120,200,73914,1,0
120,88,74339,1,0
344,80,75190,5,2
344,192,75616,1,0
344,304,76042,1,0
256,192,76467,12,0,77744
80,312,78169,6,0,C|152:288|152:288,1,70
248,248,79020,1,0
336,184,79446,1,2
384,208,79659,1,0
392,264,79871,1,0
304,328,80297,6,0,C|248:296|248:296,1,70
152,232,81148,1,2
104,208,81361,1,0
48,216,81573,1,0
256,192,81999,12,0,84127
184,168,88382,5,2
232,272,88807,1,0
328,328,89233,1,0
368,224,89658,1,2
424,208,89871,1,0
440,152,90084,1,0
416,104,90297,1,0
376,64,90509,2,0,C|424:16|424:16,2,70
288,136,91361,1,2
208,208,91786,1,0
96,200,92212,6,0,B|32:136|112:48|112:48,1,140
208,72,93063,1,2
320,72,93488,1,0
432,72,93914,1,0
376,168,94339,2,0,B|488:200|472:288|472:288,2,140
336,272,95616,5,2
232,304,96041,1,0
136,256,96467,1,2
96,216,96680,1,0
80,160,96892,1,0
96,104,97105,1,0
128,56,97318,1,0
216,0,97743,2,0,B|296:-40|368:56|368:56,1,140
392,136,98595,2,0,B|432:224|296:296|296:296,1,140
104,72,101148,6,0,B|32:144|64:224|64:224,1,140
136,280,101999,2,0,B|240:256|288:320|288:320,1,140
360,368,102850,1,2
432,288,103275,1,0
488,192,103701,1,2
464,136,103914,1,0
416,104,104126,1,0
312,64,104552,1,0
200,32,104977,1,0
104,96,105403,1,2
72,144,105616,1,0
40,192,105829,1,0
88,288,106254,6,0,C|176:160|176:160,1,140
248,96,107105,2,0,B|336:96|400:168|400:168,1,140
424,248,107956,6,0,C|512:248|512:248,2,70
376,280,108594,1,0
328,312,108807,1,0
280,280,109020,1,0
232,248,109233,1,0
72,88,110084,5,2
72,312,110935,1,2
256,192,111786,1,2
256,192,112211,6,0,C|392:192|392:192,1,140
512,192,113063,1,2
512,136,113275,1,0
512,80,113488,1,0
400,80,113914,1,0
288,80,114339,1,0
288,192,114765,6,0,C|144:208|144:208,1,140
40,224,115616,1,2
40,280,115828,1,0
40,336,116041,2,0,B|152:344|144:224|168:200|264:192|264:192,1,280
256,192,117743,12,0,119019
256,192,119445,5,0
